#TITLE:和牛ファイヤー!;
#SUBTITLE:;
#ARTIST:とちおとめ25;
#TITLETRANSLIT:Wagyuu Fire!;
#SUBTITLETRANSLIT:;
#ARTISTTRANSLIT:Tochiotome25;
#GENRE:;
#CREDIT:;
#BANNER:Wagyuu Fire!.png;
#BACKGROUND:Wagyuu Fire!-bg.png;
#LYRICSPATH:;
#CDTITLE:;
#MUSIC:Wagyuu Fire!.mp3;
#OFFSET:-0.167000;
#SAMPLESTART:59.320000;
#SAMPLELENGTH:12.000000;
#SELECTABLE:YES;
#BPMS:0.000000=75.000000
,12.000000=150.001007
;
#STOPS:
;
#BGCHANGES:;
#KEYSOUNDS:;
#ATTACKS:;

//---------------dance-single - Blank----------------
#NOTES:
     dance-single:
     :
     Hard:
     8:
     0.551522,0.521188,0.172713,0.253990,0.492741,380.000000,363.000000,17.000000,25.000000,0.000000,0.000000,0.551522,0.521188,0.172713,0.253990,0.492741,380.000000,363.000000,17.000000,25.000000,0.000000,0.000000:
0000
0000
0000
0000
,
1000
0000
0000
1000
0010
0000
0100
0000
0001
0000
0000
0001
0010
0000
0100
0000
,
2000
0000
0000
0000
3000
0000
0010
0100
0020
0000
0030
0000
2002
0000
3003
0000
,
1000
0000
0000
1000
0010
0000
0000
0010
0100
0000
0000
0100
0001
0000
1000
0000
,
0001
0000
0000
0001
0010
0000
0100
0000
1000
0000
0000
0000
1001
0000
0000
0000
,
1000
0000
0000
0000
0010
0000
0000
0100
0000
0000
0100
0000
0000
0000
0001
0000
,
1000
0000
1000
0000
0100
0000
0000
0010
0000
0000
0010
0000
0000
0000
0001
0000
,
1000
0000
1000
0000
0100
0000
0000
0001
0000
0000
0001
0000
0000
0000
0100
0000
,
1000
0010
0100
0001
2000
0000
3001
0000
,
1000
1000
0100
0100
0010
0010
0001
0001
,
1000
0010
0200
0300
0001
0010
0200
0300
,
1000
0100
1000
0000
0001
0100
0001
0000
,
1000
0100
0010
0001
1000
0010
0100
0000
,
0001
0000
0000
0001
0100
0000
0000
0100
0010
0000
0000
0010
1000
0000
0000
1000
,
0001
0000
0000
0001
0010
0000
0000
0010
0100
0000
0000
0100
1000
0000
0000
1000
,
0001
0000
0000
0001
0100
0000
0000
0100
1000
0000
0000
1000
0100
0000
0000
0100
,
0001
0000
0000
0001
0000
0000
0001
0000
2000
0000
0000
0000
3010
0000
0000
0000
,
1000
0000
0100
0000
1000
0000
0001
0000
0100
0000
0001
0000
1000
0000
0000
0001
0000
0000
1000
0000
0000
0000
0000
0000
,
0010
0010
0100
0100
0001
1000
0001
0000
,
1000
0100
0001
0100
1000
1000
0001
0000
,
1000
0010
0001
0100
2000
0000
3001
0000
,
1000
0000
0000
1000
0010
0000
0000
0010
0100
0000
0000
0100
0001
0000
0000
0001
,
1000
0000
0000
1000
0100
0000
0000
0100
0010
0000
0000
0010
0001
0000
0000
0001
,
1000
0000
0000
1000
0010
0000
0000
0010
0001
0000
0000
0001
0010
0000
0000
0010
,
1000
0000
0000
1000
0000
0000
1000
0000
0002
0000
0000
0000
0103
0000
0000
0000
,
0002
0000
0010
0010
0013
0000
1100
0000
,
2000
0000
0010
0010
3010
0000
0101
0000
,
2000
0000
0100
0100
3100
0000
0011
0000
,
0002
0000
0100
0100
0103
0000
1010
0000
,
1001
0000
0000
1000
0010
0100
0001
0000
,
1001
0000
0000
0001
0010
0100
1000
0000
,
1001
0000
0001
0100
1000
0000
0100
0100
,
0200
0000
0300
0000
0010
1000
0001
0000
,
1000
0000
0000
1000
0001
0000
0000
0001
1000
0000
0010
0000
0100
0000
0000
0000
,
1001
0000
0000
0001
0100
0000
0000
0100
0010
0000
0000
0010
1000
0000
0000
1000
,
0100
0000
0000
0100
0010
0000
0000
0010
0001
0000
0000
0001
1000
0000
0000
1000
,
0100
0000
0000
0100
1000
0000
0000
1000
0010
0000
0000
0010
0100
0000
0000
0100
,
0001
0000
0000
0001
1000
0000
0000
1000
0100
0000
0000
0100
0010
0000
0000
0010
,
0001
0000
0000
0001
0100
0000
0000
0100
1000
0000
0000
1000
0100
0000
0000
0100
,
0001
0000
0000
0001
0010
0000
0000
0010
1000
0000
0000
1000
0010
0000
0000
0010
,
0001
0000
0000
0001
0100
0000
0000
0100
1000
0000
0000
1000
0010
0000
0000
0010
,
0002
0000
1003
0000
0010
0100
0110
0000
,
1001
0000
0000
1000
0010
0000
0000
0010
0001
0000
0000
0001
0010
0000
0000
0010
,
1000
0000
0000
1000
0100
0000
0000
0100
0001
0000
0000
0001
0100
0000
0000
0100
,
0010
0000
0000
0010
0001
0000
0000
0001
0100
0000
0000
0100
1000
0000
0000
1000
,
0200
0320
2030
3001
,
1000
0000
0000
1000
0100
0000
0000
0100
0001
0000
0000
0001
0100
0000
0000
0100
,
0010
0000
0000
0010
0001
0000
0000
0001
1000
0000
0000
1000
0100
0000
0000
0100
,
2000
0000
3020
0000
0230
0000
0301
0001
,
0002
1003
1010
0101
,
1000
0000
0000
1000
0100
0000
0000
0100
0010
0000
0000
0010
0001
0000
1000
0000
,
0001
0000
0000
0001
0100
0000
0010
0000
1000
0000
0000
0000
1001
0000
0000
0000
,
1000
0000
0000
0000
0100
0000
0000
0001
0000
0000
0001
0000
0000
0000
0100
0000
,
1000
0000
1000
0000
0010
0000
0000
0001
0000
0000
0001
0000
0000
0000
0010
0000
,
1000
0000
1000
0000
0100
0000
0000
0001
0000
0000
0001
0000
0000
0000
0100
0000
,
1000
0010
0001
0100
1000
0000
1100
0000
,
0202
0000
0000
0000
,
0303
0000
0000
0000
;

//---------------dance-double - Blank----------------
#NOTES:
     dance-double:
     :
     Hard:
     8:
     0.566035,0.521188,0.162554,0.264150,0.518140,390.000000,374.000000,16.000000,26.000000,0.000000,0.000000,0.566035,0.521188,0.162554,0.264150,0.518140,390.000000,374.000000,16.000000,26.000000,0.000000,0.000000:
00000000
00000000
00000000
00000000
,
10000000
00000000
00000000
10000000
00100000
00000000
01000000
00000000
00010000
00000000
00000000
00010000
00100000
00000000
00001000
00000000
,
00020000
00000000
00000000
00000000
00031000
00000000
00010000
00000010
00000200
00000000
00000300
00000000
00002002
00000000
00003003
00000000
,
00000001
00000000
00000000
00000001
00000010
00000000
00000000
00000010
00000100
00000000
00000000
00000100
00001000
00000000
00000001
00000000
,
00000100
00000000
00000000
00000100
00000010
00000000
00001000
00000000
00000100
00000000
00000000
00000000
00011000
00000000
00000000
00000000
,
00010000
00000000
00000000
00000000
00100000
00000000
00000000
10000000
00000000
00000000
20000000
00000000
00000000
00000000
31000000
00000000
,
00010000
00000000
00010000
00000000
00001000
00000000
00000000
00000010
00000000
00000000
00000020
00000000
00000000
00000000
00000031
00000000
,
00000100
00000000
00000100
00000000
00001000
00000000
00000000
00010000
00000000
00000000
00020000
00000000
00000000
00000000
00130000
00000000
,
10000000
01000000
00010000
00001000
00000010
00000000
00002002
00003003
,
00000001
00000001
00000100
00000100
00000010
00000010
00001000
00001000
,
00000100
00001000
00000002
00000000
00000103
00000001
00002000
00000000
,
00003001
00000010
00001000
00000000
00010000
01000000
10000000
00000000
,
00010000
01000000
00100000
10000000
00010000
00010000
10000000
00000000
,
00010000
00000000
00000000
00010000
01000000
00000000
00000000
01000000
00001000
00000000
00000000
00001000
00010000
00000000
00000000
00010000
,
00000100
00000000
00000000
00000100
00001000
00000000
00000000
00001000
00000010
00000000
00000000
00000010
00000100
00000000
00000000
00000100
,
00000001
00000000
00000000
00000001
00001000
00000000
00000000
00001000
00000100
00000000
00000000
00000100
00010000
00000000
00000000
00010000
,
00001000
00000000
00000000
00001000
00000000
00000000
00001000
00000000
00200000
00000000
00000000
00000000
01300000
00000000
00000000
00000000
,
10000000
10000000
00010000
00010000
01000000
00100000
01000000
00000000
,
00001000
00001000
00010000
00010000
00000100
00001000
00000010
00000000
,
00001000
00000010
00000001
00000010
00000100
00000100
00000001
00000000
,
00001000
00000100
00000001
00000010
00002000
00000000
00003001
00000000
,
00001000
00000000
00000000
00001000
00000010
00000000
00000000
00000010
00010000
00000000
00000000
00010000
00001000
00000000
00000000
00001000
,
00100000
00000000
00000000
00100000
00010000
00000000
00000000
00010000
01000000
00000000
00000000
01000000
00100000
00000000
00000000
00100000
,
10000000
00000000
00000000
10000000
00010000
00000000
00000000
00010000
00100000
00000000
00000000
00100000
00001000
00000000
00000000
00001000
,
00010000
00000000
00000000
00010000
00000000
00000000
00010000
00000000
00000200
00000000
00000000
00000000
00000310
00000000
00000000
00000000
,
00000002
00000000
00000100
00000103
00000010
00000000
00011000
00000000
,
20000000
00000000
01000000
31000000
00100000
00000000
00011000
00000000
,
00000002
00000000
00000103
00001000
00010000
00000000
10100000
00000000
,
20000000
00000000
31000000
00010000
00001000
00000000
00000011
00000000
,
00001001
00000000
00000000
00000001
00000100
00001000
00000100
00000000
,
00001001
00000000
00000000
00000001
00000010
00001000
00000010
00000000
,
00001001
00000000
00000001
00000100
00001000
00010000
00100000
00100000
,
20000000
00000000
30000000
00000000
00010000
10000000
00010000
00000000
,
10000000
00000000
00000000
10000000
00100000
00000000
00000000
00100000
01000000
00000000
00010000
00000000
10000000
00000000
00000000
00000000
,
10010000
00000000
00000000
10000000
01000000
00000000
00000000
01000000
00100000
00000000
00000000
00100000
00010000
00000000
00000000
00010000
,
01000000
00000000
00000000
01000000
00001000
00000000
00000000
00001000
00010000
00000000
00000000
00010000
00000100
00000000
00000000
00000100
,
00001000
00000000
00000000
00001000
00000010
00000000
00000000
00000010
00000100
00000000
00000000
00000100
00000001
00000000
00000000
00000001
,
00001000
00000000
00000000
00001000
00000100
00000000
00000000
00000100
00010000
00000000
00000000
00010000
00001000
00000000
00000000
00001000
,
00100000
00000000
00000000
00100000
00010000
00000000
00000000
00010000
01000000
00000000
00000000
01000000
00001000
00000000
00000000
00001000
,
00010000
00000000
00000000
00010000
00000010
00000000
00000000
00000010
00000100
00000000
00000000
00000100
00000001
00000000
00000000
00000001
,
00001000
00000000
00000000
00001000
00000100
00000000
00000000
00000100
00010000
00000000
00000000
00010000
00001000
00000000
00000000
00001000
,
00200000
00000000
01300000
00000000
00010000
00001000
00001100
00000000
,
00001001
00000000
00000000
00000001
00000100
00000000
00000000
00000100
00001000
00000000
00000000
00001000
00010000
00000000
00000000
00010000
,
00100000
00000000
00000000
00100000
10000000
00000000
00000000
10000000
01000000
00000000
00000000
01000000
00010000
00000000
00000000
00010000
,
00001000
00000000
00000000
00001000
00000010
00000000
00000000
00000010
00000001
00000000
00000000
00000001
00000100
00000000
00000000
00000100
,
00001000
00000000
00000000
00001000
00000010
00000000
00000000
00000010
00000001
00000000
00000000
00000001
00001000
00000000
00000000
00001000
,
00000001
00000000
00000000
00000001
00000100
00000000
00000000
00000100
00001000
00000000
00000000
00001000
00010000
00000000
00000000
00010000
,
00100000
00000000
00000000
00100000
10000000
00000000
00000000
10000000
01000000
00000000
00000000
01000000
00010000
00000000
00000000
00010000
,
00001000
00000000
00000000
00001000
00000010
00000000
00000000
00000010
00000001
00000000
00000000
00000001
00000100
00000000
00000000
00000100
,
00001000
00000000
00001000
00000000
00010000
00000000
00100000
10000000
00200000
00000000
00000000
00000000
01300000
00000000
01000000
00000000
,
00010000
00000000
00000000
00010000
01000000
00000000
00000000
01000000
10000000
00000000
00000000
10000000
00100000
00000000
00100000
00000000
,
00010000
00000000
00000000
00010000
00001000
00000000
00001000
00000000
00000100
00000000
00000000
00000000
00001001
00000000
00000000
00000000
,
00000001
00000000
00000000
00000000
00000010
00000000
00000000
00001000
00000000
00000000
00002000
00000000
00000000
00000000
00013000
00000000
,
01000000
00000000
01000000
00000000
10000000
00000000
00000000
00100000
00000000
00000000
00200000
00000000
00000000
00000000
00310000
00000000
,
00001000
00000000
00001000
00000000
00000100
00000000
00000000
00000001
00000000
00000000
00000002
00000000
00000000
00000000
00000013
00000000
,
00001000
00010000
00000100
00001000
00000010
00000000
00001010
00000000
,
00000022
00000000
00000000
00000000
,
00000033
00000000
00000000
00000000
;

//---------------dance-single - ----------------
#NOTES:
     dance-single:
     :
     Easy:
     4:
     0.328010,0.318504,0.142235,0.142235,0.000000,226.000000,212.000000,14.000000,14.000000,0.000000,0.000000,0.328010,0.318504,0.142235,0.142235,0.000000,226.000000,212.000000,14.000000,14.000000,0.000000,0.000000:
0000
0000
0000
0000
,
1000
0010
0100
0001
,
2000
3000
0001
1001
,
1000
1000
1000
0010
,
0100
0100
0001
1001
,
0001
0010
0001
0001
,
1000
0010
1000
1000
,
0001
0100
0001
0001
,
1000
0100
0010
1001
,
0001
0010
0001
0010
,
0100
1000
0100
1000
,
0001
0100
0001
0100
,
0010
1000
0010
1000
,
0001
1000
0001
1000
,
0010
0100
0010
0100
,
0001
0010
0100
1000
,
0001
1000
2002
3003
,
1000
0010
0100
0100
,
0001
0100
0010
0010
,
1000
0100
0010
0010
,
0001
0010
2002
3003
,
0001
0100
1000
0100
,
0001
0010
1000
0010
,
0001
0100
1000
0010
,
0001
1000
2002
3003
,
1000
0010
0001
0001
,
0010
1000
0100
0100
,
0001
0100
1000
1000
,
0010
0100
0001
0001
,
2010
0000
0001
3001
,
0012
0000
1000
1003
,
2100
0000
0001
3001
,
0102
0000
1000
1003
,
0001
0010
1000
0100
,
0001
0010
0100
1000
,
0100
0010
0001
1000
,
0001
0100
0010
1000
,
0010
0100
0001
1000
,
0001
0010
1000
0010
,
0001
0100
1000
0100
,
0001
0010
1000
0100
,
0002
0003
1000
1001
,
1000
0010
0001
0010
,
1000
0100
0001
0100
,
1000
0010
0001
0100
,
0001
0010
1000
0100
,
0001
0100
1000
0010
,
0100
0001
0010
1000
,
0010
0001
0100
1000
,
0010
0001
1000
0010
,
0100
0100
0100
0100
,
0010
0010
1000
1001
,
0001
0010
0100
0100
,
1000
0010
0100
0100
,
0001
0010
1000
1000
,
0100
0001
1000
1001
,
2002
0000
0000
0000
,
3003
0000
0000
0000
;

//---------------dance-single - ----------------
#NOTES:
     dance-single:
     :
     Medium:
     6:
     0.452828,0.550143,0.365746,0.447023,0.066037,312.000000,276.000000,36.000000,44.000000,0.000000,0.000000,0.452828,0.550143,0.365746,0.447023,0.066037,312.000000,276.000000,36.000000,44.000000,0.000000,0.000000:
// measure 0
0000
0000
0000
0000
,  // measure 1
1000
0000
0010
0100
0001
0000
0100
0010
,  // measure 2
2000
0000
3001
0000
0101
0000
2200
3300
,  // measure 3
1000
0000
0010
0000
0100
0000
0001
0100
,  // measure 4
0010
1000
0001
1001
,  // measure 5
2000
0010
0001
3001
,  // measure 6
0002
0010
1000
1003
,  // measure 7
0020
0100
1000
0031
,  // measure 8
0010
1000
0100
0010
0001
0000
1001
0000
,  // measure 9
0001
0010
0001
0000
0010
0010
0010
0000
,  // measure 10
0100
1000
0100
0000
1000
1000
1000
0000
,  // measure 11
0001
0100
0010
0000
1000
1000
1000
0000
,  // measure 12
0001
0010
0100
1000
0001
0001
0001
0000
,  // measure 13
2000
3010
0002
0013
,  // measure 14
2000
3200
0302
0103
,  // measure 15
0020
0001
0100
1030
,  // measure 16
0010
0000
0000
0001
0000
0000
0100
0000
0010
0000
0000
0000
1001
0000
0000
0000
,  // measure 17
1000
0000
0010
0000
0001
0001
0001
0000
,  // measure 18
1000
0000
0100
0000
0001
0001
0001
0000
,  // measure 19
0010
0000
1000
0000
0001
0001
0001
0000
,  // measure 20
0100
1000
0100
1000
0002
0000
1003
0000
,  // measure 21
0002
0003
0010
0000
2000
0000
3010
0000
,  // measure 22
0002
0203
2300
3100
,  // measure 23
0020
1000
0001
0130
,  // measure 24
0010
0000
0000
1000
0000
0000
0100
0000
0010
0000
0000
0000
1001
0000
0000
0000
,  // measure 25
0002
0010
1003
1001
,  // measure 26
2000
0010
3001
1001
,  // measure 27
0002
0100
1003
1001
,  // measure 28
2000
0100
3001
1001
,  // measure 29
1000
0000
0000
1000
0010
0000
0000
0010
1000
0000
0000
1000
0010
0000
0000
0010
,  // measure 30
0100
0000
0000
0100
0001
0000
0000
0001
0100
0000
0000
0100
0001
0000
0000
0001
,  // measure 31
0010
0000
0000
0010
0100
0000
0000
0100
0010
0000
0000
0010
0001
0000
1000
0000
,  // measure 32
2002
0000
3003
0000
1000
0010
0100
0000
,  // measure 33
0101
0000
1100
0000
0001
1000
1001
0000
,  // measure 34
2000
0000
0010
0010
3100
0000
1001
0000
,  // measure 35
1000
0000
0010
0100
0001
0001
0001
0000
,  // measure 36
0020
0000
0100
0100
0130
0000
1001
0000
,  // measure 37
1000
0010
0001
0100
1000
0000
1001
0000
,  // measure 38
0002
0010
0103
0001
,  // measure 39
2000
0010
3100
1000
,  // measure 40
0001
0100
1000
0100
0010
1000
0001
1001
,  // measure 41
0000
0000
0000
0020
0000
0100
0130
0000
,  // measure 42
0002
0000
0010
0010
0103
0000
1001
0000
,  // measure 43
0001
0000
0010
1000
0001
0001
0100
0000
,  // measure 44
2000
0000
0010
0010
3100
0000
1001
0000
,  // measure 45
1010
0101
1002
0103
,  // measure 46
0002
0000
0013
0010
2000
0000
3010
0000
,  // measure 47
0002
0000
0103
0100
2000
0000
3100
0000
,  // measure 48
1010
1010
0101
0101
,  // measure 49
1001
1001
1001
0000
0110
0000
0110
0000
,  // measure 50
2000
0000
0010
0000
3100
0000
1000
0100
,  // measure 51
0020
0031
0101
1100
,  // measure 52
0002
1000
0010
0103
,  // measure 53
0001
2000
0001
0000
0010
0000
3100
0000
,  // measure 54
1000
0002
0100
0000
0010
0000
1003
0000
,  // measure 55
0001
0100
1000
0010
0001
0000
1001
0000
,  // measure 56
2002
0000
0000
0000
,  // measure 57
3003
0000
0000
0000
;
