#VERSION:0.83;
#TITLE:WICKeD CRoSS;
#SUBTITLE:;
#ARTIST:OSTER project;
#TITLETRANSLIT:;
#SUBTITLETRANSLIT:;
#ARTISTTRANSLIT:;
#GENRE:;
#ORIGIN:;
#CREDIT:;
#BANNER:WICKeD CRoSS.png;
#BACKGROUND:WICKeD CRoSS-bg.png;
#PREVIEWVID:;
#JACKET:WICKeD CRoSS-jacket.png;
#CDIMAGE:;
#DISCIMAGE:;
#LYRICSPATH:;
#CDTITLE:;
#MUSIC:WICKeD CRoSS.mp3;
#OFFSET:-0.084449;
#SAMPLESTART:66.714668;
#SAMPLELENGTH:15.620000;
#SELECTABLE:YES;
#BPMS:0.000=180.000,
140.000=90.000,
168.000=180.000;
#STOPS:;
#DELAYS:168.000=1.333;
#WARPS:;
#TIMESIGNATURES:0.000=4=4;
#TICKCOUNTS:0.000=4;
#COMBOS:0.000=1;
#SPEEDS:0.000=1.000=0.000=0;
#SCROLLS:0.000=1.000;
#FAKES:;
#LABELS:0.000=Song Start;
#BGCHANGES:;
#KEYSOUNDS:;
#ATTACKS:
;

//---------------dance-single - ----------------
#NOTEDATA:;
#CHARTNAME:;
#STEPSTYPE:dance-single;
#DESCRIPTION:;
#CHARTSTYLE:;
#DIFFICULTY:Hard;
#METER:10;
#RADARVALUES:0.667151,1.160606,0.147379,0.580303,0.741498,507.000000,491.000000,16.000000,63.000000,0.000000,0.000000,0.000000,0.000000,0.000000,0.667151,1.160606,0.147379,0.580303,0.741498,507.000000,491.000000,16.000000,63.000000,0.000000,0.000000,0.000000,0.000000,0.000000;
#CREDIT:;
#NOTES:
// measure 0
0000
0000
0000
0000
,  // measure 1
0000
0000
0000
0000
,  // measure 2
0000
0000
0000
0000
,  // measure 3
0000
0000
0000
0000
,  // measure 4
0000
0000
0000
0000
,  // measure 5
0000
0000
0000
0000
,  // measure 6
0000
0000
0000
0000
,  // measure 7
0000
0000
0000
0000
,  // measure 8
1000
0100
0010
0100
0001
0100
0010
0100
,  // measure 9
1000
0000
0010
0100
0010
0000
0100
0000
0001
0000
1000
0100
1000
0100
1000
0000
,  // measure 10
0001
0000
0100
0010
0100
0000
0010
0000
1000
0000
0001
0010
0001
0010
0001
0000
,  // measure 11
0100
0000
0010
1000
0010
0000
0100
0000
0001
0000
1000
0001
1000
0001
1000
0000
,  // measure 12
0001
0000
0010
0100
0010
0000
0001
0000
1000
0010
0100
0001
0100
0010
1000
0001
,  // measure 13
1000
0000
0001
0010
0100
0000
1000
0000
0001
0000
1000
0010
0100
0010
1000
0000
,  // measure 14
0001
0000
1000
0100
0010
0000
0001
0000
1000
0000
0001
0100
0010
0100
0001
0000
,  // measure 15
0010
0000
0100
1000
0001
0000
0100
0000
0010
0000
1000
0001
0010
0100
1000
0000
,  // measure 16
0100
0000
0000
0000
0000
0000
0010
0000
0000
0001
0000
0000
1000
0000
0000
0000
0000
0000
0001
0000
0000
0000
0000
0000
1000
0000
0000
0000
0010
0000
0000
0000
0100
0000
0000
0000
0001
0000
0000
0000
0100
0000
0000
0000
0010
0000
0000
0000
,  // measure 17
1000
0100
0010
0001
0010
0100
1000
0010
0100
0001
1000
0001
,  // measure 18
0020
0000
0000
0130
,  // measure 19
0020
0030
0002
0003
,  // measure 20
0200
0300
0020
0030
,  // measure 21
2000
3000
0002
0003
,  // measure 22
0020
0030
0200
0300
,  // measure 23
2000
0000
3020
0000
,  // measure 24
0230
0000
0302
0000
,  // measure 25
0013
0001
1000
0000
0010
1000
0001
0000
1000
0001
0100
0001
1000
0100
1000
0001
,  // measure 26
0010
0000
0001
0100
0001
0000
1000
0000
0001
0000
0010
0100
0020
0000
0031
0000
,  // measure 27
2000
0100
3100
1000
0002
0100
0103
0001
,  // measure 28
1000
0010
0001
1000
0100
0010
1000
0001
,  // measure 29
2000
0010
3010
1000
0002
0010
0013
0001
,  // measure 30
1000
0100
0001
1000
0010
0100
1000
0001
,  // measure 31
0020
0000
0030
0001
0100
0001
1000
0100
0010
0001
0010
0100
,  // measure 32
2000
0000
3000
0001
0010
0001
1000
0010
0100
0001
0100
0010
,  // measure 33
1000
0100
1000
0001
0100
0001
1000
0100
0001
0100
1000
0001
,  // measure 34
2000
0010
0002
3003
,  // measure 35
2000
0000
3001
0100
1000
0100
0001
1000
0001
0010
1000
0010
0002
0000
1003
0010
,  // measure 36
0001
0010
1000
0001
1000
0100
0001
0100
2000
0000
3001
0100
1000
0100
0010
1000
,  // measure 37
0001
0000
0010
0000
1000
0000
0010
0000
0200
0000
0000
0000
0310
0000
1000
0000
0001
0000
0010
0000
1000
0000
0010
0000
0001
0100
0001
1000
0100
1000
0001
1000
,  // measure 38
0002
0000
0010
0010
0013
0000
1100
1000
0010
0001
0010
0100
0102
0000
1000
1000
,  // measure 39
1003
0000
1100
0100
0001
0100
0010
0001
2000
0000
0000
0000
3000
0000
0020
0000
,  // measure 40
0000
0230
0000
0000
0302
0000
0000
0000
0000
0003
0000
0000
0000
0000
0000
0000
,  // measure 41
2002
0000
0000
0000
0000
0000
3003
0000
1000
0100
0001
0100
1000
0010
0001
0010
,  // measure 42
2000
0000
0100
0000
3100
0000
1000
0010
0100
0000
0100
0010
1000
0000
0001
0000
,  // measure 43
0010
0100
0010
0100
0010
0000
0001
0000
1000
0010
0100
0000
0002
0000
0003
0000
,  // measure 44
2000
0000
3100
0000
0020
0000
0130
0000
0001
0100
0001
0000
0100
0000
1000
0000
,  // measure 45
0001
0010
0100
0000
0100
1000
0001
0000
1000
0000
0010
0000
0100
0000
0001
0000
,  // measure 46
2000
0000
0010
0000
3010
0000
1000
0100
0010
0000
0010
0100
1000
0000
0001
0000
,  // measure 47
0100
0010
0100
0010
0100
0000
0001
0000
1000
0100
0010
0000
0002
0000
0003
0000
,  // measure 48
2000
0000
3010
0000
0200
0000
0310
0000
0001
0010
0001
0000
0020
0000
1030
0000
,  // measure 49
0010
1000
0100
1000
0010
0000
0100
0000
0001
0000
1000
0000
2002
0000
3003
0000
,  // measure 50
0000
0000
0000
0000
0000
0000
2002
3003
,  // measure 51
0001
0000
0000
0000
0010
0000
0000
0000
0010
0000
0000
0000
0100
0000
0000
0000
1000
0000
0000
0000
1000
0000
0000
0000
0001
0000
0000
0000
0100
0000
0000
0000
0100
0000
0000
0000
0010
0000
0000
1000
0000
0000
0001
0000
0000
1000
0000
0000
,  // measure 52
0100
0010
0001
0000
0100
0010
1000
0000
0001
0000
0100
0000
0100
0000
1000
0000
,  // measure 53
0001
0010
0010
1000
0001
0001
2001
0000
0000
3100
0000
0000
,  // measure 54
2020
3030
0101
1100
,  // measure 55
2002
3003
1100
0011
,  // measure 56
2002
0000
3003
0001
0200
0000
0320
0000
,  // measure 57
1030
0000
0100
0010
0100
0000
1000
0000
0001
0100
0010
1000
0010
0100
0001
1000
,  // measure 58
0001
0000
0100
0010
0100
0000
0001
0000
1000
0000
0001
0100
0010
1000
0010
0100
,  // measure 59
0001
0000
0010
0100
0010
0000
0001
0000
1000
0000
0001
0010
0100
1000
0100
0010
,  // measure 60
0001
0000
1000
0010
0001
0000
1000
0000
0100
0000
0001
0010
1000
0010
0001
1000
,  // measure 61
0001
0000
0000
0000
0000
0000
0100
0000
0000
1000
0000
0000
0002
0000
0000
0000
0000
0000
0013
0000
0000
0000
0000
0000
1000
0000
0000
0000
0100
0000
0000
0000
0001
0000
0000
0000
0100
0000
0000
0000
1000
0000
0000
0000
0001
0000
0000
0000
,  // measure 62
1000
0010
0001
0010
1000
0001
1000
0100
0001
1000
0010
0001
,  // measure 63
2000
0000
0000
0000
,  // measure 64
0000
0000
0000
3000
,  // measure 65
0202
0000
0000
0300
,  // measure 66
2000
0000
0000
0000
,  // measure 67
0000
3003
2002
0000
0000
0000
0000
0000
,  // measure 68
0000
0000
0000
0000
,  // measure 69
0000
0000
0000
0000
,  // measure 70
3003
0000
0000
0000
;

//---------------dance-single - ----------------
#NOTEDATA:;
#CHARTNAME:;
#STEPSTYPE:dance-single;
#DESCRIPTION:;
#CHARTSTYLE:;
#DIFFICULTY:Easy;
#METER:5;
#RADARVALUES:0.293441,0.386869,0.202645,0.202645,0.009211,223.000000,201.000000,22.000000,22.000000,0.000000,0.000000,0.000000,0.000000,0.000000,0.293441,0.386869,0.202645,0.202645,0.009211,223.000000,201.000000,22.000000,22.000000,0.000000,0.000000,0.000000,0.000000,0.000000;
#CREDIT:;
#NOTES:
0000
0000
0000
0000
,
0000
0000
0000
0000
,
0000
0000
0000
0000
,
0000
0000
0000
0000
,
0000
0000
0000
0000
,
0000
0000
0000
0000
,
0000
0000
0000
0000
,
0000
0000
0000
0000
,
1000
0100
0010
0001
,
0101
0000
1010
1000
,
0011
0000
1100
1000
,
1001
0000
0110
0100
,
0001
0010
0100
1000
,
0001
0100
1000
1000
,
0001
0010
1000
1000
,
0001
0010
1000
1000
,
0001
0100
1000
1000
,
0010
0010
0100
0100
,
0002
0000
0000
0003
,
0010
0000
0100
0000
,
1000
0000
0001
0000
,
0100
0000
0010
0000
,
1000
0000
0001
0000
,
2000
3000
0200
0300
,
0020
0030
0002
0003
,
1000
1000
0001
0001
,
1000
0100
0001
0100
,
1000
0010
1000
1000
,
0001
0010
0001
0001
,
1000
0100
1000
1000
,
0001
0100
0001
0001
,
1000
0010
1000
0010
,
0001
0010
0001
0010
,
0100
0100
0010
0010
,
1000
0001
2002
3003
,
1000
0000
0000
0100
0000
0000
0010
0000
,
0000
0001
0000
0000
0100
0000
0000
0010
,
0000
0000
1000
0000
0000
0001
0000
0000
,
0010
0000
0000
0000
0000
0000
0100
0000
0000
1000
0000
0000
0001
0000
0000
0000
,
0000
0000
0100
0000
0000
0010
0000
0000
1000
0000
0000
0000
0000
0000
0001
0000
,
0000
0000
0000
0000
2002
0000
0000
0000
0000
3003
0000
0000
0000
0000
0000
0000
,
2000
0000
3000
0000
0010
0010
0100
0100
,
0001
0010
1000
0010
,
0100
0100
1000
1001
,
1000
0010
0001
0010
,
0100
0000
0100
0000
0001
1000
0001
1000
,
0001
0010
1000
1000
,
0001
0100
1000
1001
,
1000
0010
0001
0001
,
1000
0000
0100
0000
0010
1000
0010
0000
,
0000
0000
0000
1001
,
2000
3200
0302
0023
,
1030
0000
0010
0000
0100
0001
0100
0001
,
1000
0001
2002
3003
,
1100
0000
0011
0001
,
1001
0000
1010
0010
,
0101
0000
1001
0100
,
1001
0001
0010
0100
,
1000
0000
0010
0000
0001
0000
0010
1000
,
0001
0000
0010
0000
1000
0000
0010
0001
,
1000
0000
0100
0000
0001
0000
0100
1000
,
0001
0100
0010
0010
,
0100
0100
1000
0001
,
1000
0001
2002
0000
,
0000
0000
0000
3003
,
0220
0000
0000
0000
,
0000
0000
0000
0000
,
0000
0330
2002
0000
0000
0000
0000
0000
,
0000
0000
0000
0000
,
0000
0000
0000
0000
,
3003
0000
0000
0000
;

//---------------dance-single - ----------------
#NOTEDATA:;
#CHARTNAME:;
#STEPSTYPE:dance-single;
#DESCRIPTION:;
#CHARTSTYLE:;
#DIFFICULTY:Medium;
#METER:7;
#RADARVALUES:0.460558,0.677020,0.257912,0.377657,0.133562,350.000000,322.000000,28.000000,41.000000,0.000000,0.000000,0.000000,0.000000,0.000000,0.460558,0.677020,0.257912,0.377657,0.133562,350.000000,322.000000,28.000000,41.000000,0.000000,0.000000,0.000000,0.000000,0.000000;
#CREDIT:;
#NOTES:
// measure 0
0000
0000
0000
0000
,  // measure 1
0000
0000
0000
0000
,  // measure 2
0000
0000
0000
0000
,  // measure 3
0000
0000
0000
0000
,  // measure 4
0000
0000
0000
0000
,  // measure 5
0000
0000
0000
0000
,  // measure 6
0000
0000
0000
0000
,  // measure 7
0000
0000
0000
0000
,  // measure 8
2000
0010
0100
3001
,  // measure 9
0102
0000
1003
0000
0001
0100
0010
1000
,  // measure 10
0002
0000
1003
0000
0001
0010
0100
1000
,  // measure 11
0002
0000
1003
0000
0001
0100
1000
0100
,  // measure 12
0010
1000
0010
1000
0001
0010
0100
1000
,  // measure 13
0001
0000
1001
0000
1000
0100
0001
0100
,  // measure 14
0010
0000
1001
0000
0001
0100
1000
0100
,  // measure 15
0010
0000
1001
0000
1000
0010
0001
0010
,  // measure 16
0100
0000
0000
1001
0000
0000
0001
0000
0001
0010
0000
0010
,  // measure 17
0100
0000
0100
1000
0000
1000
0001
0000
0001
0100
0000
0100
,  // measure 18
0020
0000
0000
0130
,  // measure 19
0002
0003
0020
0030
,  // measure 20
0200
0300
2000
3000
,  // measure 21
0002
0003
0200
0300
,  // measure 22
0020
0030
2000
3000
,  // measure 23
0002
0000
0023
0000
,  // measure 24
2030
0000
3020
0000
,  // measure 25
0031
0001
1000
1000
0001
0100
1000
0100
,  // measure 26
0001
0010
0100
1000
0100
0010
0001
1000
,  // measure 27
0001
0101
0001
1001
,  // measure 28
1000
0000
1100
0000
1000
0000
1001
0001
,  // measure 29
0010
0011
0001
1001
,  // measure 30
1000
0000
1010
0000
0010
0000
0110
0100
,  // measure 31
0002
0000
0000
2003
0000
0000
3010
0000
0010
0100
0000
0100
,  // measure 32
0002
0000
0000
2003
0000
0000
3100
0000
0100
0010
0000
0010
,  // measure 33
0001
0000
0001
0100
0000
0100
1000
0000
1000
0100
0000
0100
,  // measure 34
0020
1030
0002
0003
,  // measure 35
1000
0100
0001
0100
1000
0001
1000
0010
,  // measure 36
0001
0010
1000
0001
1000
0100
0001
0010
,  // measure 37
0001
0100
1000
0010
0001
0100
0001
0010
,  // measure 38
1000
0000
0100
0000
0010
0000
0001
0000
1000
0001
1000
0001
1000
0000
0010
0000
,  // measure 39
0100
0000
0001
0000
1000
0001
1000
0001
2000
0000
0000
0000
3000
0000
0200
0000
,  // measure 40
0300
0020
0000
0030
0002
0000
0000
0000
0003
0000
0000
0000
0000
0000
0000
0000
,  // measure 41
2002
0000
0000
0003
0100
0100
0100
3100
,  // measure 42
2000
0010
3010
0000
1100
0000
1001
0000
,  // measure 43
1000
0100
0001
0100
0010
0010
0010
0000
,  // measure 44
0011
0000
1100
0000
0001
1000
0100
0000
,  // measure 45
0010
0001
0100
0010
1000
1000
0001
0001
,  // measure 46
2000
0100
3100
0000
1010
0000
1001
0000
,  // measure 47
1000
0010
0001
0010
0100
0100
0100
0000
,  // measure 48
0101
0000
1010
0000
0001
1000
0010
0000
,  // measure 49
0100
0001
0010
0100
1000
1000
0001
0000
,  // measure 50
0000
0000
0000
1001
,  // measure 51
1000
0000
1000
0100
0000
0100
0010
0000
0010
0001
0000
0001
,  // measure 52
1000
1000
0001
0001
1000
0100
0001
0100
,  // measure 53
0020
0130
1100
0101
,  // measure 54
1002
0000
0103
0000
0001
0010
1000
0010
,  // measure 55
0200
0000
0310
0000
0001
0100
1000
0100
,  // measure 56
0020
0000
1030
0000
0001
0010
1000
0100
,  // measure 57
1000
0010
0001
0100
0001
0010
1000
0001
,  // measure 58
0100
0100
1000
1000
0001
0100
1000
0100
,  // measure 59
0001
0001
0010
0010
1000
0010
0001
0010
,  // measure 60
0100
0100
1000
1000
0001
0100
1000
0001
,  // measure 61
0010
0000
0000
0010
0000
0000
1000
0000
0000
1000
0000
0000
0001
0000
0000
0000
0001
0000
0010
0000
0000
0000
0010
0000
,  // measure 62
1000
0000
1000
0010
0000
0010
0100
0000
0100
1000
0000
1000
,  // measure 63
0002
0000
0000
0000
,  // measure 64
0000
0000
0000
0003
,  // measure 65
0202
0000
0000
0300
,  // measure 66
2000
0000
0000
0000
,  // measure 67
0000
3003
2002
0000
0000
0000
0000
0000
,  // measure 68
0000
0000
0000
0000
,  // measure 69
0000
0000
0000
0000
,  // measure 70
3003
0000
0000
0000
;
