#TITLE:Vanguard;
#SUBTITLE:;
#ARTIST:JAM Project;
#TITLETRANSLIT:;
#SUBTITLETRANSLIT:;
#ARTISTTRANSLIT:;
#GENRE:;
#CREDIT:;
#BANNER:Vanguard.png;
#BACKGROUND:Vanguard-bg.png;
#LYRICSPATH:;
#CDTITLE:;
#MUSIC:Vanguard.mp3;
#OFFSET:1.216000;
#SAMPLESTART:54.935001;
#SAMPLELENGTH:16.420000;
#LASTBEATHINT:0.553905;
#SELECTABLE:YES;
#BPMS:0.000000=165.000000
;
#STOPS:
;
#BGCHANGES:3.250=Vanguard.avi=1.000=1=0=1===CrossFade==,
99999=-nosongbg-=1.000=0=0=0 // don't automatically add -songbackground-
;
#KEYSOUNDS:;
#ATTACKS:;

//---------------dance-single - Blank----------------
#NOTES:
     dance-single:
     :
     Hard:
     8:
     0.593387,0.584466,0.471502,0.583765,0.028066,370.000000,328.000000,42.000000,52.000000,0.000000,0.000000,0.593387,0.584466,0.471502,0.583765,0.028066,370.000000,328.000000,42.000000,52.000000,0.000000,0.000000:
0000
0000
0000
0000
,
0000
0000
0000
0000
,
0000
0000
0000
0000
,
0000
0000
0000
0000
,
0000
0000
0000
0000
0000
1010
0000
0012
,
0000
0000
1003
0000
0001
0100
1000
0100
,
0010
1000
0200
0000
0310
0100
1000
0001
,
2000
3020
0032
0023
,
0230
0000
0001
0301
0000
1000
0010
0100
,
0002
0000
0013
0010
2000
0000
3010
0000
,
0001
0000
0000
0100
0000
0000
0010
0000
1001
0000
0000
0000
0000
0000
0000
0000
,
0001
0010
0010
0001
1000
1000
0001
0000
,
1000
0010
0010
1000
0001
0001
1000
0000
,
0001
0100
0100
1000
0100
0100
0010
0000
,
1000
0100
0100
0001
0100
0010
1001
0000
,
2100
0000
0100
0000
3001
1000
0010
0100
,
0001
0000
0000
0010
0000
0000
0200
0000
1000
0000
0000
0000
0301
0000
0000
0000
,
0120
0000
0001
0000
1030
0010
0001
0100
,
0002
0000
0000
0010
0000
0000
1003
0000
0001
0000
1001
0000
0000
0000
0000
0000
,
1000
0100
1000
0100
0010
0001
0010
0001
,
1000
0010
0000
0001
0020
0000
0130
0000
,
0001
0100
0001
0100
0010
1000
0010
1000
,
0002
0013
2000
3010
,
0001
0100
0010
1000
0010
0100
0001
1000
,
0001
0010
0000
1000
0020
0000
0031
0000
,
1000
0000
1020
0000
0100
0100
0000
0001
,
0031
0000
1200
0000
0010
0010
0000
0301
,
0100
0010
0011
0000
1001
0000
0100
0010
,
1010
0000
1001
0000
1000
0100
0001
0100
,
0010
0100
1000
0001
1000
0010
0100
0001
,
1000
0100
1000
0100
0001
0100
0001
0100
,
1000
0100
0010
0001
1000
0000
1001
0000
,
0002
0100
0000
1003
0000
0001
0100
0020
,
0000
1000
1000
0031
0000
1000
0100
0020
,
0000
0001
0001
1030
0000
0010
0001
0000
,
1000
0010
0100
0001
0100
1000
0100
0010
,
1000
0001
0000
0012
0000
1003
0001
0012
,
0000
1003
0010
2010
0000
3001
1000
1002
,
0000
0100
0103
0000
0010
1010
0000
2001
,
0000
3100
1002
0103
,
0001
0010
0100
0000
1100
0000
1000
0001
,
2000
3020
0032
0203
,
2300
0000
3010
0010
0200
0000
0301
1000
,
1100
0000
0101
0000
1000
0100
0000
0001
,
0200
0000
0310
0000
0001
0001
1000
0000
,
2010
0000
3100
0012
0000
0103
1001
0000
,
0001
0100
1000
0100
0010
1010
0000
0102
,
0000
0000
1003
0000
0001
0010
1000
0010
,
0100
1000
0001
0000
1000
0010
0001
0010
,
2000
3200
0302
0023
,
2030
0000
0001
3001
0000
1000
0010
0100
,
0002
0000
0010
0010
0000
1003
0000
1001
,
0000
1000
0010
0100
1001
1001
0000
0000
,
1010
0000
1000
0100
0010
0001
1000
0000
,
0010
0010
0100
0100
0101
0000
1100
0000
,
1002
0000
0010
0010
0000
0100
0103
0000
,
2001
0000
0010
0010
0000
0100
3100
0000
,
1000
0010
0100
0102
0000
1003
0100
1200
,
0000
1300
0010
2010
0000
3001
0010
0012
,
0000
0010
0100
1003
,
1000
0000
0010
0100
0010
0000
1000
0000
0100
0010
0100
0000
1000
0000
2002
0000
,
0000
3003
0000
0000
;

//---------------dance-single - ----------------
#NOTES:
     dance-single:
     :
     Easy:
     4:
     0.320750,0.341699,0.089810,0.145941,0.000000,200.000000,192.000000,8.000000,13.000000,0.000000,0.000000,0.320750,0.341699,0.089810,0.145941,0.000000,200.000000,192.000000,8.000000,13.000000,0.000000,0.000000:
0000
0000
0000
0000
,
0000
0000
0000
0000
,
0000
0000
0000
0000
,
0000
0000
0000
0000
,
0000
0000
0000
0000
,
1000
0010
1000
0010
,
0100
0001
0100
0001
,
1000
0100
1000
0100
,
0010
0001
0010
0001
,
1000
0010
0100
0001
,
0100
0010
1000
0000
,
0001
0001
0001
0000
,
1000
1000
1000
0000
,
0010
0010
0010
0000
,
0100
0100
0100
1001
,
0001
0010
0001
0010
,
0100
1000
0100
1000
,
0001
0100
0010
1000
,
0010
0100
0001
0000
,
1000
0100
0010
0001
,
0010
0100
1000
0000
,
0001
0100
0010
1000
,
0002
0003
1000
0000
,
0001
0010
0100
1000
,
0100
0010
0001
0000
,
1000
0010
0010
0010
,
0100
0001
0001
0001
,
1000
0100
0100
0001
,
0100
0100
1000
0001
,
1000
0010
0100
0001
,
1000
1000
0001
0001
,
0010
0100
0010
0010
,
0001
0100
0001
0001
,
1000
0010
0101
0000
,
0001
0010
1100
0000
,
0001
0010
1000
0010
,
0001
0001
0100
0000
,
0010
0100
0001
1000
,
2002
0000
3003
1000
,
2000
3000
0002
0003
,
0100
0010
1000
0001
,
1000
0100
0001
0100
,
0010
0001
1000
0000
,
0001
0100
1000
0100
,
0020
0030
0100
0000
,
0001
0010
0100
1000
,
0001
0001
1000
0010
,
0200
0300
0010
1000
,
0001
0001
0010
0000
,
0001
0100
1000
0100
,
0010
0010
1000
0000
,
0002
0003
0010
0000
,
0100
1000
0001
0100
,
0020
0000
0000
0030
,
0100
0100
0101
1100
,
2002
0000
0000
3003
,
0220
0000
0000
0330
,
0010
1000
0100
0001
,
0100
1000
0010
0100
,
0001
0001
0010
0010
,
0100
0000
1000
0000
0001
0000
1000
1000
;

//---------------dance-single - ----------------
#NOTES:
     dance-single:
     :
     Medium:
     6:
     0.474710,0.550086,0.381692,0.628670,0.000000,296.000000,262.000000,34.000000,56.000000,0.000000,0.000000,0.474710,0.550086,0.381692,0.628670,0.000000,296.000000,262.000000,34.000000,56.000000,0.000000,0.000000:
0000
0000
0000
0000
,
0000
0000
0000
0000
,
0000
0000
0000
0000
,
0000
0000
0000
0000
,
0000
0000
0000
0000
0000
1100
0000
0102
,
0000
0010
0100
1003
,
0001
0010
0200
0000
1000
0000
0301
0000
,
0200
2300
3020
0230
,
0302
0000
1000
1000
1003
0000
1100
0000
,
1020
0000
0130
0100
0002
0000
1003
0000
,
0001
0010
0100
0000
2000
0000
3001
0000
,
0100
0000
0010
1000
0000
0010
1000
0000
,
0100
0000
0010
0001
0000
0010
0001
0000
,
0100
0000
0010
1000
0000
0001
0100
0000
,
0001
0000
0010
0100
0000
1000
1001
0000
,
2100
0100
3001
1000
,
0002
0100
1003
0001
,
1000
0010
0100
0000
0001
0100
0010
0000
,
1000
0100
0010
0001
2000
0000
3001
0000
,
1000
0100
0010
0001
,
0010
0100
0000
0100
2000
0000
3001
0000
,
1000
0010
0100
0001
,
2000
3100
0002
0103
,
1000
0010
0100
0001
,
1000
0010
0000
0010
0002
0000
0013
0000
,
1000
1100
0101
1002
,
0103
0011
1010
1002
,
0103
0001
0010
0000
0110
0000
0100
1000
,
0010
0000
0110
0000
0100
0001
1000
0000
,
0002
0023
2030
3020
,
0032
0203
2300
3200
,
0310
1000
0001
0000
0200
0000
0310
0000
,
2000
0100
0000
3001
0000
1000
0010
0200
,
0000
0001
0000
0301
0000
0010
0100
2000
,
0000
0100
0000
3100
0000
1000
0001
0000
,
1000
0010
0001
0010
,
0100
0100
0000
0002
0000
1003
0100
1000
,
0000
0001
0010
0001
0000
1000
0010
2000
,
0000
0000
3001
0000
0100
0010
0000
2010
,
0000
3001
0012
1003
,
0001
0010
0100
0000
1100
0000
1000
0001
,
2000
3020
0230
0302
,
0023
0000
0130
0100
2000
0000
3001
0000
,
0101
0000
1100
0000
1000
0100
0000
0001
,
0200
0310
0002
1003
,
0020
0000
0001
0001
0000
1000
1030
0000
,
0010
0000
1000
0000
0100
0010
0000
0010
,
0001
0101
1000
1100
,
0001
0011
1000
1010
,
0010
0101
0010
1100
,
0100
0011
0100
1010
,
0010
1001
0100
1001
,
1000
0010
0100
0000
0102
0000
1003
0000
,
0002
0010
0100
1003
,
0001
0010
1000
0010
0002
0000
1003
0000
,
2020
0000
0030
0002
0000
0000
3003
0000
,
0022
0000
0030
2000
0000
0000
3003
0000
,
0001
0100
0010
0000
1000
0010
0100
0000
,
0001
0010
0100
0000
1000
0100
0010
0000
,
0012
1000
1000
1003
,
0001
0100
0100
0010
1000
1000
0001
2002
,
0000
3003
0000
0000
;

//---------------dance-double - ----------------
#NOTES:
     dance-double:
     :
     Hard:
     8:
     0.586972,0.584466,0.415371,0.628670,0.028066,366.000000,329.000000,37.000000,56.000000,0.000000,0.000000,0.586972,0.584466,0.415371,0.628670,0.028066,366.000000,329.000000,37.000000,56.000000,0.000000,0.000000:
// measure 0
00000000
00000000
00000000
00000000
,  // measure 1
00000000
00000000
00000000
00000000
,  // measure 2
00000000
00000000
00000000
00000000
,  // measure 3
00000000
00000000
00000000
00000000
,  // measure 4
00000000
00000000
00000000
00000000
00000000
01010000
00000000
00102000
,  // measure 5
00000000
00000000
00010000
00000000
00103000
00001000
00010000
00000100
,  // measure 6
00001000
00000001
00000200
00000000
00000310
00001000
00000001
00001000
,  // measure 7
00000002
00000203
00002300
00023000
,  // measure 8
02030000
00000000
10000000
13000000
00000000
00010000
01000000
00100000
,  // measure 9
20000000
00000000
30100000
00100000
00020000
00000000
00130000
00000000
,  // measure 10
10000000
00000000
00000000
01000000
00000000
00000000
00100000
00000000
10010000
00000000
00000000
00000000
00000000
00000000
00000000
00000000
,  // measure 11
10000000
00100000
00100000
00010000
00100000
00100000
01000000
00000000
,  // measure 12
00001000
00010000
00010000
00000100
00001000
00001000
00000001
00000000
,  // measure 13
00001000
00000010
00000010
00000001
00000010
00000010
00000100
00000000
,  // measure 14
00000001
00000100
00000100
00000010
00010000
00001000
00101000
00000000
,  // measure 15
21000000
00000000
01000000
00000000
30010000
10000000
00100000
00010000
,  // measure 16
00100000
00000000
00000000
01000000
00000000
00000000
00001000
00000000
00020000
00000000
00000000
00000000
00030100
00000000
00000000
00000000
,  // measure 17
00002010
00000000
00000010
00000000
00003001
00000000
00001000
00000010
,  // measure 18
00000200
00000000
00000000
00000010
00000000
00000000
00000310
00000000
00001000
00000000
00000001
00000000
00000000
00000000
00000000
00000000
,  // measure 19
00001000
00000100
00000010
00000001
00000010
00000100
00010000
00001000
,  // measure 20
00100000
00010000
00000000
00010000
20000000
00000000
31000000
00000000
,  // measure 21
10000000
00100000
01000000
00010000
10000000
01000000
00100000
00001000
,  // measure 22
00020000
00030100
00002000
00003010
,  // measure 23
00001000
00000100
00000001
00000100
00010000
00001000
00100000
00010000
,  // measure 24
10000000
00100000
00000000
00010000
00200000
00000000
01300000
00000000
,  // measure 25
00010000
00000000
12000000
00000000
00010000
00010000
00000000
00100000
,  // measure 26
03100000
00000000
02001000
00000000
00100000
00100000
00000000
13000000
,  // measure 27
01000000
00010000
00110000
00000000
00101000
00000000
00001000
00010000
,  // measure 28
00010010
00000000
00000110
00000000
00000100
00000001
00001000
00000010
,  // measure 29
00001000
00000100
00000010
00000001
00001000
00000010
00000100
00000001
,  // measure 30
00010000
00000100
00010000
00000100
00100000
00001000
00100000
00001000
,  // measure 31
10000000
00100000
00010000
00100000
01000000
00000000
01001000
00000000
,  // measure 32
00020000
00000100
00000000
00030100
00000000
00010000
00000010
00000200
,  // measure 33
00000000
00000010
00000010
00000310
00000000
00001000
00000001
00002000
,  // measure 34
00000000
00000001
00000001
00003001
00000000
00000100
00000100
00000000
,  // measure 35
00000001
00000010
00001000
00000010
00000100
00001000
00000010
00010000
,  // measure 36
00000100
00001000
00000000
00020100
00000000
00031000
00100000
00120000
,  // measure 37
00000000
01030000
00100000
10200000
00000000
01300000
00010000
20010000
,  // measure 38
00000000
01000000
31000000
00000000
10000000
00010000
00000000
01020000
,  // measure 39
00000000
10030000
21000000
30010000
,  // measure 40
10000000
01000000
00010000
00000000
01010000
00000000
00010000
01000000
,  // measure 41
00200000
00302000
00023000
00030200
,  // measure 42
00002300
00000000
00003010
00000010
00000200
00000000
00000301
00001000
,  // measure 43
00001100
00000000
00000101
00000000
00001000
00000100
00000000
00000001
,  // measure 44
00000200
00000000
00000310
00000000
00000001
00000001
00001000
00000000
,  // measure 45
00020100
00000000
00031000
02001000
00000000
03100000
10010000
00000000
,  // measure 46
10000000
01000000
00010000
01000000
10000000
10100000
00000000
01002000
,  // measure 47
00000000
00000000
10003000
00000000
00010000
00100000
10000000
00100000
,  // measure 48
00010000
01000000
20000000
00000000
31000000
00100000
10000000
00010000
,  // measure 49
02000000
03200000
00320000
00032000
,  // measure 50
00003200
00000000
00000010
00000310
00000000
00001000
00000100
00000010
,  // measure 51
00000002
00000000
00000103
00000100
00002000
00000000
00003100
00000000
,  // measure 52
00000010
00001000
00000100
00010000
00002000
00000000
01003000
01000000
,  // measure 53
00200000
00000000
10300000
01000000
00100000
00100000
00010000
00000000
,  // measure 54
10000000
10000000
00010000
00010000
10010000
00000000
00011000
00000000
,  // measure 55
00001002
00000000
00000010
00000010
00000000
00000100
00000103
00000000
,  // measure 56
00002001
00000000
00000010
00000010
00000000
00000100
00003100
00000000
,  // measure 57
00001000
00000010
00000100
00000102
00000000
00001003
00000100
00020100
,  // measure 58
00000000
00031000
00100000
00120000
00000000
01030000
00100000
20100000
,  // measure 59
00000000
00100000
00010000
31000000
,  // measure 60
10000000
00000000
00100000
01000000
00100000
00000000
00010000
00000000
00100000
01000000
00100000
00000000
10010000
00000000
00022000
00000000
,  // measure 61
00000000
00033000
00000000
00000000
;
