#VERSION:0.83;
#TITLE:嘘とぬいぐるみ;
#SUBTITLE:;
#ARTIST:Dixie Flatline;
#TITLETRANSLIT:Uso to nuigurumi;
#SUBTITLETRANSLIT:;
#ARTISTTRANSLIT:;
#GENRE:;
#ORIGIN:;
#CREDIT:;
#BANNER:Uso to nuigurumi.png;
#BACKGROUND:Uso to nuigurumi-bg.png;
#PREVIEWVID:;
#JACKET:Uso to nuigurumi-jacket.png;
#CDIMAGE:;
#DISCIMAGE:;
#LYRICSPATH:;
#CDTITLE:;
#MUSIC:Uso to nuigurumi.mp3;
#OFFSET:-0.307801;
#SAMPLESTART:40.274544;
#SAMPLELENGTH:15.860001;
#SELECTABLE:YES;
#BPMS:0.000=120.000,
228.000=110.000,
230.000=100.000;
#STOPS:;
#DELAYS:;
#WARPS:;
#TIMESIGNATURES:0.000=4=4;
#TICKCOUNTS:0.000=4;
#COMBOS:0.000=1;
#SPEEDS:0.000=1.000=0.000=0;
#SCROLLS:0.000=1.000;
#FAKES:;
#LABELS:0.000=Song Start;
#BGCHANGES:;
#KEYSOUNDS:;
#ATTACKS:
;

//---------------dance-single - ----------------
#NOTEDATA:;
#CHARTNAME:;
#STEPSTYPE:dance-single;
#DESCRIPTION:;
#CHARTSTYLE:;
#DIFFICULTY:Medium;
#METER:7;
#RADARVALUES:0.433818,0.418186,0.144202,0.271439,0.004241,358.000000,341.000000,17.000000,32.000000,0.000000,0.000000,0.000000,0.000000,0.000000,0.433818,0.418186,0.144202,0.271439,0.004241,358.000000,341.000000,17.000000,32.000000,0.000000,0.000000,0.000000,0.000000,0.000000;
#CREDIT:;
#NOTES:
0000
0000
0000
0000
,
0000
0000
0000
0000
,
0000
0000
0000
0000
,
0000
0000
0000
0000
,
1000
0010
1000
0010
0100
0001
0100
0001
,
1000
0100
0010
0001
0010
0100
1000
0000
,
0001
0100
0001
0100
0010
1000
0010
1000
,
0001
0010
0100
1000
0100
0010
0001
0000
,
1000
0010
1000
0010
0200
0000
0301
0001
,
1000
0100
1000
0100
0020
0000
0031
0001
,
1000
0010
1000
0010
0001
0010
0001
0010
,
0100
0010
0100
0010
1000
1000
0001
0000
,
1000
0100
0010
0001
2000
0000
3001
0001
,
1000
0010
0100
0001
2000
0000
3001
0001
,
1000
0100
1000
0100
0001
0100
0001
0100
,
0010
0100
0010
0100
1000
0000
0001
0001
,
0200
0310
2000
3001
,
1000
0100
0010
0001
1000
1000
0100
0000
,
2000
0000
3010
0010
0002
0000
0013
0000
,
0100
0000
0000
0100
0000
0000
0100
0000
0001
0000
1000
0000
1000
0000
0000
0000
,
0001
0010
1000
0010
0001
0000
0100
0100
,
0010
1000
0100
1000
0010
0100
0001
0000
,
1000
0100
0001
0100
1000
0000
0001
0001
,
1000
0010
0100
0001
1000
0001
1001
0000
,
1000
0100
0001
0100
1000
0000
0010
0010
,
0100
0001
0010
0001
0100
0010
1000
0000
,
0001
0010
1000
0010
0001
0000
1000
1000
,
0001
0100
0010
1000
0001
1000
1001
0000
,
0002
1000
0100
0013
,
2000
0001
0100
3010
,
1000
0010
0100
1001
,
0001
0010
0100
1001
,
1000
0010
0100
0001
0100
0100
0100
0000
,
0010
1000
0001
0100
0001
0001
0001
0000
,
1000
0100
0010
0100
1000
0010
0100
0002
,
0000
2003
0000
3020
0000
0100
0130
0000
,
0001
0010
0100
1000
0100
0100
0100
0000
,
0010
0001
1000
0100
1000
1000
0000
0001
,
0100
0001
0000
1000
0100
1000
0001
2000
,
0000
3010
0000
0100
0001
1000
1001
0000
,
1000
0100
0001
0100
1000
0000
0010
0010
,
0100
0001
0010
0001
0100
0010
1000
0000
,
0001
0010
1000
0010
0001
0000
1000
1000
,
0001
0100
0010
1000
0001
1000
1001
0000
,
0001
0010
1000
0010
0001
0000
0100
0100
,
0010
1000
0100
1000
0010
0100
0001
0000
,
1000
0100
0001
0100
1000
0000
0001
0001
,
1000
0010
0100
0001
1000
0001
1001
0000
,
1020
0130
0021
0130
,
2001
0000
3100
0000
1000
0100
0001
0100
,
0020
0000
0031
0001
0200
0000
0310
0000
,
2000
0000
3001
0000
0010
0100
1001
0000
,
0201
0310
1200
0310
,
1002
0000
0013
0000
0001
0010
1000
0010
,
0200
0000
1000
1300
0000
0001
1000
0001
,
0000
1000
0010
0001
1000
0100
0001
0000
,
2000
3100
0020
0031
,
0202
0303
2200
3300
1000
0001
2002
0000
,
3003
0000
0000
0000
;

//---------------dance-single - ----------------
#NOTEDATA:;
#CHARTNAME:;
#STEPSTYPE:dance-single;
#DESCRIPTION:;
#CHARTSTYLE:;
#DIFFICULTY:Hard;
#METER:9;
#RADARVALUES:0.651939,0.713377,0.407159,0.212062,0.504708,538.000000,490.000000,48.000000,25.000000,0.000000,0.000000,0.000000,0.000000,0.000000,0.651939,0.713377,0.407159,0.212062,0.504708,538.000000,490.000000,48.000000,25.000000,0.000000,0.000000,0.000000,0.000000,0.000000;
#CREDIT:;
#NOTES:
0000
0000
0000
0000
,
0000
0000
0000
0000
,
0000
0000
0000
0000
,
0000
0000
0000
0000
0000
0000
0000
0000
0000
0000
0000
0000
0000
0000
1000
0001
,
1000
0000
0010
0000
0100
0000
0010
0000
0001
0000
0010
0000
1000
0010
1000
0010
,
1000
0000
0010
0000
0100
0001
0100
0001
0100
0000
0001
0000
1000
0000
0001
1000
,
0001
0000
0010
0000
0100
0000
0010
0000
1000
0000
0010
0000
0001
0010
0001
0010
,
0001
0000
0010
0000
0100
1000
0100
1000
0001
1000
0001
1000
0001
0000
0000
0000
,
1000
0000
1000
0010
0000
0010
0100
0000
0101
0000
0000
0000
0100
0000
0100
0000
,
0010
0000
0010
2000
0000
0000
0100
0000
3001
0000
0000
0000
1000
0000
0100
0000
,
0010
0000
0001
2000
0000
0000
0001
0000
3001
0000
1000
0000
0010
0000
0001
0000
,
1000
0000
1000
0200
0000
0000
0310
0000
1000
0001
1000
0001
1000
0000
0100
0000
,
0010
0000
0010
0002
0000
0000
0100
0000
1003
0000
0000
0000
0001
0000
0010
0000
,
0100
0000
1000
0020
0000
0000
0100
0000
0130
0000
0000
0000
0001
0000
0010
0000
,
1000
0000
0010
0200
0000
0000
1000
0000
1300
0000
0001
0000
0100
0000
1000
0000
,
0001
0000
0010
0000
1000
0010
1000
0010
0100
0001
1000
0001
0010
0000
0100
0000
,
2000
3010
0002
0013
,
1000
0100
0001
0010
1000
1000
0001
0000
,
2000
0000
3100
0100
0002
0000
0103
0000
,
1000
0000
0010
0100
0000
0100
0010
0000
1000
0000
0001
0000
1001
0000
0000
0000
,
1100
0000
0100
0000
0110
0000
0100
0000
0101
0000
0000
0000
0100
0010
0100
0010
,
0001
0100
1000
0100
0010
0010
1000
0000
,
1010
0000
0010
0000
0110
0000
0010
0000
0011
0000
0000
0000
0010
0100
0010
0100
,
0001
0000
1000
0000
0001
0010
0001
0010
0100
1000
0001
1000
0010
0000
0000
0000
,
1010
0000
0010
0000
0101
0000
0100
0000
1001
0000
0000
0000
0001
0010
0100
1000
,
0001
0100
1000
0001
0010
0010
1000
0000
,
0101
0000
0010
0000
1010
0000
0100
0000
1001
0000
0000
0000
1000
0010
0100
0001
,
1000
0000
0001
0000
1000
0100
0010
0001
0010
0100
1000
0001
0100
0000
0000
0000
,
0000
0000
0010
1000
0000
0000
1000
0100
0000
0000
0100
0010
0000
0000
0010
0001
,
0000
0000
0001
1000
0000
0000
1000
0010
0000
0000
0010
0100
0000
0000
0100
0001
,
0000
0000
0010
0001
0000
0000
1000
0100
0000
0000
1000
0010
0000
0000
0100
0001
,
0000
0000
1000
0010
0000
0000
0100
0001
0000
0000
1000
0100
0000
0000
0010
0000
,
0001
0000
0100
2000
0000
0000
3100
0000
0010
0000
1000
0000
1001
0000
0001
0000
,
1000
0000
0100
0002
0000
0000
0103
0010
0001
0000
1000
0000
1001
0000
1000
0000
,
1000
0010
0010
0001
0001
0100
1000
2020
,
3030
0202
0303
2002
3000
0100
0103
0001
,
1000
0000
0001
0100
0010
0000
1000
0010
0100
0000
0001
0000
0001
0000
1000
0000
,
0001
0000
1000
0100
0010
0000
0001
0010
0100
0000
1000
0000
1000
0000
0001
0000
,
0001
0100
0100
1000
1000
0010
0001
2000
,
0000
3010
0000
0100
0001
1000
1001
0000
,
0011
0000
0010
0000
0110
0000
0010
0000
1010
0000
0000
0000
0010
0100
0010
0100
,
1000
0010
0001
0010
0100
0100
0001
0000
,
0101
0000
0100
0000
0110
0000
0100
0000
1100
0000
0000
0000
0100
0010
0100
0010
,
1000
0000
0001
0000
1000
0100
0010
0001
0100
0001
0010
0100
1000
0000
0000
0000
,
0101
0000
0100
0000
1010
0000
0010
0000
1001
0000
0000
0000
1000
0100
0010
0001
,
1000
0010
0001
1000
0100
0100
0001
0000
,
1010
0000
0100
0000
0101
0000
0010
0000
1001
0000
0000
0000
0001
0100
0010
1000
,
0001
0000
1000
0000
0001
0010
0100
1000
0010
0100
0001
1000
0001
0000
1000
0001
,
1000
0000
1100
0000
0001
0000
0101
0000
1000
0000
1001
0000
1000
0010
1000
0010
,
0200
0000
0301
0000
1000
0100
0010
0001
1000
0001
0100
0010
1000
0000
0001
1000
,
0001
0000
0011
0000
1000
0000
1010
0000
0001
0000
1001
0000
0001
0100
0001
0100
,
0020
0000
1030
0000
0001
0010
0100
1000
0001
1000
0010
0100
0001
0000
1000
0100
,
0001
0000
0101
0000
0100
0000
1100
0000
1000
0000
1001
0000
1000
0010
0001
0010
,
1000
0000
1001
0000
0001
0010
1000
0010
0001
0100
0010
1000
0001
0000
0001
0010
,
1000
0000
1010
0000
0010
0000
0011
0000
0001
0000
1001
0000
0001
0100
1000
0100
,
0001
0000
1001
0000
1000
0100
0001
0100
1000
0010
0100
0001
1000
0000
0001
0010
,
0100
1000
0100
1000
0002
0000
0103
0000
0020
0000
1030
0000
0001
0010
0001
0010
,
0100
1000
0001
1000
0010
0100
0001
1000
0001
0000
1001
0000
0220
0000
0000
0000
,
0330
0000
0000
0000
;

//---------------dance-single - ----------------
#NOTEDATA:;
#CHARTNAME:;
#STEPSTYPE:dance-single;
#DESCRIPTION:;
#CHARTSTYLE:;
#DIFFICULTY:Easy;
#METER:3;
#RADARVALUES:0.256898,0.270591,0.101790,0.135720,0.000000,212.000000,200.000000,12.000000,16.000000,0.000000,0.000000,0.000000,0.000000,0.000000,0.256898,0.270591,0.101790,0.135720,0.000000,212.000000,200.000000,12.000000,16.000000,0.000000,0.000000,0.000000,0.000000,0.000000;
#CREDIT:;
#NOTES:
0000
0000
0000
0000
,
0000
0000
0000
0000
,
0000
0000
0000
0000
,
0000
0000
0000
0000
,
1000
0100
0001
0100
,
0010
0100
1000
0001
,
1000
0010
0001
0010
,
0100
0010
1000
1001
,
0001
0010
0200
0300
,
1000
0010
0200
0300
,
0001
0100
1000
0100
,
0010
1000
0001
1001
,
1000
0100
0020
0030
,
0001
0010
0200
0300
,
1000
0010
0001
0010
,
0100
0001
1000
0001
,
0010
0010
0100
0100
,
1000
0001
1000
1001
,
0001
0001
1000
1000
,
0010
0100
0010
0110
,
1000
1000
1000
0100
,
0001
0100
0010
0001
,
1000
1000
1000
0010
,
0001
0010
0100
1001
,
0001
0001
0001
0100
,
1000
0100
0010
1000
,
0001
0001
0001
0010
,
1000
0010
0100
1001
,
0002
0003
0020
0030
,
0200
0300
2000
3000
,
0000
0001
0010
0100
,
0000
1000
0010
0100
,
0001
0100
1000
1000
,
0001
0010
1000
1000
,
0001
0010
1000
0010
,
0001
1000
0100
0100
,
1000
0010
0001
0001
,
1000
0100
0001
0001
,
1000
0100
0010
0001
,
1000
0001
1000
1001
,
0001
0001
0001
1000
,
0100
0001
0010
0001
,
0100
0100
0100
1000
,
0010
0100
0001
1001
,
1000
1000
1000
0001
,
0010
1000
0100
1000
,
0010
0010
0010
0001
,
0100
0010
1000
1001
,
2000
3000
0020
0030
,
0200
0300
0001
1000
,
0001
0010
0100
0010
,
1000
0010
0100
1001
,
2000
3000
0020
0030
,
0200
0300
0001
0100
,
0001
0010
1000
0010
,
0100
1000
0001
1001
,
1000
1000
0010
0010
,
0100
0001
1000
2002
,
3003
0000
0000
0000
;

//---------------dance-double - ----------------
#NOTEDATA:;
#CHARTNAME:;
#STEPSTYPE:dance-double;
#DESCRIPTION:;
#CHARTSTYLE:;
#DIFFICULTY:Hard;
#METER:9;
#RADARVALUES:0.639822,0.688778,0.347782,0.186615,0.496225,528.000000,487.000000,41.000000,22.000000,0.000000,0.000000,0.000000,0.000000,0.000000,0.639822,0.688778,0.347782,0.186615,0.496225,528.000000,487.000000,41.000000,22.000000,0.000000,0.000000,0.000000,0.000000,0.000000;
#CREDIT:;
#NOTES:
// measure 0
00000000
00000000
00000000
00000000
,  // measure 1
00000000
00000000
00000000
00000000
,  // measure 2
00000000
00000000
00000000
00000000
,  // measure 3
00000000
00000000
00000000
00000000
00000000
00000000
00000000
00000000
00000000
00000000
00000000
00000000
00000000
00000000
00001000
00010000
,  // measure 4
00001000
00000000
00100000
00000000
00001000
00000000
00010000
00000000
00001000
00000000
01000000
00000000
00100000
10000000
00100000
10000000
,  // measure 5
00100000
00000000
01000000
00000000
00001000
00010000
00001000
00010000
00001000
00000000
00000010
00000000
00000001
00000000
00001000
00000001
,  // measure 6
00001000
00000000
00000010
00000000
00000100
00000000
00000010
00000000
00000001
00000000
00000010
00000000
00001000
00000010
00001000
00000010
,  // measure 7
00001000
00000000
00000100
00000000
00010000
00001000
00010000
00001000
00100000
00000000
00010000
00000000
10010000
00000000
00000000
00000000
,  // measure 8
10000000
00000000
10000000
00100000
00000000
00100000
01000000
00000000
00002000
00000000
00000000
00000000
00013000
00000000
00010000
00000000
,  // measure 9
00000100
00000000
00000100
00000020
00000000
00000000
00000001
00000000
00000031
00000000
00000000
00000000
00001000
00000000
00000100
00000000
,  // measure 10
00010000
00000000
00010000
00000020
00000000
00000000
00000100
00000000
00000130
00000000
00000001
00000000
00000010
00000000
00001000
00000000
,  // measure 11
00000001
00000000
00000100
00000000
00001000
00000010
00001000
00000010
00010000
00000100
00010000
00000100
00001000
00000000
00000001
00000000
,  // measure 12
00001000
00000000
00001000
00000020
00000000
00000000
00000100
00000000
00000130
00000000
00000000
00000000
00001000
00000000
00000100
00000000
,  // measure 13
00000010
00000000
00010000
00002000
00000000
00000000
00100000
00000000
00103000
00000000
00000000
00000000
00010000
00000000
01000000
00000000
,  // measure 14
10000000
00000000
01000000
00200000
00000000
00000000
10000000
00000000
10300000
00000000
00010000
00000000
00100000
00000000
10000000
00000000
,  // measure 15
00010000
00000000
01000000
00000000
10000000
00100000
01000000
00010000
00100000
00001000
00100000
00010000
01000000
00000000
00100000
00000000
,  // measure 16
20000000
31000000
00002000
01003000
,  // measure 17
10000000
00100000
00010000
00001000
00010000
00100000
10000000
00000000
,  // measure 18
00020000
00000000
00130000
00100000
00002000
00000000
00013000
00000000
,  // measure 19
00000100
00000000
00001000
00000001
00000000
00001000
00000001
00000000
00000100
00000000
00000010
00000000
00001001
00000000
00000000
00000000
,  // measure 20
00000011
00000000
00000010
00000000
00001010
00000000
00000010
00000000
00000110
00000000
00000000
00000000
00000010
00000001
00000010
00000001
,  // measure 21
00000100
00001000
00000100
00000010
00010000
00001000
01000000
00000000
,  // measure 22
01100000
00000000
01000000
00000000
11000000
00000000
01000000
00000000
01010000
00000000
00000000
00000000
01000000
00010000
01000000
00010000
,  // measure 23
01000000
00000000
00100000
00000000
00010000
00100000
00010000
00100000
01000000
00010000
00100000
00001000
00010000
00000000
00000000
00000000
,  // measure 24
00011000
00000000
00001000
00000000
00001100
00000000
00000100
00000000
00000110
00000000
00000000
00000000
00000010
00001000
00000010
00001000
,  // measure 25
00000001
00000100
00001000
00000001
00000010
00010000
00001000
00000000
,  // measure 26
00011000
00000000
00010000
00000000
00110000
00000000
00100000
00000000
01100000
00000000
00000000
00000000
01000000
00010000
01000000
00010000
,  // measure 27
10000000
00000000
00010000
00000000
10000000
01000000
00100000
00001000
00010000
00000100
00001000
00000001
00000100
00000000
00000000
00000000
,  // measure 28
00000000
00000000
00000001
00000010
00000000
00000000
00000010
00000100
00000000
00000000
00000100
00001000
00000000
00000000
00001000
00000010
,  // measure 29
00000000
00000000
00000010
00000100
00000000
00000000
00000100
00001000
00000000
00000000
00001000
00010000
00000000
00000000
00010000
00100000
,  // measure 30
00000000
00000000
00100000
10000000
00000000
00000000
10000000
01000000
00000000
00000000
01000000
00010000
00000000
00000000
00010000
01000000
,  // measure 31
00000000
00000000
01000000
00100000
00000000
00000000
00100000
00001000
00000000
00000000
00001000
00010000
00000000
00000000
00000100
00000000
,  // measure 32
00001000
00000000
00000010
00000200
00000000
00000000
00000301
00000000
00000100
00000000
00000010
00000000
00010000
00000000
00001000
00000000
,  // measure 33
00100000
00000000
00100000
00020000
00000000
00000000
01030000
00100000
10000000
00000000
10000000
00000000
00010000
00000000
10000000
00000000
,  // measure 34
10000000
01000000
01000000
00010000
00010000
00001000
00010000
02000000
,  // measure 35
00000000
23000000
00000000
30020000
00000000
01030000
01000000
00010000
,  // measure 36
00010000
00000000
01000000
00200000
00000000
00000000
10300000
00000000
00100000
00000000
01000000
00000000
00001000
00000000
00010000
00000000
,  // measure 37
00000100
00000000
00000100
00002000
00000000
00000000
00003010
00000100
00000001
00000000
00000001
00000000
00001000
00000000
00000001
00000000
,  // measure 38
00000001
00000010
00000010
00001000
00001000
00010000
00000010
00000200
,  // measure 39
00000000
00000310
00000000
00001000
00000001
00001000
00001001
00000000
,  // measure 40
00000101
00000000
00000100
00000000
00001100
00000000
00000100
00000000
00000110
00000000
00000000
00000000
00000100
00000001
00000100
00000001
,  // measure 41
00000010
00001000
00000010
00000100
00010000
00001000
00100000
00000000
,  // measure 42
01100000
00000000
00100000
00000000
10100000
00000000
00100000
00000000
00110000
00000000
00000000
00000000
00100000
00010000
00100000
00010000
,  // measure 43
00100000
00000000
01000000
00000000
00010000
01000000
00010000
01000000
00100000
00010000
01000000
00001000
00010000
00000000
00000000
00000000
,  // measure 44
00011000
00000000
00001000
00000000
00001010
00000000
00000010
00000000
00000110
00000000
00000000
00000000
00000100
00001000
00000100
00001000
,  // measure 45
00000001
00000010
00001000
00000001
00000100
00010000
00001000
00000000
,  // measure 46
00011000
00000000
00010000
00000000
01010000
00000000
01000000
00000000
01100000
00000000
00000000
00000000
00100000
00010000
00100000
00010000
,  // measure 47
10000000
00000000
00010000
00000000
10000000
00100000
01000000
00001000
00010000
00000010
00001000
00000001
00000010
00000000
00000100
00001000
,  // measure 48
00000001
00000000
00000101
00000000
00001000
00000000
00001100
00000000
00000001
00000000
00001001
00000000
00000001
00000100
00000010
00010000
,  // measure 49
00001000
00000000
00100000
00000000
00010000
01000000
00100000
10000000
00100000
01000000
00001000
00010000
00000100
00000000
00001000
00000010
,  // measure 50
00000100
00000000
00000101
00000000
00000100
00000000
00001100
00000000
00000100
00000000
00000110
00000000
00000010
00001000
00000001
00000100
,  // measure 51
00000001
00000000
00001000
00000000
00000100
00010000
00001000
00100000
00010000
01000000
00100000
10000000
00010000
00000000
10000000
00010000
,  // measure 52
10000000
00000000
10100000
00000000
00010000
00000000
00110000
00000000
10000000
00000000
10010000
00000000
10000000
00100000
01000000
00001000
,  // measure 53
00010000
00000000
00000100
00000000
00001000
00000010
00000100
00000001
00000100
00000010
00010000
00001000
00100000
00000000
00010000
01000000
,  // measure 54
00100000
00000000
10100000
00000000
00100000
00000000
00110000
00000000
00100000
00000000
01100000
00000000
01000000
00010000
10000000
00100000
,  // measure 55
10000000
00000000
00010000
00000000
00100000
00001000
00010000
00000100
00001000
00000010
00000100
00000001
00001000
00000000
00000001
00000010
,  // measure 56
00000100
00001000
00000100
00001000
00000020
00000000
00010030
00000000
00002000
00000000
00103000
00000000
00010000
01000000
00100000
10000000
,  // measure 57
00010000
00100000
10000000
00100000
00001000
00100000
01000000
10000000
00010000
00000000
10010000
00000000
02200000
00000000
00000000
00000000
,  // measure 58
03300000
00000000
00000000
00000000
;
