#TITLE:Uptown Funk;
#SUBTITLE:;
#ARTIST:Mark Ronson ft. Bruno Mars;
#TITLETRANSLIT:;
#SUBTITLETRANSLIT:;
#ARTISTTRANSLIT:;
#GENRE:;
#CREDIT:;
#BANNER:Uptown Funk.png;
#BACKGROUND:Uptown Funk-bg.png;
#LYRICSPATH:;
#CDTITLE:;
#MUSIC:Uptown Funk.mp3;
#OFFSET:-0.406;
#SAMPLESTART:67.115;
#SAMPLELENGTH:16.420;
#SELECTABLE:YES;
#BPMS:0.000=115.000
;
#STOPS:
;
#BGCHANGES:;
#KEYSOUNDS:;
#ATTACKS:;

//---------------dance-single - Blank----------------
#NOTES:
     dance-single:
     :
     Hard:
     7:
     0.433,0.452,0.075,0.247,0.231,252.000,7.000,23.000,0.000,0.000,0.000,0.433,0.452,0.075,0.247,0.231,252.000,7.000,23.000,0.000,0.000,0.000:
0000
0000
0000
0000
,
0000
0000
0000
0000
,
0000
0000
0000
0000
,
0000
0000
0000
0000
,
1000
0000
0000
1000
0000
0000
0000
0000
0001
0000
0000
0001
0000
0000
0000
0000
,
0010
0000
0000
0010
0000
0000
0010
0000
0000
0000
0100
0000
0100
0000
0000
0000
,
1000
0000
0000
1000
0000
0000
0000
0000
0001
0000
0000
0001
0000
0000
0000
0000
,
0100
0000
0000
0100
0000
0000
0100
0000
0000
0000
0010
0000
1000
0001
0000
0000
,
1000
0000
0000
1000
0000
0000
0100
0000
0001
0000
0000
0001
0000
0000
0100
0000
,
1000
0000
0000
1000
0000
0000
0010
0000
0100
0000
0000
0100
0000
0000
0000
0000
,
0001
0000
0000
0001
0000
0000
0010
0000
1000
0000
0000
1000
0000
0000
0010
0000
,
0001
0000
0000
0001
0000
0000
0100
0000
0010
0000
1000
0000
0001
0000
0000
0000
,
0102
1003
2100
3001
,
1000
0100
0001
0010
1000
0000
0001
0000
,
0201
0000
0310
0000
1000
1000
0001
0000
,
1000
0100
0001
0100
0010
0010
0001
0000
,
2000
0000
3010
0010
0200
0000
1300
0000
,
0100
0001
0010
0000
0100
1000
0010
0000
,
2000
0000
3100
0100
0020
0000
1030
0000
,
0010
0001
0100
0001
0010
0100
1000
0000
,
0002
0000
0013
0010
2000
0000
3010
0000
,
0001
0100
1000
0100
0010
1000
0001
0100
,
0002
0000
0013
0010
2000
0000
3010
0100
,
1000
0000
0000
1000
0000
0000
1000
0000
0010
0000
0100
0001
1000
0000
0000
0000
,
0001
0010
0100
1100
,
1000
0010
0100
0101
,
0001
0010
0100
1001
,
1000
0010
0001
0010
1000
1000
0001
0000
,
1000
0100
0001
0100
1000
1000
0001
0000
,
1000
0010
0100
0010
0001
0001
0010
0000
,
1000
0100
0001
0010
1000
0001
1000
0000
,
0001
0000
0100
0010
0000
0100
0010
0000
1000
0000
0000
0000
0001
1000
0000
0000
,
0001
0002
0013
0001
0002
0103
0001
0002
,
1003
0000
0010
0000
0100
0000
0000
0000
0001
0000
0000
0000
1000
0001
1000
0001
,
2000
3010
0002
0013
,
1000
0000
0100
0010
0000
0100
0010
0000
0001
0000
1000
0001
1000
0001
1000
0001
,
1000
2000
3100
1000
2000
3010
1000
2000
,
3001
0000
0100
0000
0010
0000
0000
0000
1000
0000
0000
0000
0001
1000
0001
1000
,
0002
0103
2000
3100
,
0001
0000
0010
0100
0000
0010
0100
0000
1000
0000
0001
1000
0001
1000
0001
1000
,
0000
0000
0000
0000
0000
0000
0000
0000
0000
0000
1000
0010
1000
0010
1000
0010
,
0000
0000
0000
0000
0000
0000
0000
0000
0000
0000
0100
0001
0100
0001
0100
0001
,
0000
0000
0000
0000
0000
0000
0000
0000
0000
0000
1000
0100
1000
0001
1000
0010
,
1000
0000
0100
0000
0001
0000
0100
0000
0010
0000
0100
0000
1000
0001
0000
0000
,
2002
3003
0000
0000
;

//---------------dance-single - Blank----------------
#NOTES:
     dance-single:
     :
     Easy:
     3:
     0.244,0.260,0.150,0.000,0.000,145.000,14.000,0.000,0.000,0.000,0.000,0.244,0.260,0.150,0.000,0.000,145.000,14.000,0.000,0.000,0.000,0.000:
0000
0000
0000
0000
,
0000
0000
0000
0000
,
0000
0000
0000
0000
,
0000
0000
0000
0000
,
1000
0000
0001
0000
,
0100
0100
0100
0000
,
0001
0000
1000
0000
,
0100
0100
0100
1001
,
1000
0010
1000
0010
,
0100
0001
0100
0001
,
1000
0100
1000
0100
,
0010
0001
0010
0001
,
1000
1000
0001
0001
,
0100
0010
0100
0000
,
0001
0001
1000
1000
,
0001
0010
0100
1000
,
0001
0000
0101
0000
,
0001
0010
0100
1000
,
0001
0000
0011
0000
,
0001
0100
0010
1000
,
0001
0000
1001
0000
,
1000
0100
0001
0100
,
1000
0000
1001
0000
,
0001
0100
0010
0100
,
0001
0010
0001
0010
,
1000
0010
1000
0010
,
0001
0100
0001
0100
,
1000
0100
1000
0100
,
0001
0001
0001
0001
,
1000
1000
1000
1000
,
0010
0010
0010
0010
,
0100
0000
0000
1001
,
1000
0100
0001
0100
,
0010
0100
1000
0001
,
1000
0010
0001
0010
,
0100
0010
1000
1001
,
0001
0010
1000
0010
,
0100
0010
0001
1000
,
0001
0100
1000
0100
,
0010
0100
0001
1001
,
0001
0010
0001
0101
,
1000
0010
1000
1100
,
0001
0010
0100
1001
,
1010
0001
0011
1000
,
1001
0000
0000
0000
;

//---------------dance-single - Blank----------------
#NOTES:
     dance-single:
     :
     Medium:
     5:
     0.417,0.356,0.344,0.301,0.000,212.000,32.000,28.000,0.000,0.000,0.000,0.417,0.356,0.344,0.301,0.000,212.000,32.000,28.000,0.000,0.000,0.000:
0000
0000
0000
0000
,
0000
0000
0000
0000
,
0000
0000
0000
0000
,
0000
0000
0000
0000
,
1000
1100
0001
0101
,
1000
0000
1001
0000
0001
0100
0010
0000
,
1000
1010
0001
0011
,
0002
0010
0103
1001
,
0001
0000
0100
0010
1000
0000
1001
0000
,
1000
0000
0100
0010
0001
0000
1001
0000
,
0001
0000
1000
0010
0100
0000
1001
0000
,
0001
0000
0010
0100
1000
1000
1000
0000
,
0002
0103
2000
3100
,
0001
0100
1000
0100
0002
0000
1003
0000
,
2010
0000
3001
0000
0010
0010
0100
0000
,
1000
0010
0001
0010
1000
1000
0001
0000
,
0102
0013
2100
3010
,
2000
3010
0002
0013
,
0102
0013
2100
3010
,
1000
0010
0100
0000
0001
0100
0010
0000
,
1200
0310
0201
0310
,
1000
0010
0100
0000
0001
0100
0010
0000
,
1020
0130
0021
0130
,
0010
1000
0100
0010
0001
0100
0010
0000
,
2000
0001
3001
1001
,
0002
1000
1003
1001
,
0020
0100
0130
0110
,
0010
1000
0010
1000
0001
0100
0001
0000
,
1000
0100
1000
0100
0010
0001
0010
0000
,
0001
0100
0001
0100
0010
1000
0010
0000
,
1000
0001
1000
0001
0100
0010
0100
0000
,
1000
0100
0001
0100
1000
0000
1001
0000
,
1000
1000
0000
0010
0010
0000
0100
0100
,
0001
0100
1000
0000
1000
0100
0001
0000
,
0012
1003
2010
3001
,
1000
0010
0001
0010
0100
0000
1001
0000
,
0001
0001
0000
0100
0100
0000
0010
0010
,
1000
0010
0001
0000
0001
0010
1000
0000
,
2100
3001
0102
1003
,
0001
0100
0010
1000
0002
0000
1003
0000
,
0001
0010
0100
1000
0002
0000
1003
0000
,
0001
0100
1000
0100
0002
0000
1003
0000
,
0001
0010
1000
0010
0002
0000
1003
0000
,
0101
1010
0011
1100
,
2002
3003
0000
0000
;

//---------------dance-double - Blank----------------
#NOTES:
     dance-double:
     :
     Hard:
     7:
     0.419,0.380,0.129,0.204,0.097,242.000,12.000,19.000,0.000,0.000,0.000,0.419,0.380,0.129,0.204,0.097,242.000,12.000,19.000,0.000,0.000,0.000: // measure 0
00000000
00000000
00000000
00000000
,  // measure 1
00000000
00000000
00000000
00000000
,  // measure 2
00000000
00000000
00000000
00000000
,  // measure 3
00000000
00000000
00000000
00000000
,  // measure 4
00001000
00000000
00000000
00001000
00000000
00000000
00000000
00000000
00010000
00000000
00000000
00010000
00000000
00000000
00000000
00000000
,  // measure 5
00000100
00000000
00000000
00000100
00000000
00000000
00000200
00000000
00000000
00000000
00001000
00000000
00001300
00000000
00000000
00000000
,  // measure 6
00000010
00000000
00000000
00000010
00000000
00000000
00000000
00000000
00000100
00000000
00000000
00000100
00000000
00000000
00000000
00000000
,  // measure 7
00000001
00000000
00000000
00000001
00000000
00000000
00000002
00000000
00000000
00000000
00000013
00000000
00000100
00001000
00000000
00000000
,  // measure 8
00000010
00000000
00000000
00000010
00000000
00000000
00001000
00000000
00000100
00000000
00000000
00000100
00000000
00000000
00010000
00000000
,  // measure 9
00001000
00000000
00000000
00001000
00000000
00000000
00100000
00000000
00010000
00000000
00000000
00010000
00000000
00000000
00000000
00000000
,  // measure 10
10000000
00000000
00000000
10000000
00000000
00000000
00100000
00000000
01000000
00000000
00000000
01000000
00000000
00000000
00010000
00000000
,  // measure 11
00100000
00000000
00000000
00100000
00000000
00000000
00001000
00000000
00010000
00000000
00000100
00000000
00001000
00000000
00000000
00000000
,  // measure 12
00002010
00003001
00000012
00001003
,  // measure 13
00000001
00000100
00001000
00010000
00002000
00000000
00103000
00000000
,  // measure 14
01020000
00000000
10030000
00000000
00100000
00100000
01000000
00000000
,  // measure 15
00010000
00100000
10000000
00100000
00010000
00010000
10000000
00000000
,  // measure 16
00020000
00000000
01030000
01000000
00200000
00000000
00310000
00000000
,  // measure 17
00001000
00000100
00000010
00000000
00001000
00000100
00000010
00000000
,  // measure 18
00000002
00000000
00000103
00000100
00000020
00000000
00001030
00000000
,  // measure 19
00000100
00001000
00010000
00100000
00010000
00001000
00010000
00000000
,  // measure 20
00200000
00000000
01300000
01000000
20000000
00000000
30010000
00000000
,  // measure 21
10000000
00100000
00010000
00100000
10000000
01000000
00010000
01000000
,  // measure 22
20000000
00000000
30010000
00010000
00200000
00000000
00301000
00010000
,  // measure 23
00000100
00000000
00000000
00000100
00000000
00000000
00000100
00000000
00001000
00000000
00000010
00000000
00000100
00000000
00000000
00000000
,  // measure 24
00000002
00000010
00000103
00001001
,  // measure 25
00002000
00000010
00003100
00001001
,  // measure 26
00000002
00000100
00001003
00001001
,  // measure 27
00000001
00000100
00001000
00010000
00001000
00000100
00000010
00000000
,  // measure 28
00001000
00000100
00010000
00001000
00100000
00010000
10000000
00000000
,  // measure 29
10000000
01000000
00010000
00001000
00010000
01000000
10000000
00000000
,  // measure 30
00010000
01000000
00100000
10000000
00100000
00010000
00100000
00000000
,  // measure 31
10000000
00000000
00000000
01000000
00000000
00000000
00010000
00000000
00001000
00000000
00000000
00000000
00001001
00000000
00000000
00000000
,  // measure 32
00000001
00000001
00000100
00001000
00001000
00000100
00000010
00000010
,  // measure 33
00001000
00000100
00000001
00000000
00000001
00000100
00001000
00000010
,  // measure 34
00010000
00101000
00010000
10010000
,  // measure 35
10000000
00000000
00000000
00100000
00000000
00000000
00010000
00000000
00100000
00000000
01000000
00000000
01000000
00000000
01000000
00000000
,  // measure 36
00010000
00010000
00100000
10000000
10000000
00100000
00001000
00001000
,  // measure 37
00010000
00000100
00000100
00000000
00001000
00000000
00000010
00000100
,  // measure 38
00000001
00000101
00000010
00011000
,  // measure 39
00010000
00100000
10000000
00100000
00010000
00001000
00001000
00001000
,  // measure 40
00000100
00000001
00000010
00001000
00000010
00000001
00000001
00000001
,  // measure 41
00001000
00000010
00000100
00001000
00010000
00000010
00000010
00000010
,  // measure 42
00000100
00000001
00000010
00001000
00010000
00100000
00100000
00100000
,  // measure 43
10000000
00000000
01000000
00000000
00010000
00000000
01000000
00000000
10000000
00000000
00100000
00000000
01000000
00010000
00000000
00000000
,  // measure 44
20020000
30030000
00000000
00000000
;
