#TITLE:うちゅーの☆ふぁんたじー;
#SUBTITLE:;
#ARTIST:ふわりP;
#TITLETRANSLIT:Uchuu no fantasy;
#SUBTITLETRANSLIT:;
#ARTISTTRANSLIT:fuwari-P;
#GENRE:;
#CREDIT:;
#BANNER:Uchuu no fantasy.PNG;
#BACKGROUND:Uchuu no fantasy-bg.png;
#LYRICSPATH:;
#CDTITLE:;
#MUSIC:Uchuu no fantasy.mp3;
#OFFSET:-0.104;
#SAMPLESTART:42.455;
#SAMPLELENGTH:14.820;
#SELECTABLE:YES;
#BPMS:0.000=140.000
;
#STOPS:
;
#BGCHANGES:;
#KEYSOUNDS:;
#ATTACKS:TIME=1.830000:LEN=12.860000:MODS=;

//---------------dance-single - Blank----------------
#NOTES:
     dance-single:
     :
     Hard:
     8:
     0.673,0.617,0.472,0.428,0.351,347.000,43.000,39.000,0.000,0.000,0.000,0.673,0.617,0.472,0.428,0.351,347.000,43.000,39.000,0.000,0.000,0.000:
0000
0000
0000
0000
,
1000
0000
0010
0100
0002
0000
0003
0000
1000
0000
0100
0010
0002
0000
0003
0000
,
1000
0000
0010
0000
0100
0001
0000
1000
0000
1000
0001
0000
0010
0000
0100
0000
,
1000
0000
0010
0100
0000
0000
0100
0001
0000
0000
0001
1000
0000
0000
1000
0100
,
0010
0101
1100
1001
,
0001
0000
0100
0010
2000
0000
3000
0000
0001
0000
0010
0100
2000
0000
3000
0000
,
0001
0000
0100
0000
0010
1000
0000
0001
0000
0001
1000
0001
0100
0000
0100
0000
,
0001
0000
0010
0100
0000
0000
0100
1000
0000
0000
1000
0001
0000
0000
0001
0100
,
0010
0010
0100
0100
0001
1000
0100
0010
,
0002
0000
0010
0000
0103
0001
0010
0100
,
1000
0000
1000
0010
0000
0010
1000
0000
0002
0000
0000
0000
0103
0000
0001
0000
,
0010
0000
0010
0100
0000
0100
1000
0000
0001
0000
0001
0000
1000
0000
0000
0000
,
0001
0000
0001
0100
0000
0100
0010
0000
1000
0000
0001
0000
0010
0000
0100
0000
,
2000
0000
0100
0000
3010
1000
0100
0010
,
0001
0000
0001
0100
0000
0100
0001
0000
2000
0000
0000
0000
3010
0000
1000
0000
,
0100
0000
0100
0010
0000
0010
0001
0000
1000
0000
1000
0000
0001
0000
0001
0000
,
0101
0000
0101
0000
0000
1100
0000
0000
1001
0000
0000
0000
0001
0000
1000
0000
,
0002
0000
0103
0100
2000
0000
3100
0100
,
0001
0010
0100
0000
1100
1000
1010
0000
,
2000
0000
3010
0010
0002
0000
0013
0010
,
1000
0100
0010
0001
0011
0001
0101
0000
,
0002
0023
2030
3200
,
0302
0000
2003
0000
3002
0000
0103
0100
,
0002
0023
0230
1300
,
1010
1010
0011
0011
1001
0000
0001
0100
,
0102
0000
1003
0100
2100
0000
3100
1000
,
0001
0000
0000
0001
0100
0000
0010
0000
2000
0000
0000
0000
3001
0000
0000
0001
,
0010
0000
0010
0000
0100
0000
0000
0100
1000
0000
1000
0000
0001
0000
0001
0000
,
0101
0000
1010
0000
1001
0000
1000
0010
,
2010
0000
0000
0000
3001
0000
0010
0000
0011
0000
0000
0001
1000
0000
0001
0000
,
0100
0000
0100
0000
0010
0000
0000
0010
2000
0000
0000
0000
3001
0000
0001
0000
,
0010
0000
0010
0000
0100
0000
0000
0100
1000
0000
1000
0000
0001
0000
0000
0001
,
0100
0100
0010
0010
1010
0011
1001
0000
,
0201
0000
0301
1000
1200
0000
1300
0001
,
0010
0000
0000
0010
0100
0000
1000
0000
0002
0000
0000
0000
1003
0000
0000
1000
,
0001
0000
0100
0000
1000
0000
0000
1000
0100
0000
0001
0000
0010
0000
0100
0000
,
1100
0000
0011
0000
1001
0000
0001
1000
,
1020
0000
0000
0000
1030
0000
0001
0000
0011
0000
0000
0001
1000
0000
0100
0000
,
1000
0000
1000
0000
0010
0000
0000
0010
0200
0000
0000
0000
0301
0000
0001
0000
,
0010
0000
0010
0000
1000
0000
0000
1000
0010
0000
0000
0000
0110
0000
0000
0100
,
1000
1000
0001
0001
0101
1100
1001
0001
,
0100
0000
0010
1000
0002
0000
0003
0000
0010
0000
0100
1000
0002
0000
0003
0000
,
0010
0000
0100
0000
1000
0001
0000
0100
0000
0100
0010
0000
1000
0000
0001
0000
,
1000
0000
0100
0001
0000
0000
0001
0010
0000
0000
0010
1000
0000
0000
1000
0100
,
0010
0011
1100
1001
,
1000
0000
0100
0001
0200
0000
0300
0000
1000
0000
0010
0001
0020
0000
0030
0000
,
1000
0000
0010
0000
0100
0001
0000
0010
0000
0010
0100
0010
0001
0000
1000
0000
,
0001
0000
1000
0100
0000
0000
0100
0001
0000
0000
0001
0010
0000
0000
0010
1000
,
0001
0001
0010
0010
1100
0000
0101
0000
,
2002
0000
0000
0000
3003
0000
1000
0010
0200
0000
0000
0000
0000
0000
0000
0000
,
0000
0000
0000
0000
,
0000
0300
0000
0000
0000
0000
0000
0000
;

//---------------dance-double - Blank----------------
#NOTES:
     dance-double:
     :
     Hard:
     8:
     0.580,0.505,0.274,0.384,0.121,310.000,25.000,35.000,0.000,0.000,0.000,0.580,0.505,0.274,0.384,0.121,310.000,25.000,35.000,0.000,0.000,0.000:
00000000
00000000
00000000
00000000
,
00010000
00001000
00200000
00000000
00301000
00010000
00000020
00000000
,
00000130
00000001
00001000
00000100
00000010
00000010
00000001
00000000
,
00001000
00001000
00000010
00000010
00000100
00000100
00001000
00001000
,
00010000
00100000
10100000
01010000
,
00001000
00010000
00000200
00000000
00010300
00001000
02000000
00000000
,
03100000
10000000
00010000
00100000
01000000
01000000
10000000
10000000
,
00010000
01000000
01010000
00000000
00000100
00001000
00001100
00000000
,
00001000
00001000
00000001
00000001
00001000
00000010
00000001
00000010
,
00000200
00000010
00000310
00001000
,
00000001
00000100
00001000
00010000
00002000
00000000
00003100
00000000
,
00001000
00010000
01000000
10000000
00010000
00010000
01000000
00000000
,
00010000
00100000
00001000
00010000
00000100
00001000
00000100
00000001
,
00000200
00000000
00000010
00000000
00000310
00000001
00000100
00000010
,
00001000
00000010
00010000
00001000
00200000
00000000
00310000
10000000
,
00010000
01000000
00100000
10000000
00010000
00100000
00001000
00010000
,
01000000
00000000
01000000
00000000
00000000
10000000
00000000
00000000
10010000
00000000
00000000
00000000
10000000
00000000
00010000
00000000
,
20000000
30100000
00020000
00031000
,
00010000
00100000
10000000
00000000
00010000
00100000
00001000
00000000
,
00000020
00000031
00000200
00001300
,
00000100
00000010
00001000
00000010
00010000
00001000
01000000
00000000
,
00200000
20300000
32000000
03020000
,
02030000
00000000
03200000
00000000
00302000
00000000
00013000
00010000
,
00000200
00002300
00003020
00000130
,
00000001
00000001
00001000
00001000
00001001
00000000
00000001
00000100
,
00000102
00001003
00001200
00010300
,
00001000
00000000
00000000
00001000
00100000
00000000
00010000
00000000
01000000
00000000
00000000
00000000
10010000
00000000
00000000
00000000
,
10000000
10000000
00100000
00000000
00010000
00010000
00001000
00000100
,
00000010
00000000
00001000
00000000
00001001
00000000
00001000
00000001
,
00000012
00000000
00000000
00000000
00001003
00000000
00000000
00000000
00001010
00000000
00000000
00000010
00001000
00000000
00000100
00000000
,
00010000
00000000
00010000
00000000
00000010
00000000
00000000
00000010
00001000
00000000
00000000
00000000
00000100
00000000
00000100
00000000
,
00010000
00000000
00010000
00000000
00001000
00000000
00000000
00001000
01000000
00000000
01000000
00000000
00100000
00000000
00000000
00100000
,
10000000
01000000
00010000
01000000
10000000
00010000
10010000
00000000
,
10200000
00000000
00310000
00001000
00001200
00000000
00000301
00001000
,
00000001
00000000
00000000
00000001
00000010
00000000
00000001
00000000
00000100
00000000
00000000
00000000
00001010
00000000
00000000
00001000
,
00000010
00000000
00000010
00000000
00000100
00000000
00000000
00000100
00001000
00000000
00001000
00000000
00010000
00000000
00100000
00000000
,
01000000
00000000
00001000
00000000
00011000
00000000
00001000
00000010
,
00000002
00000000
00000000
00000000
00000103
00000000
00000100
00000000
00001000
00000000
00000000
00001000
00010000
00000000
00000010
00000000
,
00000100
00000000
00000100
00000000
00000001
00000000
00000000
00000001
00002000
00000000
00000000
00000000
00003100
00000000
00000100
00000000
,
00010000
00000000
00010000
00000000
00001000
00000000
00001000
00000000
01000000
00000000
01000000
00000000
10000000
00000000
00000000
10000000
,
01000000
00100000
10000000
00010000
00100000
00001000
00011000
00000000
,
00010000
00001000
00200000
00000000
00301000
00010000
00000020
00000000
,
00000130
00000000
00000001
00000000
00001000
00000100
00000000
00000010
00000000
00000010
00000001
00000000
00001000
00000000
00000001
00000000
,
00001000
00000000
00001000
00000010
00000000
00000000
00000010
00000100
00000000
00000000
00000100
00001000
00000000
00000000
00001000
00000000
,
00010000
00100000
10100000
01010000
,
00001000
00010000
00000200
00000000
00010300
00001000
02000000
00000000
,
03100000
00000000
10000000
00000000
00010000
00100000
00000000
01000000
00000000
01000000
10000000
00000000
00010000
00000000
10000000
00000000
,
00010000
01000000
01010000
00000000
00000100
00001000
00001100
00000000
,
00001000
00001000
00000001
00000001
00000101
00000000
00001100
00000000
,
00002001
00000000
00000000
00000000
00003100
00000000
00010000
00001000
00200000
00000000
00000000
00000000
00000000
00000000
00000000
00000000
,
00000000
00000000
00000000
00000000
,
00000000
00300000
00000000
00000000
00000000
00000000
00000000
00000000
;

//---------------dance-single - Blank----------------
#NOTES:
     dance-single:
     :
     Easy:
     4:
     0.353,0.365,0.253,0.351,0.000,170.000,23.000,32.000,0.000,0.000,0.000,0.353,0.365,0.253,0.351,0.000,170.000,23.000,32.000,0.000,0.000,0.000: // measure 0
0000
0000
0000
0000
,  // measure 1
2000
3000
0002
0003
,  // measure 2
0100
0010
1000
0001
,  // measure 3
0010
0010
0100
0100
,  // measure 4
1000
0001
1000
1001
,  // measure 5
0002
0003
2000
3000
,  // measure 6
0010
0100
0001
1000
,  // measure 7
0100
0100
0010
0010
,  // measure 8
0001
1000
0001
1001
,  // measure 9
0001
0100
0001
0100
,  // measure 10
0010
1000
0010
1000
,  // measure 11
0001
0010
0001
0010
,  // measure 12
0100
1000
0100
1000
,  // measure 13
0001
0100
1000
0100
,  // measure 14
0001
0010
1000
0010
,  // measure 15
0001
0100
1000
0010
,  // measure 16
0001
1000
1001
0000
,  // measure 17
0002
0003
2000
3000
,  // measure 18
0010
0100
0010
1001
,  // measure 19
2000
3000
0002
0003
,  // measure 20
0100
0010
0100
1001
,  // measure 21
1000
0010
0001
0010
,  // measure 22
0100
0010
1000
0001
,  // measure 23
1000
0100
0001
0100
,  // measure 24
0010
0010
1001
0000
,  // measure 25
0202
0303
2200
3300
,  // measure 26
0001
1000
0001
0100
,  // measure 27
0010
0010
0100
0100
,  // measure 28
0001
1000
1001
0000
,  // measure 29
2020
3030
0022
0033
,  // measure 30
1000
0001
1000
0010
,  // measure 31
0100
0100
0010
0010
,  // measure 32
1000
0001
1000
1001
,  // measure 33
2020
3030
0202
0303
,  // measure 34
0001
0010
0100
1000
,  // measure 35
0001
0100
1000
0010
,  // measure 36
0001
1000
1001
0000
,  // measure 37
2200
3300
0022
0033
,  // measure 38
1000
0010
0100
0001
,  // measure 39
1000
0010
0001
0100
,  // measure 40
1000
0001
1001
1001
,  // measure 41
2000
3000
0002
0003
,  // measure 42
0100
0010
1000
0001
,  // measure 43
0010
0010
0100
0100
,  // measure 44
1000
0001
1000
1001
,  // measure 45
0002
0003
2000
3000
,  // measure 46
0010
0100
0001
1000
,  // measure 47
0100
0100
0010
0010
,  // measure 48
0001
1000
0001
1001
,  // measure 49
0202
0303
2200
0000
,  // measure 50
0000
0000
0000
0000
,  // measure 51
0000
3300
0000
0000
0000
0000
0000
0000
;

//---------------dance-single - Blank----------------
#NOTES:
     dance-single:
     :
     Medium:
     6:
     0.529,0.449,0.439,0.494,0.005,252.000,40.000,45.000,0.000,0.000,0.000,0.529,0.449,0.439,0.494,0.005,252.000,40.000,45.000,0.000,0.000,0.000: // measure 0
0000
0000
0000
0000
,  // measure 1
1000
0100
2000
3000
0001
0100
0002
0003
,  // measure 2
1000
0000
0010
0000
0100
0001
1000
0000
,  // measure 3
1010
1010
0101
0101
,  // measure 4
1100
1100
0011
1001
,  // measure 5
0001
0010
0002
0003
1000
0010
2000
3000
,  // measure 6
0001
0000
0100
0000
0010
1000
0001
0000
,  // measure 7
0101
0101
1010
1010
,  // measure 8
0001
0010
0100
1000
0001
0000
0101
0000
,  // measure 9
2100
0010
0100
3001
,  // measure 10
1000
0010
0001
0010
2000
0000
3001
0000
,  // measure 11
1000
0000
0100
0000
0010
0001
1000
0000
,  // measure 12
0001
0000
0100
0000
0010
1000
0001
0100
,  // measure 13
0012
0100
0010
1003
,  // measure 14
0001
0100
1000
0100
0002
0000
1003
0000
,  // measure 15
0001
0000
0010
0000
0100
1000
0001
0000
,  // measure 16
0100
0000
0100
0000
0000
0010
0000
0000
1001
0000
0000
0000
1000
0000
0001
0000
,  // measure 17
2000
3010
0002
0013
,  // measure 18
1000
0100
0001
0000
0001
0100
1000
0000
,  // measure 19
0002
0103
2000
3100
,  // measure 20
0001
0010
1000
0000
1000
0010
0001
0000
,  // measure 21
2000
3020
0230
0302
,  // measure 22
0203
0320
2030
3001
,  // measure 23
2000
3200
0320
0031
,  // measure 24
1000
1000
0001
0001
1001
0000
1000
0010
,  // measure 25
2000
0000
3001
0010
0002
0000
1003
0000
,  // measure 26
0001
0100
1000
0010
0002
0000
1003
0000
,  // measure 27
0001
0100
0010
0000
1000
0010
0100
0000
,  // measure 28
0101
1100
2001
3100
,  // measure 29
2000
3010
0002
0013
,  // measure 30
1000
0010
0001
0100
2000
0000
3001
0000
,  // measure 31
1000
0010
0100
0001
2000
0000
3001
0000
,  // measure 32
1000
0100
0010
0001
0010
0100
1001
0000
,  // measure 33
0002
0000
1003
0100
2000
0000
3001
0000
,  // measure 34
1000
0010
0001
0100
2000
0000
3001
0000
,  // measure 35
1000
0010
0100
0000
0001
0100
0010
0000
,  // measure 36
1010
0011
1002
0013
,  // measure 37
0002
0103
2000
3100
,  // measure 38
0001
0100
1000
0010
0002
0000
1003
0000
,  // measure 39
0001
0100
0010
1000
0002
0000
1003
0000
,  // measure 40
0001
0010
0100
1000
0100
0010
1001
0000
,  // measure 41
0001
0010
0002
0003
1000
0010
2000
3000
,  // measure 42
0001
0000
0100
0000
0010
1000
0001
0000
,  // measure 43
0101
0101
1010
1010
,  // measure 44
0011
0011
1100
1001
,  // measure 45
1000
0100
2000
3000
0001
0100
0002
0003
,  // measure 46
1000
0000
0010
0000
0100
0001
1000
0000
,  // measure 47
1010
1010
0101
0101
,  // measure 48
1000
0100
0010
0001
1000
0000
1010
0000
,  // measure 49
0102
1003
2002
0000
,  // measure 50
0000
0000
0000
0000
,  // measure 51
0000
3003
0000
0000
0000
0000
0000
0000
;
