#VERSION:0.83;
#TITLE:内気なキューピッド;
#SUBTITLE:;
#ARTIST:島田奈美;
#TITLETRANSLIT:Uchiki na cupid;
#SUBTITLETRANSLIT:;
#ARTISTTRANSLIT:Nami Shimada;
#GENRE:;
#ORIGIN:;
#CREDIT:Akane;
#BANNER:Uchiki na cupid.png;
#BACKGROUND:Uchiki na cupid-bg.png;
#PREVIEWVID:;
#JACKET:;
#CDIMAGE:;
#DISCIMAGE:;
#LYRICSPATH:;
#CDTITLE:;
#MUSIC:Uchiki na cupid.mp3;
#OFFSET:-0.287000;
#SAMPLESTART:34.759998;
#SAMPLELENGTH:15.620000;
#SELECTABLE:YES;
#BPMS:0.000=123.460,
136.000=120.000,
137.000=123.460,
164.000=123.000,
188.000=124.000;
#STOPS:;
#DELAYS:;
#WARPS:;
#TIMESIGNATURES:0.000=4=4;
#TICKCOUNTS:0.000=4;
#COMBOS:0.000=1;
#SPEEDS:0.000=1.000=0.000=0;
#SCROLLS:0.000=1.000;
#FAKES:;
#LABELS:0.000=Song Start;
#BGCHANGES:;
#KEYSOUNDS:;
#ATTACKS:
;

//---------------dance-single - ----------------
#NOTEDATA:;
#CHARTNAME:;
#STEPSTYPE:dance-single;
#DESCRIPTION:;
#CHARTSTYLE:;
#DIFFICULTY:Hard;
#METER:8;
#RADARVALUES:0.513604,0.645116,0.253185,0.192421,0.192421,355.000000,330.000000,25.000000,19.000000,0.000000,0.000000,0.000000,0.000000,0.000000,0.513604,0.645116,0.253185,0.192421,0.192421,355.000000,330.000000,25.000000,19.000000,0.000000,0.000000,0.000000,0.000000,0.000000;
#CREDIT:;
#NOTES:
0000
0000
0000
0000
,
1000
0000
0001
0100
1000
0100
0010
0100
,
0100
0000
0001
0010
1000
0010
0100
0010
,
0001
0100
0100
0001
1000
0010
0010
1000
,
0100
0000
0010
0000
0010
0000
0001
0000
1000
0000
0000
0000
0010
0100
0010
0100
,
0010
0000
1000
0100
0001
0100
0010
0001
,
0001
0000
0000
0000
1000
0000
0010
0000
0001
0000
0010
0000
0100
0001
0000
0000
,
1000
0000
0000
0100
0000
0000
0010
0000
0011
0000
0000
0000
1010
0000
0000
0000
,
1001
0000
0000
1000
0000
0100
0010
0100
0010
0000
0001
0000
0001
0000
0000
0000
,
1000
0000
0000
0010
0000
0100
0010
0100
0010
0100
0001
0000
0001
0000
0000
0000
,
1000
0100
0010
0001
0010
1000
0010
0100
,
0000
1000
0010
0001
0010
0100
0001
1000
,
1001
0000
0000
0001
0000
0010
0001
0010
0001
0000
0100
0000
0100
0000
0000
0000
,
0010
1000
0010
1000
0010
1000
0010
1000
0000
0000
0100
0000
0100
0000
0000
0000
,
1000
0100
0010
0001
0100
0010
1000
0010
,
0100
0001
0010
0100
2000
0000
3001
0000
,
1000
1000
0010
0010
0100
0100
0001
0001
,
1000
1000
0100
0100
0020
0000
0031
1000
,
0001
0000
0100
0010
2000
0000
3001
0000
,
1100
0000
0101
0000
1000
0001
1000
0000
,
0002
0000
0010
0010
0103
0000
1001
0000
,
2000
0000
0100
0100
3010
0000
1000
0010
,
0100
0000
0001
0010
0200
0000
0310
0000
,
0011
0000
1010
0000
0001
0010
0100
1000
,
0002
0000
0203
0000
0320
0000
1000
1000
,
2030
0001
0001
0001
3001
0100
0010
1000
,
0100
0000
0010
0000
0000
0010
0000
0000
0010
0000
0100
0000
1000
0000
0010
0000
,
0100
0000
0001
0000
0000
0001
0000
0000
0001
0000
0000
0000
1000
0000
0100
0000
,
0020
0000
0230
0000
2300
0000
3001
0001
,
0200
0000
0310
0000
1000
0100
0001
0100
,
1000
0000
0010
0000
0000
0010
0000
0000
0010
0000
0100
0000
0001
0000
0010
0000
,
0100
0000
1000
0000
0000
1000
0000
0000
1000
0000
0000
0000
0001
0100
0000
0000
,
0001
0020
0000
0230
0000
2300
0000
3001
,
0000
0000
1000
0000
0010
0000
0100
0000
1001
0000
0000
1001
0000
0000
1001
0000
,
0001
0000
1000
0010
0001
0010
0100
0001
,
0001
0000
1000
0100
0001
0100
0010
0001
,
1000
1010
1010
1000
0001
0011
0011
0001
,
1000
0000
1100
0000
1100
0000
1000
0000
0001
0000
0101
0000
0001
1000
0001
1000
,
0001
0000
0100
1000
0100
0010
1000
0001
,
0001
0000
1000
0100
0001
0100
0010
0001
,
0100
0000
0000
0010
0000
0000
1000
0000
1100
0000
0000
0000
0101
0000
0000
0000
,
1001
0000
0001
0100
0010
1000
0100
0001
,
0100
0000
0010
0001
0100
1000
0100
0010
,
1000
0000
0000
0001
0000
0010
0001
0010
0001
0000
0100
0000
0010
0000
1000
0010
,
1000
0010
1000
0010
1000
0000
0010
0000
0100
0000
0001
0100
0001
0100
0001
0100
,
0010
0000
1000
0100
0001
0100
0010
0001
,
0001
0000
0000
0000
1000
0000
0010
0000
0001
0000
0010
0000
0100
0001
0000
0000
,
1000
0000
0000
0100
0000
0000
0010
0000
0011
0000
0000
0000
1010
0000
0000
0000
,
2002
0000
0000
0000
,
3003
0000
0000
0000
;

//---------------dance-single - ----------------
#NOTEDATA:;
#CHARTNAME:;
#STEPSTYPE:dance-single;
#DESCRIPTION:;
#CHARTSTYLE:;
#DIFFICULTY:Easy;
#METER:3;
#RADARVALUES:0.202548,0.218752,0.060764,0.081019,0.000000,140.000000,134.000000,6.000000,8.000000,0.000000,0.000000,0.000000,0.000000,0.000000,0.202548,0.218752,0.060764,0.081019,0.000000,140.000000,134.000000,6.000000,8.000000,0.000000,0.000000,0.000000,0.000000,0.000000;
#CREDIT:;
#NOTES:
0000
0000
0000
0000
,
0000
1000
0100
0010
,
0000
0001
0100
0010
,
2000
3000
0020
0030
,
0200
0300
0002
0003
,
0000
1000
0100
0010
,
0000
0001
0100
0010
,
1000
1000
0001
0001
,
1001
0000
0001
0100
,
0000
0000
0010
1000
,
0000
0001
0010
0100
,
0000
1000
0010
0100
,
0000
0000
0001
1000
,
0000
0000
0100
0010
,
0000
0001
0010
0100
,
1000
0001
2000
3000
,
0001
0001
0100
0100
,
0010
0010
2000
3000
,
0001
0000
0100
0000
,
0010
0000
1000
0000
,
0001
0001
0001
0000
,
1000
1000
1000
0000
,
0001
0000
0010
0000
,
0100
0000
1000
0000
,
0010
0010
0100
0100
,
0002
0000
0003
1000
,
0001
0000
0001
0010
,
0100
0000
0100
1000
,
0001
0001
1000
1000
,
0020
0030
0100
0100
,
0001
0000
0001
0010
,
0100
0000
0100
1000
,
0001
0001
0100
0100
,
0010
0010
1000
1000
,
0000
0001
0010
0100
,
0000
1000
0010
0100
,
0000
0101
0000
1100
,
0000
0011
0000
1010
,
0000
1000
0100
0010
,
0000
0001
0100
0010
,
1000
1000
0001
0001
,
1000
0000
0010
0000
,
0100
0000
0001
0000
,
1000
1000
1000
0000
,
0001
0001
0001
0000
,
1000
0000
0100
0000
,
0010
0000
0001
0000
,
1000
1000
0001
0001
,
1001
0000
0000
0000
;

//---------------dance-single - ----------------
#NOTEDATA:;
#CHARTNAME:;
#STEPSTYPE:dance-single;
#DESCRIPTION:;
#CHARTSTYLE:;
#DIFFICULTY:Medium;
#METER:5;
#RADARVALUES:0.358799,0.347370,0.040510,0.324077,0.015191,248.000000,244.000000,4.000000,32.000000,0.000000,0.000000,0.000000,0.000000,0.000000,0.358799,0.347370,0.040510,0.324077,0.015191,248.000000,244.000000,4.000000,32.000000,0.000000,0.000000,0.000000,0.000000,0.000000;
#CREDIT:;
#NOTES:
0000
0000
0000
0000
,
1000
0000
0100
0010
0100
0000
0010
0001
,
0000
0000
0100
0010
0100
0000
0010
1000
,
0002
0103
2000
3100
,
0002
0000
0013
0000
2000
0000
3010
0001
,
1000
0000
0010
0100
0010
0000
0100
0001
,
0000
0000
0010
0100
0010
0010
0100
0000
,
1000
0000
0000
1000
0000
0000
1000
0000
0002
0000
0000
0000
0103
0000
0000
0000
,
0110
0000
0010
0000
1000
0001
0001
0000
,
1000
0000
0001
0000
0010
0100
0100
0000
,
0010
0001
0010
0000
0001
0100
0001
0000
,
0100
1000
0100
0000
1000
0010
1000
0000
,
0010
0000
0001
0000
1000
0100
0100
0000
,
1000
0000
0001
0000
0010
0001
0001
0000
,
1000
0010
0100
0000
0010
0100
0001
0000
,
1000
0100
0001
0100
2000
0000
3001
0000
,
2000
3020
0230
0302
,
0203
0320
2030
3001
,
1000
0100
0000
0100
0000
0010
0000
0010
,
0000
0001
0000
0001
0000
1000
0001
1000
,
0000
0001
0000
0001
0000
0100
0000
0100
,
0000
0010
0000
0010
0000
1000
0001
1000
,
0000
0100
0000
0100
0000
0010
0000
0010
,
0000
0001
0000
0001
0000
0100
0010
0100
,
0000
0001
0000
0001
0000
0010
0000
0010
,
0000
0100
0100
0100
0200
0000
1300
0000
,
1001
0000
1000
0000
0010
0000
0100
0001
,
0100
0000
0001
0000
0010
0000
0100
1000
,
0200
2300
3020
0230
,
0302
0000
1003
0000
0010
0100
0010
0000
,
1000
0000
0100
0000
0010
0000
0001
0100
,
0001
0000
0010
0000
0100
0000
1000
0001
,
0000
2000
0000
3020
0000
0230
0000
0301
,
0000
0000
1000
0000
0100
0000
0010
0000
0001
0000
0000
0001
0000
0000
0001
0000
,
1000
0000
0010
0100
0010
0000
1000
0001
,
0000
0000
0010
0100
0010
0000
0001
1000
,
0002
0100
0103
0000
0020
1000
1030
0000
,
0002
0010
0013
0000
0200
1000
1300
0000
,
1001
0000
1000
0010
1000
0000
0010
0100
,
0000
0000
0001
0010
0001
0001
1000
0000
,
0001
0000
0000
0001
0000
0000
0001
0000
0200
0000
0000
0000
0310
0000
0000
0000
,
1000
0100
1000
0000
0100
0001
0100
0000
,
0001
0010
0001
0000
0010
1000
0010
0000
,
1000
0001
0001
0000
0100
0010
0010
0000
,
1000
0001
0001
0000
0010
0100
0100
0000
,
0001
0100
0001
0000
0100
1000
0100
0000
,
1000
0010
1000
0000
0010
0001
0010
0000
,
0002
0203
0320
1030
,
2002
0000
0000
0000
,
3003
0000
0000
0000
;

//---------------dance-double - ----------------
#NOTEDATA:;
#CHARTNAME:;
#STEPSTYPE:dance-double;
#DESCRIPTION:;
#CHARTSTYLE:;
#DIFFICULTY:Hard;
#METER:6;
#RADARVALUES:0.376161,0.446618,0.243058,0.263312,0.035446,260.000000,236.000000,24.000000,26.000000,0.000000,0.000000,0.000000,0.000000,0.000000,0.376161,0.446618,0.243058,0.263312,0.035446,260.000000,236.000000,24.000000,26.000000,0.000000,0.000000,0.000000,0.000000,0.000000;
#CREDIT:;
#NOTES:
// measure 0
00000000
00000000
00000000
00000000
,  // measure 1
10000000
00000000
00100000
00000000
01000000
00000000
00001000
00010000
,  // measure 2
00001000
00000000
00000010
00000000
00000001
00000000
00001000
00000001
,  // measure 3
00002000
00003010
00000002
00000013
,  // measure 4
00002000
00000000
00003100
00000000
00000002
00000000
00000103
00001000
,  // measure 5
00000001
00000000
00000100
00000000
00001000
00000000
00000100
00000010
,  // measure 6
00000100
00000000
00000010
00000000
00010000
00001000
00010000
00000000
,  // measure 7
01010000
10100000
00110000
11000000
,  // measure 8
20010000
00000000
30100000
00000000
10000000
00100000
00020000
00000000
,  // measure 9
00130000
00000000
01000000
00000000
00010000
10000000
10010000
00000000
,  // measure 10
00010000
00100000
00001000
00010000
,  // measure 11
00000100
00000000
00001000
00000000
00000001
00000100
00001000
00000100
,  // measure 12
00000002
00000000
00000013
00000000
00000100
00001000
00002000
00000000
,  // measure 13
00000010
00000000
00003001
00000000
00001000
00000001
00001001
00000000
,  // measure 14
00000001
00000010
00001000
00010000
,  // measure 15
01000000
10000000
00010000
10000000
00200000
00000000
01300000
00000000
,  // measure 16
00020000
00230000
00302000
00023000
,  // measure 17
00030200
00001300
00001010
00010100
,  // measure 18
00000000
00001000
00000000
00001000
00000000
00100000
00000000
00100000
,  // measure 19
00000000
00010000
00000000
00010000
00000000
10000000
00010000
10000000
,  // measure 20
00000000
00100000
00000000
00100000
00000000
01000000
00000000
01000000
,  // measure 21
00000000
00001000
00000000
00001000
00000000
00010000
00000100
00001000
,  // measure 22
00000000
00000001
00000000
00000100
00000000
00001000
00000000
00000100
,  // measure 23
00000000
00000010
00000000
00010000
00000000
00001000
00100000
00010000
,  // measure 24
00000000
10000000
00000000
00100000
00000000
00010000
00000000
00001000
,  // measure 25
00000000
00000100
00000100
00000100
00000100
00000000
00000000
00000000
,  // measure 26
00000010
00000000
00001000
00000000
00000000
00001000
00000000
00000000
00001000
00000000
00000000
00000000
00010100
00000000
00000000
00000000
,  // measure 27
00100000
00000000
00010000
00000000
00000000
00010000
00000000
00000000
00010000
00000000
00000000
00000000
01001000
00000000
00000000
00000000
,  // measure 28
02000000
03200000
20300000
30020000
,  // measure 29
00230000
00000000
00301000
00000000
00010000
00000100
00001000
00000001
,  // measure 30
00000100
00000000
00000010
00000000
00000000
00000010
00000000
00000000
00000010
00000000
00000000
00000000
00011000
00000000
00000000
00000000
,  // measure 31
00100000
00000000
01000000
00000000
00000000
01000000
00000000
00000000
01000000
00000000
00000000
00000000
00011000
00000000
00000000
00000000
,  // measure 32
00000000
00000020
00000000
00000032
00000000
00000203
00000000
00000310
,  // measure 33
00000000
00000000
00001000
00000000
00000100
00000000
00010000
00000000
00001000
00000000
00000000
00001000
00000000
00000000
00001000
00000000
,  // measure 34
00100000
00000000
00010000
00000000
01000000
00000000
00100000
10000000
,  // measure 35
00010000
00000000
00100000
00000000
00001000
00000000
00010000
00000100
,  // measure 36
00001000
00000010
00001010
00000000
00000100
00000001
00000101
00000000
,  // measure 37
00010000
00001000
00011000
00000000
00100000
00010000
00110000
00000000
,  // measure 38
10010000
00000000
10000000
00000000
00100000
00000000
00010000
00001000
,  // measure 39
00000100
00000000
00000010
00000000
00001000
00000001
00001000
00000001
,  // measure 40
00000010
00000000
00000000
00000010
00000000
00000000
00000010
00000000
00001100
00000000
00000000
00000000
00000101
00000000
00000000
00000000
,  // measure 41
00001001
00000000
00000001
00000000
00001000
00000010
00010000
00000100
,  // measure 42
00001000
00000000
00000001
00000000
00001000
00000010
00000001
00000010
,  // measure 43
00010000
00000000
00001000
00100000
00020000
00000000
10030000
00000000
,  // measure 44
00100000
01000000
00100000
00000000
10000000
01000000
00010000
01000000
,  // measure 45
20000000
00000000
30010000
00000000
10000000
00100000
00010000
00100000
,  // measure 46
01000000
00000000
00001000
00000000
00010000
00000100
00001000
00000010
,  // measure 47
00000100
00000000
00000000
00000100
00000000
00000000
00000100
00000000
00000011
00000000
00000000
00000000
00001010
00000000
00000000
00000000
,  // measure 48
00022000
00000000
00000000
00000000
,  // measure 49
00033000
00000000
00000000
00000000
;
