#TITLE:The Time Is Now;
#SUBTITLE:;
#ARTIST:John Cena & Tha Trademarc;
#TITLETRANSLIT:;
#SUBTITLETRANSLIT:;
#ARTISTTRANSLIT:;
#GENRE:;
#CREDIT:;
#BANNER:The Time Is Now.png;
#BACKGROUND:The Time Is Now-bg.png;
#LYRICSPATH:;
#CDTITLE:;
#MUSIC:The Time Is Now.mp3;
#OFFSET:-0.139906;
#SAMPLESTART:22.114597;
#SAMPLELENGTH:14.020000;
#SELECTABLE:YES;
#BPMS:0.000000=87.028000
;
#STOPS:
;
#BGCHANGES:;
#KEYSOUNDS:;
#ATTACKS:;

//---------------dance-single - ----------------
#NOTES:
     dance-single:
     :
     Hard:
     6:
     0.337888,0.402963,0.146001,0.048667,0.073001,243.000000,228.000000,15.000000,5.000000,0.000000,0.000000,0.337888,0.402963,0.146001,0.048667,0.073001,243.000000,228.000000,15.000000,5.000000,0.000000,0.000000:
0000
0000
0000
0000
,
0000
0000
0000
0000
,
0000
0000
0000
0000
,
0000
0000
0000
0000
,
1000
0100
0010
0100
2000
0000
3001
0000
,
0001
0100
0010
0100
0002
0000
1003
0000
,
1000
0010
0100
0010
2000
0000
3001
0000
,
0001
0010
0100
0010
0002
0000
1003
0000
,
0001
0100
0010
1000
0001
0001
1000
0000
,
0001
0010
0100
1000
0001
0001
1000
0000
,
0001
0100
1000
0100
0001
0001
1000
0000
,
0001
0010
1000
0010
0001
1000
1001
0000
,
0002
0000
1003
0000
0010
0100
0110
0000
,
0100
0001
0010
0100
1100
1000
1001
0000
,
1000
0010
1000
1000
0001
0010
0001
0001
,
1000
0010
0001
0010
0100
0001
1001
0000
,
0011
0000
0010
0000
0000
0000
0100
0000
1000
0000
0001
1000
0000
0000
0001
0000
,
1000
0000
0100
0000
0001
0000
0100
0000
0010
0000
0001
1000
0000
0000
0001
0000
,
0100
0000
0010
0000
1000
0000
0000
0000
0001
0000
0010
0100
0000
0000
1000
0000
,
0001
0000
0100
0000
1000
0000
0100
0000
0010
0000
1000
0001
0000
0000
1000
0000
,
0000
1000
0000
0000
0001
0000
0001
0000
0000
0000
0100
0000
0010
0000
1000
0000
,
0001
0000
0010
0000
1000
0000
0010
0000
0100
0000
1000
0000
0001
0000
0100
0001
,
0000
0000
1000
0000
1010
0000
0010
0000
0100
0001
0000
0001
0000
0000
1000
0000
,
0001
0000
1100
0000
0000
0000
1000
0010
1000
0000
0010
0000
0100
0000
0101
0000
,
0000
0000
0001
0000
0100
0000
1000
0000
0001
0000
0010
0000
1000
0000
0001
0100
,
0000
0000
0001
0000
0010
0000
1000
0000
0001
0000
0001
0000
0100
1000
0000
0000
,
0101
0000
0001
0000
1001
0000
1000
0100
0000
1000
0100
0000
0011
0000
0000
0000
,
0001
0100
0001
0000
0100
0000
1000
0000
0100
0000
0010
0000
1001
0000
0001
1000
,
0001
0100
0010
1000
0001
0001
1000
0000
,
0001
0010
0100
1000
0001
0001
1000
0000
,
0001
0100
1000
0100
0001
0001
1000
0000
,
0001
0010
1000
0010
0001
1000
0000
0000
,
0001
0100
1000
0100
0010
1000
0001
0000
,
1000
0100
0001
0100
0010
0001
1000
0000
,
0001
0100
1000
0010
1000
0100
0001
0000
,
1000
0100
0001
0010
0001
0100
1001
0000
,
0110
0000
0000
0000
;

//---------------dance-single - ----------------
#NOTES:
     dance-single:
     :
     Easy:
     2:
     0.175201,0.175201,0.009733,0.116801,0.000000,126.000000,125.000000,1.000000,12.000000,0.000000,0.000000,0.175201,0.175201,0.009733,0.116801,0.000000,126.000000,125.000000,1.000000,12.000000,0.000000,0.000000:
0000
0000
0000
0000
,
0000
0000
0000
0000
,
0000
0000
0000
0000
,
0000
0000
0000
0000
,
1000
0010
2000
3000
,
0001
0010
0002
0003
,
1000
0100
2000
3000
,
0001
0100
0002
0003
,
1000
0001
1000
0001
,
0100
0010
0100
0010
,
1000
0001
1000
0001
,
0010
0100
0010
0100
,
0010
0001
0100
0001
,
0010
0100
1000
0010
,
1000
0100
0001
0100
,
1000
0010
0100
0001
,
1000
0010
0001
0010
,
1000
0100
0010
0001
,
1000
0100
0001
0100
,
1000
0010
0100
0001
,
1000
0010
0100
0001
,
0010
0001
0100
0010
,
1000
0100
0001
0100
,
1000
0010
0100
0001
,
0020
0130
2000
3001
,
0200
0310
2000
3001
,
0020
0130
2000
3010
,
0002
0013
2000
3001
,
1000
0001
1000
0001
,
0100
0010
0100
0010
,
1000
0001
1000
0001
,
0010
0100
0010
0100
,
0001
0010
1000
1000
,
0001
0100
1000
1000
,
0001
0100
1000
1000
,
0001
0010
1000
1000
,
1001
0000
0000
0000
;

//---------------dance-single - ----------------
#NOTES:
     dance-single:
     :
     Medium:
     4:
     0.232211,0.262802,0.048667,0.165468,0.000000,167.000000,162.000000,5.000000,17.000000,0.000000,0.000000,0.232211,0.262802,0.048667,0.165468,0.000000,167.000000,162.000000,5.000000,17.000000,0.000000,0.000000:
0000
0000
0000
0000
,
0000
0000
0000
0000
,
0000
0000
0000
0000
,
0000
0000
0000
0000
,
1000
0000
0010
0100
0020
0000
1030
0000
,
0001
0000
0010
0100
0020
0000
0031
0000
,
1000
0000
0010
0100
0002
0000
1003
0000
,
0001
0000
0010
0100
2000
0000
3001
0000
,
1000
0000
0010
0000
0100
0001
0100
0000
,
0001
0000
0010
0000
0100
1000
0100
0000
,
1000
0000
0010
0000
0100
0001
1000
0000
,
0001
0000
0010
0000
0100
1000
0001
0000
,
1000
0010
0100
0100
,
0001
0000
0010
0000
0100
1000
1001
0000
,
2000
3010
0100
0001
,
0020
0000
0130
0000
1000
0001
1001
0000
,
0002
0000
0013
0000
0100
0100
0100
0000
,
1000
0010
0100
0000
0001
0001
0001
0000
,
2000
0000
3100
0000
0001
0100
1000
0000
,
0002
0000
0103
0000
1000
0100
0001
0000
,
0010
0010
0100
0100
0000
1000
0001
1000
,
0001
0000
0100
0000
0010
1000
0001
1001
,
0000
0100
0100
0000
0010
1000
0001
0000
,
0010
0001
0100
0000
0010
1000
0100
1100
,
2000
3010
0002
0013
,
2000
3100
0002
0103
,
2000
3010
0002
0103
,
2000
0000
3010
0000
0002
0000
0103
1000
,
0001
0000
0100
0000
0010
1000
0010
0000
,
1000
0000
0100
0000
0010
0001
0010
0000
,
0001
0000
0100
0000
0010
1000
0001
0000
,
1000
0000
0100
0000
0010
0001
1000
0000
,
0001
0000
0100
0000
1000
0100
1000
0000
,
0100
0000
0010
0000
1000
0001
1000
0000
,
0001
0000
0010
0000
1000
0010
1000
0000
,
0010
0000
0001
0000
1000
0001
1000
0000
,
1001
0000
0000
0000
;

//---------------dance-double - ----------------
#NOTES:
     dance-double:
     :
     Hard:
     8:
     0.446346,0.473043,0.097334,0.019467,0.637538,321.000000,311.000000,10.000000,2.000000,0.000000,0.000000,0.446346,0.473043,0.097334,0.019467,0.637538,321.000000,311.000000,10.000000,2.000000,0.000000,0.000000:
// measure 0
00000000
00000000
00000000
00000000
,  // measure 1
00000000
00000000
00000000
00000000
,  // measure 2
00000000
00000000
00000000
00000000
,  // measure 3
00000000
00000000
00000000
00000000
,  // measure 4
00000001
00000000
00000010
00000000
00000100
00001000
00000000
00001000
00000020
00000000
00000000
00000000
00010030
00000000
00000000
00000000
,  // measure 5
00000100
00000000
00010000
00000000
00001000
00100000
00000000
00100000
00000000
00010000
10000000
00000000
10010000
00000000
00000000
00000000
,  // measure 6
10000000
00000000
01000000
00000000
00100000
00010000
00000000
00010000
02000000
00000000
00000000
00000000
03001000
00000000
00000000
00000000
,  // measure 7
00100000
00000000
00001000
00000000
00010000
00000100
00000000
00000100
00000000
00001000
00000001
00000000
00001001
00000000
00000001
00000000
,  // measure 8
00000000
00000100
00000001
00000000
00000100
00000010
00000000
00001000
00000010
00000000
00001000
00000100
00000000
00000100
00000000
00000100
,  // measure 9
00000000
00010000
00000100
00000000
00010000
00001000
00000000
00100000
00001000
00000000
01000000
00010000
00000000
00010000
00000000
00010000
,  // measure 10
10000000
00100000
10000000
00000000
00100000
00000000
00010000
00000000
00001000
00000000
00010000
00100000
00000000
01000000
00000000
01000000
,  // measure 11
00000000
00010000
00100000
00000000
00001000
00010000
00000000
00000100
00001000
00000000
00000001
00001000
00000000
00000000
00000010
00000000
,  // measure 12
00001000
00000001
00001000
00000000
00000010
00000000
00000100
00000000
00000001
00000000
00000001
00000000
00001000
00000100
00000000
00000000
,  // measure 13
00010000
00001000
00010000
00000000
00001000
00000000
00100000
00010000
00100000
00000000
00010000
01000000
00010000
10000000
00000000
00000000
,  // measure 14
00010000
00000000
00010000
00000000
00100000
01000000
00100000
00000000
00001000
00100000
00001000
00100000
00000000
00000100
00010000
00000000
,  // measure 15
00001000
00000000
00000010
00000001
00000000
00000100
00000000
00000010
00000000
00001000
00000000
00000001
00001000
00000000
00000000
00000001
,  // measure 16
00000100
00000000
00000010
00000000
00000000
00001000
00000100
00001000
00000010
00010000
00000010
00001000
00000000
00000000
00000100
00010000
,  // measure 17
00000100
00000000
01000000
00001000
01000000
00000000
00100000
00000000
10000000
01000000
00100000
00010000
00000000
00000000
10000000
00010000
,  // measure 18
10000000
00000000
00100000
00000000
00010000
00100000
00000000
00000000
10000000
00000000
01000000
00010000
00000000
00000000
00001000
00000000
,  // measure 19
00000100
00000001
00000100
00000000
00000001
00000000
00000010
00000000
00000100
00001000
00000100
00001000
00000000
00000000
00000010
00000000
,  // measure 20
00000010
00000100
00000000
00000000
00000001
00000000
00000001
00000000
00000000
00001000
00000100
00000000
00000010
00000000
00000010
00000000
,  // measure 21
00000001
00000100
00000001
00001000
00000010
00001000
00000100
00010000
00000100
00100000
00001000
00100000
00010000
00000000
10010000
00000000
,  // measure 22
00000000
10000000
00100000
00000000
01010000
00000000
00010000
00000000
10000000
01000000
00000000
00110000
00000000
00000000
00001000
00010000
,  // measure 23
00000100
00000000
00001010
00000000
00000000
00000100
00000001
00000010
00000100
00000000
00001000
00000000
00000010
00000000
00010100
00000000
,  // measure 24
00000000
00001000
00100000
00000000
00010000
00000000
01000000
10000000
00000000
01000000
00000000
00001000
00010000
00000000
00000100
00000010
,  // measure 25
00000000
00000001
00000100
00000000
00001000
00000000
00000100
00000000
00000010
00000000
00000010
00000000
00010000
00001000
00100000
00000000
,  // measure 26
00010000
00000000
00010000
00000000
01000000
00000000
10000000
01000000
00000000
10000000
01000000
00000000
10100000
00000000
00000000
00000000
,  // measure 27
10000000
01000000
00010000
00000000
00001000
00000000
00000100
00000001
00001000
00000000
00000001
00000000
00001001
00000000
00000001
00001000
,  // measure 28
00000001
00000100
00000001
00000000
00000100
00000010
00000000
00001000
00000010
00000000
00001000
00000100
00000000
00000100
00000000
00000100
,  // measure 29
00000000
00010000
00000100
00000000
00010000
00001000
00000000
00100000
00001000
00000000
01000000
00010000
00000000
00010000
00000000
00010000
,  // measure 30
10000000
00100000
10000000
00000000
00100000
00000000
00010000
00000000
00001000
00000000
00010000
00100000
00000000
01000000
00000000
01000000
,  // measure 31
00000000
00010000
00100000
00000000
00001000
00010000
00000000
00000100
00001000
00000000
00000001
00001000
00000000
00001000
00000000
00001000
,  // measure 32
00000000
00000001
00000100
00000000
00001000
00000100
00000000
00000010
00010000
00000000
00001000
01000000
00000000
01000000
00000000
01000000
,  // measure 33
00000000
00100000
10000000
00000000
01000000
00010000
00000000
00001000
00000010
00000000
00000001
00000100
00000000
00000100
00000000
00000100
,  // measure 34
00000001
00000100
00001000
00000000
00000100
00000000
00000010
00010000
00001000
00000000
00100000
00010000
00000000
00010000
00000000
00010000
,  // measure 35
00000000
10000000
00100000
00000000
00010000
00001000
00000000
00000010
00000001
00000000
00001000
00000001
00000000
00000100
00000000
00000010
,  // measure 36
00000110
00000000
00000000
00000000
;
