#VERSION:0.83;
#TITLE:田んぼの田;
#SUBTITLE:;
#ARTIST:good-cool feat. すわひでお;
#TITLETRANSLIT:Tanbo no ta;
#SUBTITLETRANSLIT:;
#ARTISTTRANSLIT:good-cool feat. Hideo Suwa;
#GENRE:;
#ORIGIN:;
#CREDIT:;
#BANNER:Tanbo no ta.png;
#BACKGROUND:Tanbo no ta-bg.png;
#PREVIEWVID:;
#JACKET:Tanbo no ta-jacket.png;
#CDIMAGE:;
#DISCIMAGE:;
#LYRICSPATH:;
#CDTITLE:;
#MUSIC:Tanbo no ta.mp3;
#OFFSET:-0.089000;
#SAMPLESTART:48.034576;
#SAMPLELENGTH:17.219999;
#SELECTABLE:YES;
#BPMS:0.000=125.000,
196.000=250.000;
#STOPS:;
#DELAYS:;
#WARPS:;
#TIMESIGNATURES:0.000=4=4;
#TICKCOUNTS:0.000=4;
#COMBOS:0.000=1;
#SPEEDS:0.000=1.000=0.000=0;
#SCROLLS:0.000=1.000;
#FAKES:;
#LABELS:0.000=Song Start;
#BGCHANGES:;
#KEYSOUNDS:;
#ATTACKS:
;

//---------------dance-single - ----------------
#NOTEDATA:;
#CHARTNAME:;
#STEPSTYPE:dance-single;
#DESCRIPTION:;
#CHARTSTYLE:;
#DIFFICULTY:Hard;
#METER:8;
#RADARVALUES:0.652239,0.772653,0.585343,0.306179,0.382724,507.000000,442.000000,65.000000,34.000000,0.000000,0.000000,0.000000,0.000000,0.000000,0.652239,0.772653,0.585343,0.306179,0.382724,507.000000,442.000000,65.000000,34.000000,0.000000,0.000000,0.000000,0.000000,0.000000;
#CREDIT:;
#NOTES:
0000
0000
0000
0000
,
1000
0000
0010
0100
0000
0010
0100
0000
0001
0000
1000
0000
0001
0000
0000
0000
,
1000
0000
0100
0010
0000
0100
0010
0000
0001
0000
1000
0000
0010
0000
0100
0000
,
0001
0000
1000
0100
0000
1000
0100
0000
1000
0000
0010
0000
0100
0000
0000
0000
,
1001
0000
1001
0000
0100
0000
0000
0000
0001
0000
0010
0000
0100
1000
0000
0000
,
0001
0000
1000
0010
0000
1000
0001
0000
1000
0000
0010
0000
0100
0000
0000
0000
,
0001
0000
1000
0100
0000
1000
0010
0000
1000
0000
0010
0000
0001
0000
0010
0000
,
0100
0000
0001
0010
0000
0001
1000
0000
0010
0000
0100
0000
0001
0000
0000
0000
,
1001
0000
1001
0000
0100
0000
0000
0000
0001
0010
0001
0000
2000
0000
3100
1000
,
0001
0000
0001
0000
0100
0010
0000
0010
0000
0000
1000
0000
0001
0000
1000
0000
,
0001
0000
0001
0000
0010
0100
0000
0100
0000
0000
1000
0000
0001
0000
1000
0000
,
1010
1000
1001
0000
0011
0001
1001
1000
,
0000
0000
0001
0000
0100
0010
0000
1000
0000
1000
0000
1000
0001
0000
1001
0000
,
0001
0000
0010
0000
0100
1000
0000
1000
0000
0000
0001
0000
1000
0000
0001
0000
,
1000
0000
0010
0000
0100
0001
0000
0001
0000
0000
1000
0000
0001
0000
0100
0000
,
1010
1000
1001
0000
0011
0001
1001
1000
,
0000
0000
0001
0000
0100
0010
0000
1000
0000
0001
0000
0001
1000
0000
0100
0000
,
1000
0000
1000
0000
0010
0000
0100
0001
0000
0100
0002
0000
0000
0000
1003
0000
,
0001
0000
0001
0000
0010
0100
0000
0100
1000
0000
0001
0000
1001
0000
0001
0000
,
1000
0000
1000
0000
0100
0000
0010
0001
0000
0010
0002
0000
0000
0000
1003
0000
,
0001
0000
0001
0000
0100
0010
0000
0010
1000
0000
1000
0000
0001
0000
0001
0000
,
1000
0000
0100
0000
0001
0000
0100
0010
0000
0010
0200
0000
0000
0000
1300
0000
,
0001
0000
0100
0000
1000
0100
0000
0100
0010
0000
1000
0000
0002
0000
1003
0000
,
1100
0000
1100
0000
1000
0001
0000
0001
0010
0000
0100
0000
1000
0000
0001
0000
,
0101
0000
0102
0000
0013
0000
0000
0000
1100
0000
0000
0101
0000
0000
1001
0000
,
1020
0000
0000
0000
0130
0000
0001
0000
1000
0000
1000
0000
0000
0000
0001
0010
,
0001
0010
1000
0010
0100
0100
1000
0000
,
1010
1010
0000
0100
0011
0011
0000
0010
,
1000
0000
0100
0000
0001
0000
1000
0010
0000
0010
0001
0000
1001
0000
0000
0000
,
1100
0000
1100
0000
0101
0000
0101
0000
0001
0000
1000
0000
0000
0000
0001
0100
,
0001
0100
1000
0100
0010
0010
1000
0000
,
1100
1100
0000
0010
0101
0101
0000
0100
,
1000
0000
0010
0000
0001
1000
0000
0100
0000
0100
0001
0000
1001
0000
0000
0000
,
0022
0000
0033
0010
0100
0000
1000
0100
0000
0010
0000
0001
2000
0000
3000
0000
,
0101
0000
0000
1100
0000
0000
1001
0000
1000
0010
1000
0000
0001
0010
0001
0000
,
0101
0000
0000
2020
0000
0000
3030
0000
1000
0001
0000
0000
2002
0000
3003
0000
,
1010
0000
0000
0011
0000
0000
1001
0000
0001
0010
0100
0000
1000
0000
0001
0000
,
0100
0000
0010
1000
0000
1010
0000
0010
1000
0010
0100
0001
0100
0010
1000
0000
,
1100
0000
0000
0011
0000
0000
1001
0000
1000
0100
1000
0000
0001
0100
0001
0000
,
1000
0000
0010
0100
0000
0100
0000
0200
0000
0000
0301
0000
1000
0000
0001
0000
,
0021
0000
0000
0000
2030
0000
0000
3002
0000
0000
0103
1000
0001
0000
1000
0000
,
0000
0000
0001
0100
0001
0000
0001
0000
0100
0000
0100
0000
0010
0000
1000
0000
,
0002
0000
0000
0013
0100
0000
2000
0000
0010
0000
0000
0000
0001
0000
0000
0000
,
3100
1000
1000
0010
0010
0001
0001
0010
,
1000
0000
0100
0000
0001
0000
0100
0000
1000
0010
1000
0010
0200
0000
0300
0000
,
0001
0020
0000
0000
0130
0000
0000
0000
2001
0000
0000
0000
0010
0000
0010
0000
,
0100
0100
0010
0010
0001
0001
3100
0000
,
1000
0000
0000
1000
0010
0000
0001
0000
0010
0000
0100
0000
0001
0000
1000
0000
,
1100
0000
0000
0011
0000
0000
0101
0000
2010
0000
0001
0000
0100
0000
3100
0000
,
1000
0010
0000
0010
1000
0000
0010
0000
,
0100
0001
0100
0000
0002
0000
1003
0000
,
0001
0000
0010
0100
1000
0001
1000
0000
,
0001
0100
0000
0001
2000
0000
3100
0000
,
1000
0010
0000
0001
0020
0000
0130
0000
,
0001
0010
0000
1000
0020
0000
0130
0000
,
1100
0101
0210
0301
,
1000
0100
0000
0001
0200
0000
0310
0000
,
0001
0100
0000
2010
0000
0001
3001
1000
,
0001
0010
0000
2100
0000
0001
3001
1000
,
0010
0000
0000
0110
0000
0000
1001
0000
,
0001
0010
0100
0010
1000
0010
0001
0100
,
0010
0000
0000
1010
0000
0000
0202
0000
,
0000
0000
0000
0000
,
0000
0000
0000
0000
,
0000
0000
0000
0000
,
0000
0000
0000
0300
,
0003
0000
0000
0000
;

//---------------dance-single - ----------------
#NOTEDATA:;
#CHARTNAME:;
#STEPSTYPE:dance-single;
#DESCRIPTION:;
#CHARTSTYLE:;
#DIFFICULTY:Easy;
#METER:5;
#RADARVALUES:0.340914,0.445761,0.279164,0.171100,0.000000,265.000000,234.000000,31.000000,19.000000,0.000000,0.000000,0.000000,0.000000,0.000000,0.340914,0.445761,0.279164,0.171100,0.000000,265.000000,234.000000,31.000000,19.000000,0.000000,0.000000,0.000000,0.000000,0.000000;
#CREDIT:;
#NOTES:
0000
0000
0000
0000
,
1000
0100
1000
0100
,
0010
0001
0010
0001
,
1000
0010
1000
0010
,
0100
0100
0000
0000
0001
0000
1001
0000
,
0001
0010
0001
1000
,
0010
1000
0001
1000
,
0001
0100
0001
1000
,
0100
0100
0000
0000
1000
0000
1001
0000
,
1000
0010
0100
0001
,
1000
0100
0010
0001
,
1000
1000
0001
0001
,
0100
0000
0010
1000
0001
0000
0000
0000
,
1000
0100
0001
0001
,
0100
1000
0001
0001
,
0100
0010
1000
0001
,
0010
0000
0100
1000
0001
0000
0000
0000
,
1000
0010
1000
1000
,
0001
0010
0001
1001
,
0001
0100
0001
0001
,
1000
0100
0010
0001
,
1000
0010
0100
0100
,
0001
0100
0010
1001
,
2000
3100
0002
0103
,
1000
1000
1000
0000
0101
0000
1100
0000
,
0002
0010
0100
0103
,
0001
0010
0100
1001
,
2000
0010
0100
3100
,
1010
0000
0101
0000
0001
1000
0001
0000
,
0010
0010
0010
0000
0001
0000
1001
0000
,
1000
0010
0100
0001
,
0010
1001
0100
1001
,
1000
0000
0010
0000
0100
0001
1000
0000
,
0002
0010
0100
0103
,
0011
1100
2002
3003
,
1010
0000
0011
0000
1000
0001
1000
0000
,
0100
0010
2002
3003
,
0101
0000
1100
0000
0001
0001
0001
0000
,
1010
0101
1002
0103
,
0001
0000
0010
0100
2000
0000
3001
0000
,
1010
0101
2002
3003
,
1000
0000
0010
0000
0001
0000
0010
0100
,
0020
1030
0002
0013
,
0100
1000
0001
1000
,
0010
0000
0100
0000
0001
1000
0001
0000
,
2000
3100
0002
0103
,
1000
1000
1000
0000
0001
0001
0001
0000
,
1000
0010
0100
0001
,
0011
1100
0101
1010
,
1000
0000
0010
0000
,
0100
0001
0100
0000
,
0001
0000
0010
0000
,
0100
1000
0100
0000
,
1000
0000
0010
0000
,
0100
0001
1000
0000
,
0001
0000
0010
0000
,
0100
1000
0001
0000
,
1000
0000
0000
1000
0000
0000
0000
0000
,
0001
0000
0000
0001
0000
0000
0000
0000
,
0010
0000
0000
0010
0000
0000
0010
0000
,
0100
1000
0001
0100
,
0010
0000
0000
0100
0000
0000
2002
0000
,
0000
0000
0000
0000
,
0000
0000
0000
0000
,
0000
0000
0000
0000
,
0000
0000
0000
3000
,
0003
0000
0000
0000
;

//---------------dance-single - ----------------
#NOTEDATA:;
#CHARTNAME:;
#STEPSTYPE:dance-single;
#DESCRIPTION:;
#CHARTSTYLE:;
#DIFFICULTY:Medium;
#METER:7;
#RADARVALUES:0.486285,0.505196,0.360211,0.279164,0.045026,378.000000,338.000000,40.000000,31.000000,0.000000,0.000000,0.000000,0.000000,0.000000,0.486285,0.505196,0.360211,0.279164,0.045026,378.000000,338.000000,40.000000,31.000000,0.000000,0.000000,0.000000,0.000000,0.000000;
#CREDIT:;
#NOTES:
0000
0000
0000
0000
,
1000
0100
1000
0100
0010
0001
1000
0000
,
0001
0100
1000
0000
1000
0100
0001
0000
,
1000
0100
1000
0100
0010
0001
1000
0000
,
1001
1001
0100
0000
0001
0100
0010
0000
,
1000
0010
0001
0010
0100
0001
1000
0000
,
0001
0010
1000
0000
1000
0010
0001
0000
,
1000
0100
0001
0100
1000
0010
0100
0000
,
1001
1001
0010
0000
1000
0010
0100
0001
,
1000
0100
1000
0100
0010
0000
0001
0000
,
1000
0010
1000
0010
0100
0000
0001
0000
,
0101
0101
1100
1100
,
0001
0010
0100
1000
0001
0000
1001
0000
,
0001
0010
0001
0010
0100
0000
1000
0000
,
0001
0100
0001
0100
0010
0000
1000
0000
,
1010
1010
0011
0011
,
1000
0100
0010
0001
1000
0000
1001
0000
,
1000
0010
1000
0010
0002
0000
0013
0000
,
0100
0001
0100
0001
1000
1000
1000
0000
,
0001
0010
0001
0010
2000
0000
3010
0000
,
0100
1000
0100
1000
0001
0001
1000
1000
,
0001
0100
1000
0100
0020
0000
0130
0000
,
0001
0010
1000
0010
0100
0100
1000
0000
,
2100
0000
3001
0000
1000
0010
0100
0001
,
0010
0010
0010
0000
0011
0000
1010
0000
,
0002
0000
0013
0000
0100
1000
0001
0000
,
0100
0010
0100
0000
0001
1000
0001
0000
,
2100
3001
0102
1003
,
0001
0010
0100
1000
0100
0010
0001
0000
,
1010
0000
0011
0000
1000
0001
1000
0000
,
0001
0100
0010
1000
0010
0100
0001
0000
,
1000
1000
0100
0000
0001
0001
0100
0000
,
1000
0010
0001
0010
0100
0001
1000
0000
,
1002
0000
0103
0000
0001
0100
0010
0000
,
1000
0000
0000
0001
0000
0000
2002
0000
0000
0000
3000
0000
0200
0000
0303
0000
,
0101
0000
0000
2020
0000
0000
0030
0000
3001
0000
0000
0000
1001
0000
0000
0000
,
1100
0000
0000
0011
0000
0000
2002
0000
0000
0000
3000
0000
0200
0000
0303
0000
,
2010
0000
0000
0001
0000
0001
3000
0000
1000
0000
0100
0000
0001
0000
0100
0000
,
0010
0000
0000
0001
0000
0000
2002
0000
0000
0000
0003
0000
0020
0000
3030
0000
,
0102
0000
0000
1000
0000
1000
0000
2000
0000
0000
3003
0000
1001
0000
0000
0000
,
2000
3020
0032
0203
,
1300
0000
0010
0100
0010
0100
0001
1000
,
0001
0000
0010
0100
2000
0000
3001
0000
,
1000
1000
0010
0010
0100
0100
0001
0001
,
1000
0100
0010
0001
0010
0100
1000
0000
,
0102
0000
1003
0000
2100
0000
3001
0001
,
0100
0100
0010
0010
1000
1000
0001
0000
,
1000
0100
0010
0001
0010
0100
1000
0001
,
0100
0000
0000
0100
0000
0000
0100
0000
0010
0000
1000
0000
0001
0000
0100
0000
,
0001
0010
1000
0010
,
0001
0000
0100
0000
0010
1000
0001
0000
,
1000
0100
0001
0100
,
1000
0000
0010
0000
0100
0001
1000
0000
,
0001
0100
1000
0010
,
1000
0000
0100
0000
0001
0010
0100
0000
,
1000
0100
0001
0010
,
0001
0000
0100
0000
1000
0010
0100
0000
,
0001
0010
0000
0001
0000
0000
0000
0000
,
1000
0010
0000
1000
0000
0000
0000
0000
,
1010
0000
0000
0101
0000
0000
1001
0000
,
0001
0010
1000
0001
,
0100
0000
0000
0110
0000
0000
2002
0000
,
0000
0000
0000
0000
,
0000
0000
0000
0000
,
0000
0000
0000
0000
,
0000
0000
0000
3000
,
0003
0000
0000
0000
;

//---------------dance-double - ----------------
#NOTEDATA:;
#CHARTNAME:;
#STEPSTYPE:dance-double;
#DESCRIPTION:;
#CHARTSTYLE:;
#DIFFICULTY:Hard;
#METER:8;
#RADARVALUES:0.644521,0.713218,0.531311,0.270158,0.382724,501.000000,442.000000,59.000000,30.000000,0.000000,0.000000,0.000000,0.000000,0.000000,0.644521,0.713218,0.531311,0.270158,0.382724,501.000000,442.000000,59.000000,30.000000,0.000000,0.000000,0.000000,0.000000,0.000000;
#CREDIT:;
#NOTES:
// measure 0
00000000
00000000
00000000
00000000
,  // measure 1
00001000
00000000
00100000
00010000
00000000
00100000
00010000
00000000
01000000
00000000
00010000
00000000
10000000
00000000
00000000
00000000
,  // measure 2
00100000
00000000
01000000
00010000
00000000
01000000
00010000
00000000
00100000
00000000
00001000
00000000
00010000
00000000
00000100
00000000
,  // measure 3
00001000
00000000
00000010
00001000
00000000
00000010
00001000
00000000
00000010
00000000
00010000
00000000
00000100
00000000
00000000
00000000
,  // measure 4
00001100
00000000
00002100
00000000
00003001
00000000
00000000
00000000
00001000
00000000
00000010
00000000
00010000
00001000
00000000
00000000
,  // measure 5
00010000
00000000
00000100
00001000
00000000
00000100
00001000
00000000
00000010
00000000
00001000
00000000
00000001
00000000
00000000
00000000
,  // measure 6
00000100
00000000
00000010
00001000
00000000
00000010
00001000
00000000
00000100
00000000
00010000
00000000
00001000
00000000
00100000
00000000
,  // measure 7
00010000
00000000
01000000
00010000
00000000
01000000
00010000
00000000
01000000
00000000
00001000
00000000
00100000
00000000
00000000
00000000
,  // measure 8
00110000
00000000
00120000
00000000
10030000
00000000
00000000
00000000
00010000
01000000
00001000
00000000
00010000
00000000
00000100
00001000
,  // measure 9
00000001
00000000
00000100
00000000
00000010
00001000
00000000
00001000
00000000
00000000
00000010
00000000
00000100
00000000
00000001
00000000
,  // measure 10
00010000
00000000
00001000
00000000
00100000
00010000
00000000
00010000
00000000
00000000
10000000
00000000
00100000
00000000
01000000
00000000
,  // measure 11
01010000
00010000
10010000
00000000
11000000
10000000
10010000
00010000
,  // measure 12
00000000
00000000
00100000
00000000
00001000
00010000
00000000
00000010
00000000
00000100
00000000
00000100
00000001
00000000
00001001
00000000
,  // measure 13
00001000
00000000
00000100
00000000
00010000
00001000
00000000
00001000
00000000
00000000
00100000
00000000
00010000
00000000
01000000
00000000
,  // measure 14
10000000
00000000
01000000
00000000
00100000
10000000
00000000
10000000
00000000
00000000
00010000
00000000
00100000
00000000
00001000
00000000
,  // measure 15
00011000
00010000
00010100
00000000
00001100
00001000
00001010
00000010
,  // measure 16
00000000
00000000
00000100
00000000
00000001
00001000
00000000
00000100
00000000
00000010
00000000
00000010
00000001
00000000
00001000
00000000
,  // measure 17
00001001
00000000
00000001
00000000
00000100
00000000
00001000
00000100
00000000
00001000
00000200
00000000
00000000
00000000
00000310
00000000
,  // measure 18
00010000
00000000
00001000
00000000
00100000
00010000
00000000
10000000
01000000
00000000
10000000
00000000
00020000
00000000
01030000
00000000
,  // measure 19
00100000
00000000
00100000
00000000
10000000
00000000
00001000
00010000
00000000
00000100
00002000
00000000
00000000
00000000
00003001
00000000
,  // measure 20
00001000
00000000
00001000
00000000
00000010
00000100
00000000
00000100
00000001
00000000
00000001
00000000
00010000
00000000
00010000
00000000
,  // measure 21
00001000
00000000
00001000
00000000
01000000
00000000
00100000
10000000
00000000
10000000
00020000
00000000
00000000
00000000
00130000
00000000
,  // measure 22
00001000
00000000
00001000
00000000
00010000
00000010
00000000
00000010
00000100
00000000
00000001
00000000
00002000
00000000
00003001
00000000
,  // measure 23
00001001
00000000
00001001
00000000
00000001
00000010
00000000
00000010
00001000
00000000
00010000
00000000
00001000
00000000
00000010
00000000
,  // measure 24
00000011
00000000
00000012
00000000
00000103
00000000
00000000
00000000
00001010
00000000
00000000
00000011
00000000
00000000
00001001
00000000
,  // measure 25
00000201
00000000
00000000
00000000
00001300
00000000
00010000
00000000
00100000
00000000
00100000
00000000
00000000
00000000
01000000
00001000
,  // measure 26
01000000
00100000
10000000
00001000
00010000
00010000
00000100
00000000
,  // measure 27
00001010
00001010
00000000
00000100
00000011
00000011
00000000
00000010
,  // measure 28
00001000
00000000
00000001
00000000
00000100
00000000
00001000
00010000
00000000
00010000
01000000
00000000
10000000
00000000
00000000
00000000
,  // measure 29
10100000
00000000
10100000
00000000
00110000
00000000
00110000
00000000
10000000
00000000
00010000
00000000
00000000
00000000
01000000
10000000
,  // measure 30
01000000
00010000
00100000
00001000
00010000
00010000
00000010
00000000
,  // measure 31
00000101
00000101
00000000
00000010
00001100
00001100
00000000
00000100
,  // measure 32
00000010
00000000
00010000
00000000
00001000
00000100
00000000
00000001
00000000
00000001
00001000
00000000
00001001
00000000
00000000
00000000
,  // measure 33
00000022
00000000
00000033
00000010
00000100
00000000
00001000
00000100
00000000
00000010
00000000
00000001
00020000
00000000
00030000
00000000
,  // measure 34
00101000
00000000
00000000
11000000
00000000
00000000
10010000
00000000
10000000
00100000
01000000
00000000
00010000
01000000
00100000
00000000
,  // measure 35
10100000
00000000
00000000
02020000
00000000
00000000
03030000
00000000
00100000
00001000
00000000
00000000
00020200
00000000
00030300
00000000
,  // measure 36
00001010
00000000
00000000
00000101
00000000
00000000
00001001
00000000
00000001
00000010
00000100
00000000
00001000
00000100
00000010
00000000
,  // measure 37
00000001
00000000
00000100
00001000
00000000
00000100
00000000
00000010
00010000
00000000
00001000
00000000
00100000
00000000
00010000
00000000
,  // measure 38
10100000
00000000
00000000
01010000
00000000
00000000
10010000
00000000
00010000
00100000
01000000
00000000
10000000
00001000
00010000
00000000
,  // measure 39
00000100
00000000
00001000
00000001
00000000
00000001
00000000
00000002
00000000
00000000
00000103
00000000
00000010
00000000
00001000
00000000
,  // measure 40
00000001
00000010
00000000
00000001
00000010
00000000
00000100
00001000
00000000
00000100
00001000
00000000
00000010
00000000
00010000
00000000
,  // measure 41
00000000
00001000
00001000
01000000
01000000
10000000
10000000
01000000
,  // measure 42
00100000
00000000
00000000
00100000
10000000
00000000
00002000
00000000
00010000
00000000
00000000
00000000
00013000
00000000
00000000
00000000
,  // measure 43
00000010
00000100
00000100
00000001
00000001
00000010
00000010
00001000
,  // measure 44
00000010
00000100
00000000
00000010
00000100
00000000
00001000
00000000
00000001
00000000
00000100
00000000
00001000
00000000
00000000
00000000
,  // measure 45
00002100
00000000
00003100
00000000
00000102
00000000
00001003
00001000
,  // measure 46
00000001
00000001
00010000
00010000
00001000
00001000
10000000
00000000
,  // measure 47
00010000
00000000
00000000
00010000
01000000
00000000
10000000
00000000
01000000
00000000
00010000
00000000
00100000
00000000
00000100
00000000
,  // measure 48
00001000
00000000
00000000
00001000
00000000
00000000
00001000
00000000
00000001
00000000
00000100
00000000
00000010
00001000
00000010
00001000
,  // measure 49
00000001
00000010
00000000
00000010
00000001
00000000
00000010
00000000
,  // measure 50
00000100
00001000
00000100
00000000
00020000
00000000
00030010
00000000
,  // measure 51
00001000
00000000
00000100
00010000
00001000
00100000
00010000
00000000
,  // measure 52
10000000
00100000
00000000
01000000
00020000
00000000
10030000
00000000
,  // measure 53
00010000
00100000
00000000
10000000
00200000
00000000
00310000
00000000
,  // measure 54
10000000
00100000
00000000
00010000
00200000
00000000
01300000
00000000
,  // measure 55
10100000
01010000
00021000
00030100
,  // measure 56
00001000
00000010
00000000
00000001
00000020
00000000
00000130
00000000
,  // measure 57
00000001
00001000
00000000
00002100
00000000
00000100
00003100
00010000
,  // measure 58
00001000
00100000
00000000
00120000
00000000
10000000
10030000
00100000
,  // measure 59
01000000
00000000
00000000
10010000
00000000
00000000
01100000
00000000
,  // measure 60
00100000
10000000
01000000
00100000
00001000
00010000
00000100
00001000
,  // measure 61
00000001
00000000
00000000
00000101
00000000
00000000
00002002
00000000
,  // measure 62
00000000
00000000
00000000
00000000
,  // measure 63
00000000
00000000
00000000
00000000
,  // measure 64
00000000
00000000
00000000
00000000
,  // measure 65
00000000
00000000
00000000
00003000
,  // measure 66
00000003
00000000
00000000
00000000
;
