#TITLE:灼熱BLADE;
#SUBTITLE:;
#ARTIST:コタニキンヤ;
#TITLETRANSLIT:Shakunetsu BLADE;
#SUBTITLETRANSLIT:;
#ARTISTTRANSLIT:Kinya Kotani;
#GENRE:;
#CREDIT:;
#BANNER:Shakunetsu BLADE.png;
#BACKGROUND:Shakunetsu BLADE-bg.png;
#LYRICSPATH:;
#CDTITLE:;
#MUSIC:Shakunetsu BLADE.mp3;
#OFFSET:-1.165132;
#SAMPLESTART:55.505001;
#SAMPLELENGTH:15.620000;
#SELECTABLE:YES;
#BPMS:0.000000=130.149994
;
#STOPS:
;
#BGCHANGES:;
#KEYSOUNDS:;
#ATTACKS:;

//---------------dance-single - ----------------
#NOTES:
     dance-single:
     :
     Easy:
     3:
     0.229375,0.287965,0.127984,0.000000,0.000000,138.000000,127.000000,11.000000,0.000000,0.000000,0.000000,0.229375,0.287965,0.127984,0.000000,0.000000,138.000000,127.000000,11.000000,0.000000,0.000000,0.000000:
0000
0000
0000
0000
,
0000
0000
0000
0000
,
0000
0000
0000
0000
,
0000
0000
0000
0000
,
1000
0100
0010
0000
,
0001
0100
0010
0000
,
1000
0001
0010
0001
,
1000
0000
0100
1000
,
0001
0000
1001
1001
,
1000
1000
0010
0010
,
0100
0001
0010
0001
,
0100
0100
0010
0010
,
1000
0100
0001
0100
,
1000
0000
0010
0000
,
0100
0001
0010
0000
,
0001
0000
0100
0000
,
0010
1000
0100
0000
,
1000
0000
0001
0000
,
0010
0001
1000
0000
,
0100
0000
1000
0000
,
0001
0100
0010
0000
,
1010
0000
0101
0000
,
0001
0010
0100
0000
,
1100
0000
0011
0000
,
0001
0100
0010
0000
,
1010
0000
0101
0000
,
0001
0010
0100
0000
,
1100
0000
0110
0000
,
0010
0001
0100
0000
,
0010
0010
1000
0100
,
0001
0000
1000
0010
,
0001
0000
1000
0010
,
0100
0001
0010
0100
,
1000
0000
0001
0010
,
1000
0000
0001
0100
,
1000
0000
0001
0010
,
0100
1000
0001
0001
,
1000
1000
0010
1000
,
0100
0000
0010
0001
,
0100
0000
0010
1000
,
0001
0100
0001
0010
,
0100
0000
1000
0010
,
0001
0000
1000
0100
,
0001
0000
1000
0010
,
0100
0001
1000
1000
,
1001
0000
0000
0000
;

//---------------dance-single - Copied from----------------
#NOTES:
     dance-single:
     Copied from:
     Medium:
     6:
     0.448776,0.449981,0.523572,0.244334,0.000000,270.000000,225.000000,45.000000,21.000000,0.000000,0.000000,0.448776,0.449981,0.523572,0.244334,0.000000,270.000000,225.000000,45.000000,21.000000,0.000000,0.000000:
0000
0000
0000
0000
,
0000
0000
0000
0000
,
0000
0000
0000
0000
,
0000
0000
0000
0000
,
1000
0100
0010
0001
0200
0000
0301
0000
,
0100
0010
1000
0100
0020
0000
0031
0000
,
0011
1100
0110
0101
,
1000
0010
0100
0000
0001
0010
0100
1000
,
0001
0000
1100
0101
,
1000
1000
1000
0000
0001
0001
0001
0000
,
0101
0000
1010
0000
0010
1000
0100
0000
,
0010
0010
0010
0000
0001
0001
0001
0000
,
0101
0000
1010
0000
0010
1000
0100
0000
,
0010
0001
0010
0000
0001
0100
0001
0000
,
0100
0000
0010
1000
0100
0000
1100
0000
,
1000
0001
1000
0000
0001
0100
0001
0000
,
1000
0000
0010
1000
0100
0000
1100
0000
,
1000
0001
1000
0000
0001
0100
0001
0000
,
0100
0000
0010
1000
0010
0000
1010
0000
,
0010
1000
0010
0000
0100
0001
0100
0000
,
0001
0000
0010
0100
1000
0000
0001
0000
,
1100
0101
2100
3001
,
1000
0010
0100
0010
2000
0000
3001
0000
,
1001
0101
0012
1003
,
0001
0100
0010
1000
0200
0000
0310
0000
,
0110
0011
1002
0103
,
0001
0100
0010
1000
0200
0000
1300
0000
,
1100
0110
0012
1003
,
0102
1003
2010
3100
,
1100
0000
0011
0000
0001
0100
0010
0100
,
0002
0000
0103
0000
0010
1000
0100
1000
,
0020
1030
1010
0101
,
0011
0000
1100
0000
1000
0100
0010
0001
,
0200
0000
0310
0000
1000
0100
0001
0100
,
2000
0000
3100
0000
0001
0010
1000
0010
,
0002
0103
0101
1010
,
1100
0000
0011
0000
0001
0010
0100
1000
,
0001
0001
1000
1000
0010
1000
0100
1000
,
0002
0000
0013
0000
0001
0100
0010
1000
,
0020
0130
0101
0011
,
0110
0000
1100
0000
1000
0100
0010
0001
,
2000
0000
3001
0000
1000
0010
0100
0001
,
0200
0000
0310
0000
1000
0100
0001
0100
,
2000
3100
1100
0011
,
0101
0000
1010
0000
1000
0100
0010
0001
,
1000
0010
0100
0001
1000
0000
0000
0000
;

//---------------dance-single - ----------------
#NOTES:
     dance-single:
     :
     Hard:
     8:
     0.593382,0.628287,0.162889,0.314143,0.546842,357.000000,343.000000,14.000000,27.000000,0.000000,0.000000,0.593382,0.628287,0.162889,0.314143,0.546842,357.000000,343.000000,14.000000,27.000000,0.000000,0.000000:
0000
0000
0000
0000
,
0000
0000
0000
0000
,
0000
0000
0000
0000
,
0000
0000
0000
0000
,
1000
0000
0100
0000
0010
0000
0001
0000
0010
0100
0000
2000
0000
0000
3001
0000
,
1000
0000
0010
0000
0100
0000
0001
0000
0100
0010
0000
2000
0000
0000
3001
0000
,
1000
0000
0100
0000
0001
0000
0100
0000
0010
0001
0000
2000
0000
0000
3001
0000
,
1000
0000
0010
0000
0001
0000
0010
0000
1000
0000
0010
0000
0100
0000
0001
2000
,
0000
0000
3000
0000
0000
0000
0000
0000
1100
0000
0000
0101
0000
0000
1001
0000
,
0001
0100
0001
0100
0001
1000
0000
0000
1000
0100
1000
0100
1000
0001
0000
0000
,
1000
0000
0010
0000
0001
0000
0010
0100
0000
0100
0000
0001
2000
0000
3001
0000
,
1000
0010
1000
0010
1000
0001
0000
0000
0001
0010
0001
0010
0001
1000
0000
0000
,
0001
0000
0100
0000
1000
0000
0100
0010
0000
0010
0000
1000
0002
0000
1003
0000
,
0001
0010
1000
0010
0100
0010
0001
1000
,
0001
0000
0100
0000
1000
0000
0100
0010
0000
0010
0000
1000
0002
0000
1003
0000
,
0001
0100
1000
0100
0010
0100
0001
1000
,
0001
0000
0010
0000
1000
0000
0010
0100
0000
0100
0000
1000
0002
0000
1003
0000
,
0001
0100
1000
0001
0010
1000
0001
0100
,
0001
0000
0010
0000
1000
0000
0010
0100
0000
0100
0000
1000
0002
0000
1003
0000
,
0001
0100
1000
0100
0001
0010
1000
0100
,
0002
0000
0000
0000
0013
0000
0000
0100
0000
0100
0000
1000
0001
0000
0100
0010
,
2000
0000
0000
0000
0100
0000
0000
0000
0001
0000
0000
0001
3000
0000
1000
0000
,
0001
0000
0010
0000
1000
0000
0010
0000
0001
1000
0000
0001
2000
0000
3000
0000
,
0101
0000
0000
0000
1100
0000
0000
0000
1001
0000
0000
1001
0000
0000
1000
0000
,
0010
0000
0001
0000
1000
0000
0100
0000
0001
0010
0000
0100
1000
0000
0001
1000
,
0002
0000
0000
0000
0010
0000
0000
0000
1000
0000
0000
1000
0003
0000
0001
0000
,
1000
0000
0100
0000
0001
0000
0100
0000
1000
0001
0000
1000
0001
0000
0100
0000
,
1010
0000
0000
0000
0011
0000
0000
0000
1001
0000
0000
1001
0000
0000
0001
0000
,
1000
0000
0010
0100
0000
0000
0001
0000
2000
0000
0000
0000
3001
0000
0010
0100
,
0010
0000
0000
1001
0000
0000
1001
0000
0001
0000
0010
0000
0100
0000
1000
0000
,
0100
0010
0000
0002
0000
0000
1003
0000
0001
0000
0100
0000
0010
0000
1000
0000
,
0010
0100
0000
0002
0000
0000
1003
0000
0001
0000
0010
0000
0100
0000
1000
0000
,
0001
1000
0000
0020
0000
0000
0130
0000
0001
0000
0100
0000
1000
0000
0100
0000
,
0001
1000
0000
0001
1000
0000
0010
0000
1000
0000
0100
0000
0001
0000
0100
0000
,
0010
0001
0000
2000
0000
0000
3001
0000
1000
0000
0010
0000
0001
0000
0010
0000
,
0100
0001
0000
2000
0000
0000
3001
0000
1000
0000
0100
0000
0001
0000
1000
0000
,
0010
0001
0000
2000
0000
0000
3001
0000
1000
0010
1000
0000
0001
0010
0001
0000
,
1000
0100
0010
0001
0010
0100
1000
0001
1000
0000
0010
0000
0100
0000
0001
0100
,
0010
1000
0000
0002
0000
0000
1003
0000
0001
0000
0010
0000
0100
0000
1000
0100
,
0010
0001
0000
2000
0000
0000
3001
0000
1000
0000
0010
0000
0001
0000
0010
0100
,
0010
1000
0000
0002
0000
0000
1003
0000
0001
0000
0010
0000
1000
0000
0010
0100
,
0010
0100
0000
1000
0002
0000
0103
0000
0001
0000
0100
0000
1000
0000
0100
0010
,
0100
0001
0000
0020
0000
0000
0130
0000
1000
0000
0010
0000
0001
0000
0010
0100
,
0010
1000
0000
0200
0000
0000
0310
0000
0001
0000
0100
0000
1000
0000
0001
0010
,
0001
0010
0000
2000
0000
0000
3001
0000
1000
0000
0100
0000
0001
0000
0100
0000
,
1001
0000
0000
0000
;

//---------------dance-double - ----------------
#NOTES:
     dance-double:
     :
     Hard:
     8:
     0.583409,0.602108,0.477033,0.139619,0.389771,351.000000,310.000000,41.000000,12.000000,0.000000,0.000000,0.583409,0.602108,0.477033,0.139619,0.389771,351.000000,310.000000,41.000000,12.000000,0.000000,0.000000:
// measure 0
00000000
00000000
00000000
00000000
,  // measure 1
00000000
00000000
00000000
00000000
,  // measure 2
00000000
00000000
00000000
00000000
,  // measure 3
00000000
00000000
00000000
00000000
,  // measure 4
00001000
00000000
00010000
00000000
00001000
00000000
00100000
00000000
00001000
00010000
00000000
00000200
00000000
00000000
00001300
00000000
,  // measure 5
00000010
00000000
00010000
00000000
00001000
00000000
00010000
00000000
00000100
00001000
00000000
00000002
00000000
00000000
00001003
00000000
,  // measure 6
00000001
00000000
00000100
00000000
00001000
00000000
00000100
00000000
00000010
00010000
00000000
00002000
00000000
00000000
00103000
00000000
,  // measure 7
00010000
01000000
10000000
01000000
10010000
00000000
00000000
00000000
,  // measure 8
00000000
00000000
00000000
00000000
00000000
00000000
00000000
00000000
10010000
00000000
00000000
00011000
00000000
00000000
00001001
00000000
,  // measure 9
00000001
00000000
00000010
00000000
00000100
00001000
00000000
00000000
00000001
00000000
00000100
00000000
00000010
00001000
00000000
00000000
,  // measure 10
00000001
00000000
00000010
00000000
00001000
00000000
00000010
00000001
00000000
00001000
00000000
00000100
00010000
00000000
00001000
00000000
,  // measure 11
10000000
00000000
01000000
00000000
00100000
00010000
00000000
00000000
10000000
00000000
00100000
00000000
01000000
00010000
00000000
00000000
,  // measure 12
10000000
00000000
01000000
00000000
00010000
00000000
01000000
10000000
00000000
00010000
00000000
00100000
00001000
00000000
00010000
00000000
,  // measure 13
00000100
00000010
00000001
00000100
00001000
00000100
00000010
00010000
,  // measure 14
00001000
00000000
00000100
00000000
00000010
00000000
00000000
00001000
00000000
00000001
00000000
00000000
00001001
00000000
00000000
00000000
,  // measure 15
00001000
00000100
00010000
00001000
00100000
00010000
01000000
10000000
,  // measure 16
01000000
00000000
00100000
00000000
10000000
00000000
00000000
00010000
00000000
10000000
00000000
00000000
10010000
00000000
00010000
00000000
,  // measure 17
00100000
01000000
10000000
00100000
00010000
00100000
01000000
00001000
,  // measure 18
00010000
00000000
00100000
00000000
01000000
00000000
00000000
00010000
00000000
10000000
00000000
00000000
10010000
00000000
10000000
00000000
,  // measure 19
00010000
00100000
00001000
00010000
00000100
00001000
00000010
00000001
,  // measure 20
00000010
00000000
00000100
00000000
00000001
00000000
00000000
00001000
00000000
00000001
00000000
00000000
00001001
00000000
00001000
00000000
,  // measure 21
00001100
00000000
00000000
00000000
00000011
00000000
00000000
00000000
00001001
00000000
00000000
00001001
00000000
00000000
00000001
00000000
,  // measure 22
00000100
00000000
00001000
00000000
00010000
00000000
01000000
00000000
10000000
00000000
00000000
10000000
00010000
00000000
00000000
00000000
,  // measure 23
00110000
00000000
00000000
00000000
11000000
00000000
00000000
00000000
10010000
00000000
00000000
10010000
00000000
00000000
10000000
00000000
,  // measure 24
00100000
00000000
00010000
00000000
00001000
00000000
00000010
00000000
00000001
00000000
00000000
00000001
00001000
00000000
00000010
00000000
,  // measure 25
00001010
00000000
00000000
00000000
00010100
00000000
00000000
00000000
00101000
00000000
00000000
10010000
00000000
00000000
10000000
00000000
,  // measure 26
00010000
00000000
01000000
00000000
10000000
00000000
01000000
00000000
00100000
10000000
00000000
00100000
10000000
00000000
00010000
00000000
,  // measure 27
10010000
00000000
00000000
00000000
00011000
00000000
00000000
00000000
00001001
00000000
00000000
00001001
00000000
00000000
00000001
00000000
,  // measure 28
00000010
00000000
00000100
00001000
00000000
00000010
00010000
00000000
00002000
00000000
00000000
00000000
00103000
00000000
00010000
10000000
,  // measure 29
01000000
00000000
00000000
10010000
00000000
00000000
10010000
00000000
10000000
00000000
00100000
00000000
00010000
00000000
00100000
00000000
,  // measure 30
01000000
00010000
00000000
20000000
00000000
00000000
30010000
00000000
10000000
00000000
01000000
00000000
00010000
00000000
00001000
00000000
,  // measure 31
00010000
01000000
00000000
20000000
00000000
00000000
30010000
00000000
10000000
00000000
00100000
00000000
01010000
00000000
00000000
00000000
,  // measure 32
00001000
00100000
00010100
00000000
00000100
00000010
00000001
00000100
,  // measure 33
00000010
00001000
00000000
00000010
00001000
00000000
00001001
00000000
00000001
00000000
00000100
00000000
00001000
00000000
00000100
00000000
,  // measure 34
00000010
00001000
00000000
00000002
00000000
00000000
00001003
00000000
00000001
00000000
00000010
00000000
00001000
00000000
00010000
00000000
,  // measure 35
00001000
00000010
00000000
00000002
00000000
00000000
00001003
00000000
00000001
00000000
00000100
00000000
00001010
00000000
00000000
00000000
,  // measure 36
00010000
00000100
00101000
00000000
00010000
00010000
10000000
10000000
,  // measure 37
00100000
01000000
00010000
10000000
01000000
00100000
00001000
00010000
00001000
00000000
00000010
00000000
00000001
00000000
00001000
00000001
,  // measure 38
00001000
00000001
00000000
00000200
00000000
00000000
00000310
00000000
00001000
00000000
00000100
00000000
00000001
00000000
00000100
00001000
,  // measure 39
00000100
00001000
00000000
00000020
00000000
00000000
00001030
00000000
00001010
00000000
00000010
00000000
00010100
00000000
00000000
00000000
,  // measure 40
00011000
00000000
00010000
00000000
00101000
00000000
00000000
00001000
00100000
00000000
00010000
00000000
01000000
00000000
00100000
10000000
,  // measure 41
00100000
10000000
00000000
00010000
01000000
00000000
10010000
00000000
00010000
00000000
00100000
00000000
10000000
00000000
00100000
01000000
,  // measure 42
00100000
01000000
00000000
20000000
00000000
00000000
30001000
00000000
00010000
00000000
00000010
00000000
00000100
00000000
00000001
00001000
,  // measure 43
00000001
00001000
00000000
00000020
00000000
00000000
00000130
00000000
00000101
00000000
00000100
00000000
00010010
00000000
00000000
00000000
,  // measure 44
00010100
00010000
00101000
00000000
00001000
01000000
10000000
01000000
,  // measure 45
10010000
00000000
00000000
00000000
;
