#VERSION:0.83;
#TITLE:Sakura Sunrise (GITADORA ver.);
#SUBTITLE:;
#ARTIST:Ryu☆;
#TITLETRANSLIT:;
#SUBTITLETRANSLIT:;
#ARTISTTRANSLIT:;
#GENRE:;
#ORIGIN:;
#CREDIT:;
#BANNER:Sakura Sunrise (GITADORA ver.).png;
#BACKGROUND:Sakura Sunrise (GITADORA ver.)-bg.png;
#PREVIEWVID:;
#JACKET:Sakura Sunrise (GITADORA ver.)-jacket.png;
#CDIMAGE:AlbumArtSmall.jpg;
#DISCIMAGE:;
#LYRICSPATH:;
#CDTITLE:;
#MUSIC:Sakura Sunrise (GITADORA ver.).mp3;
#OFFSET:0.980000;
#SAMPLESTART:10.900000;
#SAMPLELENGTH:15.000000;
#SELECTABLE:YES;
#DISPLAYBPM:181.000000;
#BPMS:0.000=181.818,
4.000=180.994;
#STOPS:;
#DELAYS:;
#WARPS:;
#TIMESIGNATURES:0.000=4=4;
#TICKCOUNTS:0.000=4;
#COMBOS:0.000=1;
#SPEEDS:0.000=1.000=0.000=0;
#SCROLLS:0.000=1.000;
#FAKES:;
#LABELS:0.000=Song Start;
#BGCHANGES:;
#KEYSOUNDS:;
#ATTACKS:
;

//---------------dance-single - ----------------
#NOTEDATA:;
#CHARTNAME:;
#STEPSTYPE:dance-single;
#DESCRIPTION:;
#CHARTSTYLE:;
#DIFFICULTY:Hard;
#METER:9;
#RADARVALUES:0.729860,0.722828,0.424888,0.300531,0.082905,493.000000,452.000000,41.000000,29.000000,0.000000,0.000000,0.000000,0.000000,0.000000,0.729860,0.722828,0.424888,0.300531,0.082905,493.000000,452.000000,41.000000,29.000000,0.000000,0.000000,0.000000,0.000000,0.000000;
#CREDIT:;
#DISPLAYBPM:181.000000;
#NOTES:
0000
0000
0000
0000
,
0000
0000
0000
0000
,
0000
0000
0000
0000
,
0000
0000
0000
0000
,
0000
0000
0000
0000
,
1000
0100
0010
0000
0001
0100
0010
1000
,
0001
0010
0100
1000
0001
1000
1000
0100
,
1000
0010
0100
0001
1000
0001
0001
0001
,
0000
0100
0010
0100
0000
1001
1001
0000
,
1000
0010
0101
0000
0001
0010
1000
0010
,
0001
0100
1000
0100
0010
0100
0100
0001
,
1000
0100
0011
0000
1000
0010
0001
0010
,
1000
0100
0001
0100
1000
0010
0010
0100
,
0001
0100
1010
0000
0001
0010
1000
0010
,
0001
0100
1000
0100
0010
0100
0100
0001
,
1000
0010
0001
0010
1000
0100
0001
0100
,
0000
0010
0100
0010
0000
1001
1001
0000
,
1000
0010
0101
0000
0001
0010
1000
0010
,
0001
0100
1000
0100
0002
1000
1000
1003
,
0001
0010
1100
0000
0001
0010
1000
0010
,
0001
0100
1000
0100
0002
1000
1003
0100
,
1000
0100
0011
0000
0001
0100
1000
0100
,
0001
0010
1000
0010
0002
1000
1000
1003
,
0001
0100
1000
0100
0001
0010
1000
0010
,
0000
0001
1000
0001
0000
0110
0110
0000
,
1000
0100
0010
0002
0000
0100
0103
0000
,
0001
0100
1010
0000
1000
0100
0011
0000
,
1002
0000
0103
0010
1000
1000
0001
0000
,
1000
0100
0001
0100
1000
1000
0001
0000
,
2010
0000
3001
1000
0010
0010
0100
0000
,
0001
0010
1000
0010
0001
0001
1000
0000
,
0001
0100
0010
1000
0001
0010
0100
1000
,
0001
0100
0100
0100
0010
1000
1001
0000
,
2000
0000
0010
0000
3010
0000
1000
0000
0001
0000
0100
0010
0000
0100
0010
0000
,
2000
0000
0100
0000
3100
0000
1000
0000
0001
0000
0010
0100
0000
0010
0100
0000
,
0020
0000
0001
0000
0031
0000
0010
0000
0100
0000
1000
0010
0000
1000
0010
0000
,
0200
0000
0001
0000
0301
0000
0100
0000
0010
0000
1000
0010
0000
1000
0010
0000
,
2000
0000
0100
0000
3100
0000
0001
0000
0100
0000
1000
0001
0000
1000
0001
0000
,
2000
0000
0010
0000
3010
0000
0001
0000
0010
0000
1000
0001
0000
1000
0001
0000
,
2000
0000
0100
0000
3100
0000
0001
0000
0010
0000
1000
0001
0000
1000
0001
0000
,
1000
0010
0010
0010
0100
0001
1001
0000
,
2020
0000
0030
0000
0002
0000
3003
1000
,
1010
0000
0110
0000
0102
1000
1000
1003
,
0202
0000
0300
0000
2000
0000
3003
0001
,
0101
0100
0110
0010
2010
0001
0001
3001
,
1000
0100
1000
0100
0001
0100
0001
0100
,
1000
0010
1000
0010
0001
0010
0001
0010
,
1000
1000
0010
0010
0100
0100
0001
0001
,
0000
0010
0100
0010
0000
1001
1001
0000
,
0000
0100
0010
0100
0000
1001
1001
0000
,
2000
3010
0002
0013
,
1000
0100
0001
0010
2000
0001
0001
3001
,
1000
0010
0101
0000
0001
0010
1000
0010
,
0001
0100
1000
0100
0010
0100
0100
0001
,
1000
0100
0011
0000
1000
0010
0001
0010
,
1000
0100
0001
0100
1000
0010
0010
0100
,
0001
0100
1010
0000
0001
0010
1000
0010
,
0001
0100
1000
0100
0010
0100
0100
0001
,
1000
0010
0001
0010
1000
0100
0001
0100
,
0000
0010
0100
0010
0000
1001
1001
0000
,
1000
0010
0101
0000
0001
0010
1000
0010
,
0001
0100
1000
0100
0002
1000
1000
1003
,
0001
0010
1100
0000
0001
0010
1000
0010
,
0001
0100
1000
0100
0002
1000
1003
0100
,
1000
0100
0011
0000
0001
0100
1000
0100
,
0001
0010
1000
0010
0002
1000
1000
1003
,
0001
0000
0100
0000
0010
1000
0010
1000
0010
0000
1000
0000
0100
0000
0010
0000
,
0000
0001
1000
0001
0000
0110
0110
0000
,
2002
0000
0000
0000
,
0000
0000
0000
3003
;

//---------------dance-double - Blank----------------
#NOTEDATA:;
#CHARTNAME:;
#STEPSTYPE:dance-double;
#DESCRIPTION:Blank;
#CHARTSTYLE:;
#DIFFICULTY:Hard;
#METER:9;
#RADARVALUES:0.701732,0.679303,0.300531,0.404162,0.082905,474.000000,445.000000,29.000000,39.000000,0.000000,0.000000,0.000000,0.000000,0.000000,0.701732,0.679303,0.300531,0.404162,0.082905,474.000000,445.000000,29.000000,39.000000,0.000000,0.000000,0.000000,0.000000,0.000000;
#CREDIT:;
#DISPLAYBPM:181.000000;
#NOTES:
00000000
00000000
00000000
00000000
,
00000000
00000000
00000000
00000000
,
00000000
00000000
00000000
00000000
,
00000000
00000000
00000000
00000000
,
00000000
00000000
00000000
00000000
,
10000000
01000000
00010000
00000000
00010000
01000000
10000000
00100000
,
00010000
00100000
01000000
00001000
00020000
00000000
00030100
00001000
,
00000001
00000100
00001000
00000000
00001000
00000100
00000001
00000100
,
00000000
00000010
00001000
00000001
00000000
00001001
00001001
00000000
,
00000001
00000010
00002000
00000000
00003010
00000001
00000100
00001000
,
00000100
00000010
00001000
00000100
00020000
00000000
00031000
00100000
,
00010000
01000000
10000000
00000000
10000000
01000000
00010000
00100000
,
00110000
00000000
00101000
00000000
00021000
00000000
00030100
00000100
,
00001000
00000010
00000002
00000000
00000013
00001000
00000100
00000001
,
00000100
00001000
00000010
00010000
00002000
00000000
00103000
00100000
,
00010000
01000000
10000000
01000000
00010000
00100000
10000000
00100000
,
00000000
00010000
00100000
00001000
00000000
00011000
00011000
00000000
,
00000010
00000001
00000200
00000000
00000310
00001000
00000100
00010000
,
00000010
00000100
00000001
00001000
00000200
00000000
00000010
00000310
,
00000001
00000100
00002000
00000000
00003100
00000010
00010000
00001000
,
01000000
00000000
10100000
00000000
00120000
00000000
10030000
10000000
,
00010000
01000000
20000000
00000000
31000000
00100000
10000000
00010000
,
01000000
00100000
00010000
00001000
00000200
00000000
00000310
00000010
,
00001000
00000100
00000001
00000100
00001000
00000010
00000001
00000010
,
00000000
00001000
00000100
00010000
00000000
00011000
00011000
00000000
,
00010000
00000100
00001000
00000100
00000010
00000100
00000001
00000100
,
00001000
00001000
00001000
00000010
00000100
00000100
00000100
00000000
,
00000001
00000100
00000010
00000100
00001000
00000100
00010000
00000100
,
00000010
00001000
00000100
00010000
00001000
10000000
10010000
00000000
,
00010000
01000000
00100000
01000000
10000000
01000000
00001000
01000000
,
00100000
10000000
01000000
00010000
01000000
01000000
00100000
00000000
,
00010000
00100000
01000000
00100000
10000000
00100000
00001000
00100000
,
00001000
00010000
00010000
00010000
00000100
00001000
00001001
00000000
,
00000002
00000000
00000100
00000000
00000103
00000000
00000010
00000000
00001000
00000000
00000100
00010000
00000000
00000100
00010000
00000000
,
00002000
00000000
00100000
00000000
00103000
00000000
00010000
00000000
01000000
00000000
00100000
10000000
00000000
00100000
10000000
00000000
,
00020000
00000000
01000000
00000000
01030000
00000000
00100000
00000000
10000000
00000000
01000000
00010000
00000000
01000000
00010000
00000000
,
00002000
00000000
00000010
00000000
00003010
00000000
00000001
00000000
00000100
00000000
00001000
00010000
00000000
00001000
00010000
00000000
,
00100000
00000000
10000000
00000000
01000000
00000000
00010000
00000000
01000000
00000000
00100000
00010000
00000000
00100000
00001000
00000000
,
00010000
00000000
00000010
00000000
00000100
00000000
00000010
00000000
00000001
00000000
00000010
00001000
00000000
00000001
00000100
00000000
,
00000001
00000000
00000010
00000000
00001000
00000000
00010000
00000000
01000000
00000000
10000000
00100000
00000000
01000000
00010000
00000000
,
10000000
00100000
00100000
00100000
00010000
00001000
00001100
00000000
,
00000202
00000000
00000303
00000000
00002200
00000000
00003300
00001000
,
00000100
00000001
00000100
00000010
00000002
00000000
00001003
00000000
,
00002020
00000000
00003030
00000000
00000022
00000000
00000033
00000001
,
00000010
00001000
00010000
01000000
20000000
00010000
00010000
30010000
,
10000000
00100000
10000000
00100000
00010000
00100000
00010000
00100000
,
00010000
00001000
00010000
00001000
00000100
00001000
00000100
00001000
,
00000100
00000100
00000010
00000010
00001000
00001000
00000001
00000001
,
00000000
00000010
00000100
00001000
00000000
00011000
00011000
00000000
,
00000000
00100000
10000000
01000000
00000000
00011000
00011000
00000000
,
00000020
00000031
00000200
00000310
,
00001000
00000100
00000001
00000100
00001000
00000001
00000001
00000001
,
00000010
00000001
00000200
00000000
00000310
00001000
00000100
00010000
,
00000010
00000100
00000001
00001000
00000200
00000000
00000010
00000310
,
00000001
00000100
00002000
00000000
00003100
00000010
00010000
00001000
,
01000000
00000000
10100000
00000000
00120000
00000000
10030000
10000000
,
00010000
01000000
20000000
00000000
31000000
00100000
10000000
00010000
,
01000000
00100000
00010000
00001000
00000200
00000000
00000310
00000010
,
00001000
00000100
00000001
00000100
00001000
00000010
00000001
00000010
,
00000000
00001000
00000100
00010000
00000000
00011000
00011000
00000000
,
00010000
00100000
10000000
01000000
00010000
01000000
00100000
00001000
,
00010000
00000010
00000100
00000001
00002000
00000001
00000001
00003001
,
00001000
00000010
00000001
00000010
00010000
00000100
00001000
00000010
,
00010000
00001000
00000100
00000001
00000200
00000010
00000010
00000310
,
00001000
00000100
00000001
00000100
00000010
00000001
00000100
00001000
,
00010000
00100000
10000000
01000000
00200000
00010000
00010000
00310000
,
10000000
00000000
00100000
00000000
01000000
00010000
01000000
00010000
00100000
00000000
00001000
00000000
00010000
00000000
00000100
00000000
,
00000000
00001000
00000010
00000100
00000000
00001001
00001001
00000000
,
00000220
00000000
00000000
00000000
,
00000330
00000000
00000000
00000000
;

//---------------dance-single - ----------------
#NOTEDATA:;
#CHARTNAME:;
#STEPSTYPE:dance-single;
#DESCRIPTION:;
#CHARTSTYLE:;
#DIFFICULTY:Easy;
#METER:4;
#RADARVALUES:0.380475,0.398980,0.196899,0.196899,0.000000,257.000000,238.000000,19.000000,19.000000,0.000000,0.000000,0.000000,0.000000,0.000000,0.380475,0.398980,0.196899,0.196899,0.000000,257.000000,238.000000,19.000000,19.000000,0.000000,0.000000,0.000000,0.000000,0.000000;
#CREDIT:;
#DISPLAYBPM:181.000000;
#NOTES:
0000
0000
0000
0000
,
0000
0000
0000
0000
,
0000
0000
0000
0000
,
0000
0000
0000
0000
,
0000
0000
0000
0000
,
1000
0100
0010
0001
,
0010
0100
2000
3001
,
1000
0010
0001
0010
,
0000
0100
0001
1001
,
0001
0010
1000
0010
,
0001
0100
0020
0130
,
0001
0010
1000
0010
,
0001
1000
2001
3100
,
1000
0010
0001
0010
,
1000
0010
0200
0301
,
1000
0100
0001
0010
,
0000
1000
0001
0100
,
0001
0010
0100
0010
,
1000
0010
0100
1001
,
1000
0010
0100
0010
,
0001
0010
0100
1001
,
0001
0010
1000
0001
,
0100
1000
0010
1001
,
0001
0100
1000
0100
,
0000
0001
1000
1001
,
1000
0100
0010
0010
,
0001
0001
1000
1000
,
0001
0100
1000
0100
,
0010
1000
0001
1001
,
1000
0100
0001
0001
,
1000
0010
0001
0001
,
1000
0010
0001
0010
,
0100
0001
1000
1001
,
0001
0100
0001
0001
,
1000
0100
1000
1000
,
0001
0010
0001
0001
,
1000
0010
1000
1000
,
0001
0100
1000
1000
,
0001
0010
1000
1000
,
0001
0010
1000
0010
,
0001
0100
1000
0100
,
0002
0003
0020
0030
,
0100
1000
2002
3003
,
2000
3000
0020
0030
,
0100
0001
2002
3003
,
0001
0010
0001
0010
,
1000
0010
1000
0010
,
0001
0100
1000
0010
,
0000
0001
1000
1100
,
0000
1000
0001
0101
,
0002
0003
2000
3000
,
0010
0100
0001
1001
,
1000
0100
0001
0100
,
1000
0010
0200
0310
,
1000
0100
0001
0100
,
1000
0001
1002
0013
,
0001
0100
1000
0100
,
0001
0100
0020
1030
,
0001
0010
1000
0100
,
0000
0001
1000
0010
,
1000
0100
0010
0100
,
0001
0100
0010
1001
,
0001
0100
0010
0100
,
1000
0100
0010
1001
,
1000
0100
0001
1000
,
0010
0001
0100
1001
,
1000
0010
0001
0010
,
0000
1000
0001
1001
,
0220
0000
0000
0000
,
0000
0000
0000
0000
,
0330
0000
0000
0000
;

//---------------dance-single - ----------------
#NOTEDATA:;
#CHARTNAME:;
#STEPSTYPE:dance-single;
#DESCRIPTION:;
#CHARTSTYLE:;
#DIFFICULTY:Medium;
#METER:7;
#RADARVALUES:0.488547,0.507793,0.352346,0.538882,0.000000,330.000000,296.000000,34.000000,52.000000,0.000000,0.000000,0.000000,0.000000,0.000000,0.488547,0.507793,0.352346,0.538882,0.000000,330.000000,296.000000,34.000000,52.000000,0.000000,0.000000,0.000000,0.000000,0.000000;
#CREDIT:;
#DISPLAYBPM:181.000000;
#NOTES:
// measure 0
0000
0000
0000
0000
,  // measure 1
0000
0000
0000
0000
,  // measure 2
0000
0000
0000
0000
,  // measure 3
0000
0000
0000
0000
,  // measure 4
0000
0000
0000
0000
,  // measure 5
1000
0010
0100
0001
,  // measure 6
1000
0001
1000
0001
2000
0000
3100
0000
,  // measure 7
1000
0100
0010
0001
,  // measure 8
0000
0100
0010
0100
0000
0001
1000
0000
,  // measure 9
0002
0013
2000
3010
,  // measure 10
0001
1000
0001
1000
0200
0000
0310
0000
,  // measure 11
0002
0103
2000
3000
,  // measure 12
0101
1100
2001
3100
,  // measure 13
2000
3010
0002
0013
,  // measure 14
1000
0010
1000
0010
0200
0000
0301
0000
,  // measure 15
1000
0100
0001
0010
,  // measure 16
0000
1000
0001
1000
0000
0010
0100
0000
,  // measure 17
0001
0010
0001
0000
1000
0010
1000
0000
,  // measure 18
0001
0100
2010
3001
,  // measure 19
1000
0100
1000
0000
0001
0100
0001
0000
,  // measure 20
1000
0100
0012
1003
,  // measure 21
0001
0100
1000
0000
1000
0100
0001
0000
,  // measure 22
0010
0100
2001
3100
,  // measure 23
1000
0010
0001
0000
0001
0010
1000
0001
,  // measure 24
0000
0010
0100
1000
0000
0001
1000
0000
,  // measure 25
0001
0100
1000
1100
,  // measure 26
0100
0110
0010
1010
,  // measure 27
1002
0010
0100
0103
,  // measure 28
0001
0010
0100
1000
0100
0010
0001
0000
,  // measure 29
2001
0001
0010
3100
,  // measure 30
1000
0010
0100
0000
0001
0001
0001
0000
,  // measure 31
1002
0010
0100
1003
,  // measure 32
0001
0100
0010
1000
0010
0100
0001
0000
,  // measure 33
1000
2100
0001
3010
,  // measure 34
0001
0102
0010
1003
,  // measure 35
0001
2010
0010
3001
,  // measure 36
1000
0012
0010
1003
,  // measure 37
0001
0010
0100
0000
2000
0000
3001
0000
,  // measure 38
1000
0010
0100
0000
0002
0000
1003
0000
,  // measure 39
0001
0100
1000
0000
0200
0000
0310
0000
,  // measure 40
1000
0100
0001
0000
0200
0000
0310
0000
,  // measure 41
0022
0033
2200
3300
,  // measure 42
1010
0101
2002
3003
,  // measure 43
2200
3300
0022
0033
,  // measure 44
0101
1010
2002
3003
,  // measure 45
1000
1000
0100
0100
,  // measure 46
0001
0001
0010
0010
,  // measure 47
1000
0010
1000
0010
0100
0001
0100
0001
,  // measure 48
0000
1000
0001
1000
0000
0100
0100
0000
,  // measure 49
0000
1000
0001
1000
0000
0010
0010
0000
,  // measure 50
2000
3000
0002
0003
,  // measure 51
1000
0010
0001
0010
0100
0000
1001
0000
,  // measure 52
2000
3100
0002
0103
,  // measure 53
1000
0001
1000
0001
0020
0000
0130
0000
,  // measure 54
2000
3010
0002
0003
,  // measure 55
1010
0011
1002
0013
,  // measure 56
0002
0103
2000
3100
,  // measure 57
0001
0100
0001
0100
0020
0000
1030
0000
,  // measure 58
0001
0010
1000
0100
,  // measure 59
0000
0001
1000
0001
0000
0100
0010
0000
,  // measure 60
1000
0100
1000
0000
0001
0100
0001
0000
,  // measure 61
1000
0010
0102
1003
,  // measure 62
0001
0010
0001
0000
1000
0010
1000
0000
,  // measure 63
0001
0010
2100
3001
,  // measure 64
1000
0010
0001
0000
0001
0010
1000
0000
,  // measure 65
0100
0010
1002
0013
,  // measure 66
0001
0100
1000
0000
1000
0100
0001
1000
,  // measure 67
0000
0100
0010
0001
0000
1000
0001
0000
,  // measure 68
2002
0000
0000
0000
,  // measure 69
0000
0000
0000
0000
,  // measure 70
3003
0000
0000
0000
;
