#TITLE:SURPRISE-DRIVE;
#SUBTITLE:;
#ARTIST:MITSURU MATSUOKA EARNEST DRIVE;
#TITLETRANSLIT:;
#SUBTITLETRANSLIT:;
#ARTISTTRANSLIT:;
#GENRE:HEROIC J-ROCK;
#CREDIT:;
#BANNER:SURPRISE-DRIVE.png;
#BACKGROUND:SURPRISE-DRIVE-bg.png;
#LYRICSPATH:;
#CDTITLE:;
#MUSIC:SURPRISE-DRIVE.mp3;
#OFFSET:1.222;
#SAMPLESTART:41.980;
#SAMPLELENGTH:17.200;
#LASTBEATHINT:0.622;
#SELECTABLE:YES;
#BPMS:0.000=180.000
;
#STOPS:
;
#BGCHANGES:1.750=SURPRISE-DRIVE.avi=1.000=1=0=1===CrossFade==,
99999=-nosongbg-=1.000=0=0=0 // don't automatically add -songbackground-
;
#KEYSOUNDS:;
#ATTACKS:;

//---------------dance-single - ----------------
#NOTES:
     dance-single:
     :
     Hard:
     9:
     0.892,0.932,0.714,0.308,0.378,373.000,51.000,22.000,0.000,0.000,0.000,0.892,0.932,0.714,0.308,0.378,373.000,51.000,22.000,0.000,0.000,0.000:
0000
0000
0000
0000
,
0000
0000
0000
0000
,
0000
0000
0000
0000
,
1002
0000
0103
1000
0100
0001
1000
1000
,
0001
0000
0000
0000
1000
0000
0100
0000
0001
0000
0100
0000
1000
0000
0001
1000
,
0001
0000
0000
0000
1000
0000
0010
0000
0001
0000
0010
0000
1000
0000
0001
0100
,
0001
0000
0001
0000
1000
0000
1000
0000
0010
0100
0010
0100
0010
0100
0010
0100
,
0001
0100
0100
0010
1000
1000
0001
0010
,
0010
0100
1000
1000
0001
0100
0010
1000
,
0001
0010
0001
0010
0001
0010
0100
0010
0100
0010
0100
0010
0100
1000
0100
1000
,
0100
1000
0001
1000
0001
1000
0001
1000
0020
0000
0000
0000
0030
0000
0000
0000
,
1000
0100
1000
0100
0001
0100
0001
0100
,
1000
0000
0010
0000
1000
0000
0010
0000
0001
0010
0001
0000
0010
0001
0010
0000
,
1000
0010
1000
0010
0001
0010
0001
0010
,
1000
0000
0100
0000
1000
0000
0100
0000
1000
0000
0010
0100
0000
0001
1000
0000
,
1001
0000
0001
0100
0001
0100
1000
0100
,
1000
0100
0010
0100
0010
0100
0001
1000
,
2001
0000
3100
0000
1000
0010
0100
0102
,
0000
0000
1003
0000
0001
0010
0100
1000
0002
0000
0000
0000
0003
0000
0000
0000
,
1000
0000
0101
0000
0001
1000
1100
0000
,
1000
0000
0011
0000
0001
1000
2010
0000
,
3001
0000
0110
0000
1000
0001
1001
0000
,
1000
0000
0110
0000
0001
1000
2001
0000
,
3100
0000
1010
0000
0100
0010
1001
0000
,
0100
0000
0000
0000
0011
0000
0000
0000
0010
0000
0100
0000
1001
0000
0000
1000
,
0001
0100
0100
0010
1000
1000
0001
2001
,
0000
0000
3100
0000
1000
0000
0010
0100
0010
0000
1000
0000
0001
0000
0100
0000
,
0102
0000
1000
1003
0000
0110
0000
2001
,
0000
0000
3100
0000
1000
0010
0100
0001
1000
0000
1001
0000
0000
0000
2100
0000
,
0000
3001
0100
1000
0100
0100
0010
1000
,
0000
1000
0001
0010
1000
1000
0010
0011
,
0000
0000
0001
0000
0100
0000
0010
1000
0001
0000
0010
0000
0100
0000
1100
0000
,
0000
0101
0101
0000
1000
0001
0000
0120
,
0000
0000
1030
0000
0010
1000
0100
0101
,
0000
1100
0000
1010
0000
0110
0000
1002
,
0000
0103
1000
0100
0010
1000
0100
0002
,
0000
0100
0103
0000
1000
0001
0000
0210
,
0000
0000
0310
0000
1000
0001
0000
0011
,
0000
1100
0000
0101
0000
1010
0000
1002
,
0000
0000
0100
0000
0103
0000
0000
0001
0010
0000
0100
0000
1000
0000
0001
0000
,
1000
0010
1000
0010
1000
0010
0100
0001
0100
0001
0100
0001
1000
0000
2001
0000
,
0000
0100
3100
0000
1000
0010
0001
0011
,
0000
1010
0000
1100
0000
0110
0000
2001
,
0000
3010
0001
0010
0100
0001
0010
2000
,
0000
0010
3010
0000
1010
0000
0011
0000
,
0001
0100
0100
0010
1000
1000
0001
0100
,
0001
0000
0010
0000
0010
0000
0100
0000
1000
0000
1000
0000
0001
0000
1000
0010
,
1000
0000
0001
0100
0001
0000
1000
0100
1000
0000
0001
0010
0001
0000
1000
0001
,
1000
0000
0001
0101
0000
1100
0000
1002
,
0000
0103
1000
0100
0001
1000
0100
1000
,
0001
0000
0010
0000
1000
0000
0010
0100
0010
0000
0100
0000
1000
0000
0001
0000
,
1000
0100
1000
0100
1000
0100
0010
0100
0010
0100
0010
0100
0010
0001
0010
0001
,
0010
0001
1000
0001
1000
0001
1000
0001
0100
0000
0000
0000
1001
0000
2002
0000
,
0000
3003
0000
0000
;

//---------------dance-single - ----------------
#NOTES:
     dance-single:
     :
     Easy:
     4:
     0.374,0.447,0.476,0.028,0.000,151.000,34.000,2.000,0.000,0.000,0.000,0.374,0.447,0.476,0.028,0.000,151.000,34.000,2.000,0.000,0.000,0.000:
0000
0000
0000
0000
,
0000
0000
0000
0000
,
0000
0000
0000
0000
,
1001
1000
0100
0000
,
1000
0100
0010
0001
,
1001
0001
0100
0000
,
0001
0100
0010
1000
,
1000
0000
0001
0000
,
1000
0000
0001
0000
,
0010
0000
0100
0000
,
0010
0000
0110
0000
,
1000
0000
0001
0000
,
0010
0001
0010
0000
,
0001
0000
1000
0000
,
0100
0010
0001
0000
,
0010
0000
0100
0000
,
1000
0000
0001
0000
,
0100
0100
0010
0010
,
1001
0000
1001
0000
,
1000
0100
0010
0100
,
1000
0001
0001
0000
,
0001
0100
0010
0100
,
0001
1000
1000
0000
,
0010
0000
0100
0000
,
0001
0000
1000
0000
,
0100
0100
0010
0010
,
1001
0000
0100
0000
,
0000
1001
1001
0000
,
0000
0100
0100
0000
,
1000
0010
0001
0000
,
1000
0010
0100
0000
,
0001
0010
1000
0010
,
0001
0000
0110
0000
0000
0000
0000
1000
,
0000
1000
0000
1000
0000
1000
0000
0100
,
0000
0100
0000
0100
0000
0100
0000
1001
,
0000
1001
0000
0110
0000
0000
0000
0110
,
0000
0110
0000
1001
0000
0000
0000
0001
,
0000
0001
0000
0001
0000
0001
0000
0010
,
0000
0010
0000
0010
0000
0010
0000
0110
,
0000
1001
0000
1001
0000
0000
0000
1001
,
0000
0110
0000
0110
0000
0000
0000
0100
,
0000
0100
0000
0100
0000
0100
0000
0010
,
0000
0010
0000
0010
0000
0010
0000
1001
,
0000
0110
0000
1001
0000
0000
0000
0110
,
0000
1001
0000
0110
0000
0000
0000
0000
,
1000
0001
1000
0001
,
0100
0010
0100
0010
,
1001
0110
1001
0110
,
1001
0000
0000
0000
,
1000
0100
0001
0100
,
1000
0010
0001
0010
,
0100
0000
0000
0010
0000
0000
0100
0000
,
0000
0010
0000
0000
1001
0000
0000
2002
,
0000
3003
0000
0000
;

//---------------dance-single - Blank----------------
#NOTES:
     dance-single:
     :
     Medium:
     7:
     0.628,0.596,0.616,0.406,0.007,241.000,44.000,29.000,0.000,0.000,0.000,0.628,0.596,0.616,0.406,0.007,241.000,44.000,29.000,0.000,0.000,0.000:
0000
0000
0000
0000
,
0000
0000
0000
0000
,
0000
0000
0000
0000
,
1001
0000
0001
0100
0000
0010
0000
1000
,
0020
0130
0002
1003
,
1001
0000
1000
0010
0000
0100
0000
0001
,
0200
0310
2000
3001
,
0011
0000
0000
1100
0000
0000
0101
0000
,
0000
1010
0000
0000
1002
0000
0103
0000
,
0001
0010
0001
0010
0100
0010
0100
1000
,
0100
1000
0001
1000
2002
0000
3003
0000
,
0001
0001
0010
0010
,
0100
0000
0100
0000
1000
1000
0001
0001
,
1000
1000
0010
0010
,
0100
0000
0000
0000
0100
0000
0000
0000
0001
0000
0000
0001
0000
0000
0001
0000
,
1000
1000
0100
0100
,
0001
0001
0100
0100
,
2100
0010
0100
3001
,
1000
0010
0100
0001
1001
0000
0000
0000
,
0001
0101
0001
1001
,
1000
1100
1000
1001
,
0001
0011
0001
1001
,
1000
1010
1000
1001
,
0001
0000
1100
0000
0010
0010
0010
0000
,
1000
0000
0101
0000
0010
0010
0010
0000
,
0001
0010
0001
0000
1000
0010
1000
0000
,
0001
1000
0001
1000
0010
0100
0010
0100
,
0002
0000
0100
0103
0000
1010
0000
0011
,
0000
0000
1000
0010
0100
0001
0000
1001
,
0000
1000
0001
0000
0100
0010
0100
0000
,
0010
1000
0010
0000
1000
0100
1000
0002
,
0000
0100
0103
0000
0001
0010
0100
2000
,
0000
0001
3001
0000
0000
0000
0000
0102
,
0000
0000
1003
0000
0001
0000
0010
0200
,
0000
1300
0000
1100
0000
0101
0000
1002
,
0000
0010
0013
0000
0001
0010
0100
2000
,
0000
0001
3001
0000
0100
0010
0000
2100
,
0000
0000
3001
0000
1000
0010
0000
0102
,
0000
1003
0000
2100
0000
3001
0000
1002
,
0000
0013
2001
3100
,
1000
0010
0100
0001
0100
0010
1000
0002
,
0000
0000
0103
0000
0001
0000
1000
0200
,
0000
0310
0000
0011
0000
0110
0000
2100
,
0000
0001
3001
0000
1000
0010
0100
0002
,
0000
1000
1003
0000
0101
0000
1100
0000
,
0001
0010
0001
0000
0010
1000
0010
0000
,
1000
0100
1000
0000
0100
0001
0100
0000
,
1010
0101
0011
1100
,
1001
0000
0000
0000
0000
0000
0000
2010
,
0000
0000
0001
0001
0000
0100
0000
3010
,
2000
3100
0002
0103
,
1000
0010
0100
0001
0100
0010
1000
0100
,
0010
0001
0010
0100
1000
0000
0001
2002
,
0000
3003
0000
0000
;

//---------------dance-threepanel - Blank----------------
#NOTES:
     dance-threepanel:
     :
     Hard:
     1:
     0.002,0.000,0.000,0.000,0.000,1.000,0.000,0.000,0.000,0.000,0.000,0.002,0.000,0.000,0.000,0.000,1.000,0.000,0.000,0.000,0.000,0.000:
000
100
000
000
;

//---------------dance-double - Blank----------------
#NOTES:
     dance-double:
     :
     Hard:
     9:
     0.840,0.861,0.364,0.392,0.350,366.000,26.000,28.000,0.000,0.000,0.000,0.840,0.861,0.364,0.392,0.350,366.000,26.000,28.000,0.000,0.000,0.000: // measure 0
00000000
00000000
00000000
00000000
,  // measure 1
00000000
00000000
00000000
00000000
,  // measure 2
00000000
00000000
00000000
00000000
,  // measure 3
00001001
00000000
00000001
00000100
00001000
00000100
00000010
00001000
,  // measure 4
00000100
00000000
00010000
00001000
00100000
00010000
01000000
10000000
,  // measure 5
01000000
00000000
00100000
10000000
01000000
00010000
01000000
00100000
,  // measure 6
00010000
00000000
00010000
00000000
10000000
00000000
10000000
00000000
00100000
01000000
00100000
01000000
00100000
01000000
00100000
01000000
,  // measure 7
00010000
00100000
00100000
00001000
00010000
00010000
00000100
00001000
,  // measure 8
00001000
00000001
00000100
00000100
00000001
00000010
00000100
00001000
,  // measure 9
00000010
00001000
00000100
00000000
00000100
00000000
00010000
00001000
00100000
00000000
00100000
00000000
00010000
01000000
00100000
00000000
,  // measure 10
00100000
00000000
10000000
00010000
01000000
00000000
01000000
00000000
20200000
00000000
00000000
00000000
30300000
00000000
00000000
00000000
,  // measure 11
10000000
01000000
10000000
01000000
00010000
01000000
00010000
01000000
,  // measure 12
00010000
00000000
00001000
00000000
00010000
00000000
00001000
00000000
00000000
00001000
00000010
00000000
00000000
00000010
00000001
00000000
,  // measure 13
00001000
00000010
00001000
00000010
00000001
00000010
00000001
00000010
,  // measure 14
00000100
00000000
00000010
00000000
00000100
00000000
00000010
00000000
00001010
00000000
00000000
00010100
00000000
00000000
00101000
00000000
,  // measure 15
00010000
00000000
10000000
00100000
10000000
00100000
00010000
00100000
,  // measure 16
00010000
00100000
01000000
00100000
01000000
00100000
10000000
00010000
,  // measure 17
00210000
00000000
00301000
00000000
00010000
00000010
00000100
00000102
,  // measure 18
00000000
00000000
00001003
00000000
00000001
00000010
00000100
00001000
00000002
00000000
00000000
00000000
00000003
00000000
00000000
00000000
,  // measure 19
00001000
00001000
00000010
00000100
00001000
00001000
00000100
00000000
,  // measure 20
00000010
00000010
00010000
00001000
00000100
00000100
00000002
00000000
,  // measure 21
00001003
00001000
00000100
00010000
00001000
00001000
01000000
00000000
,  // measure 22
00100000
10000000
01000000
00010000
01000000
10000000
10010000
00000000
,  // measure 23
10000000
00100000
00010000
00001000
00000010
00000001
00001000
00000000
,  // measure 24
00000001
00000000
00000100
00000000
00001000
00000000
00010000
00000000
01000000
00000000
10000000
00000000
00010000
00000000
00000000
00010000
,  // measure 25
10000000
00100000
00100000
01000000
00010000
00010000
00100000
00102000
,  // measure 26
00000000
00000000
00013000
00000000
00001000
00000000
00010000
00000100
00010000
00000000
00010000
00000000
00000010
00000000
00000100
00000000
,  // measure 27
00000002
00000000
00001000
00001003
00000000
00000101
00000000
00001100
,  // measure 28
00000000
00000000
00001000
00000000
00000001
00000100
00000010
00001000
00000100
00000000
00001100
00000000
00000000
00000000
00020100
00000000
,  // measure 29
00000000
00031000
00100000
00000000
00010000
00010000
01000000
10000000
,  // measure 30
00000000
10000000
01000000
00000000
00100000
00100000
10000000
10020000
,  // measure 31
00000000
00000000
00130000
00000000
00010000
00000000
01000000
00001000
00010000
00000000
00010000
00000000
00000100
00000000
00002200
00000000
,  // measure 32
00003300
00001001
00001001
00000000
00000000
00000000
00000000
00000102
,  // measure 33
00000000
00000000
00001000
00000000
00001003
00000000
00000000
00000000
00000001
00000000
00000000
00000000
00001000
00000000
00001000
00000010
,  // measure 34
00000000
00000000
00000010
00010000
00000000
00000000
00010000
00001000
00000000
00000000
00001000
00100000
00000000
00000000
00120000
00000000
,  // measure 35
00000000
01030000
10000000
01000000
00100000
10000000
01000000
00020000
,  // measure 36
00000000
01000000
01030000
00000000
10000000
00010000
00000000
10020000
,  // measure 37
00000000
00000000
00130000
00000000
00010000
01000000
00000000
10200000
,  // measure 38
00000000
00320000
00000000
00032000
00000000
00003200
00000000
00000320
,  // measure 39
00000000
00001030
00000002
00000103
,  // measure 40
00000001
00000010
00000001
00000010
00000001
00000010
00000100
00001000
00000100
00001000
00000100
00001000
00000010
00000000
00020010
00000000
,  // measure 41
00000000
00000000
00000100
00000000
00030100
00000000
00000000
00000000
00100000
00000000
00000000
00000000
00001000
00000000
00100000
00001000
,  // measure 42
00000000
00000000
00001000
01000000
00000000
00000000
01000000
00100000
00000000
00000000
00100000
10000000
00000000
00000000
20010000
00000000
,  // measure 43
00000000
31000000
00010000
01000000
00100000
00001000
00010000
00000200
,  // measure 44
00000000
00000000
00000010
00000000
00000310
00000000
00000000
00000000
00000001
00000100
00000000
00000000
00001000
00000100
00000000
00000000
,  // measure 45
00000001
00000010
00000010
00000100
00001000
00001000
00000010
00001000
,  // measure 46
00000100
00010000
00010000
00001000
00100000
00100000
00010000
01000000
,  // measure 47
00100000
00000000
10000000
01000000
10000000
00000000
00010000
01000000
00010000
00000000
10000000
00100000
10000000
00000000
00010000
00100000
,  // measure 48
00010000
00000000
00000000
00000000
00000000
00000000
00000000
10020000
,  // measure 49
00000000
01030000
10000000
01000000
00100000
10000000
01000000
00010000
,  // measure 50
01000000
00100000
00010000
01000000
00001000
00001000
00010000
00000000
,  // measure 51
00000100
00001000
00000100
00001000
00000100
00001000
00000001
00000010
00000001
00000010
00000001
00000010
00000001
00000100
00000001
00000100
,  // measure 52
00000001
00000100
00000010
00001000
00000100
00010000
00001000
00100000
00010000
00000000
00000000
00000000
10010000
00000000
20020000
00000000
,  // measure 53
00000000
00000000
30030000
00000000
;
