#TITLE:Rude;
#SUBTITLE:;
#ARTIST:MAGIC!;
#TITLETRANSLIT:;
#SUBTITLETRANSLIT:;
#ARTISTTRANSLIT:;
#GENRE:;
#CREDIT:;
#BANNER:Rude.png;
#BACKGROUND:Rude-bg.png;
#LYRICSPATH:;
#CDTITLE:;
#MUSIC:Rude.mp3;
#OFFSET:-0.376098;
#SAMPLESTART:40.334568;
#SAMPLELENGTH:12.000000;
#SELECTABLE:YES;
#BPMS:0.000000=72.000130
;
#STOPS:
;
#BGCHANGES:;
#KEYSOUNDS:;
#ATTACKS:;

//---------------dance-single - ----------------
#NOTES:
     dance-single:
     :
     Hard:
     7:
     0.376363,0.379093,0.191055,0.201110,0.256415,262.000000,243.000000,19.000000,20.000000,0.000000,0.000000,0.376363,0.379093,0.191055,0.201110,0.256415,262.000000,243.000000,19.000000,20.000000,0.000000,0.000000:
0000
0000
0000
0000
,
0000
0000
0000
0000
,
1000
0000
0001
1000
0100
0000
1000
0001
,
0200
0000
0310
0000
1000
0001
0010
0010
,
0001
0001
0100
0001
1000
1000
0100
1000
,
0002
0010
1000
1003
0001
1000
1001
1001
,
1000
1000
0010
1000
0001
0001
0010
0001
,
2000
0000
0100
0000
0001
0000
3001
0000
1000
0100
1000
0000
0001
0100
0001
0000
,
1000
0010
0001
0010
0100
0100
0001
1000
,
1100
0000
0001
0000
0101
0000
0001
0000
1000
0000
0010
0100
0000
0100
0010
0000
,
1000
0100
0001
0100
1000
0010
0100
0001
,
0001
0000
1000
0000
1000
0000
0010
0100
0010
0000
1000
0000
0001
0000
1001
0000
,
0012
0000
1003
0000
0001
0010
0001
0010
0100
0000
0100
0000
2000
0000
3001
0000
,
1000
0000
0010
0000
0100
0001
0100
0001
1000
0000
1000
0000
0002
0000
0013
0000
,
0001
0000
0100
0000
1000
0100
1000
0100
0010
0000
0010
0000
2000
0000
3001
0000
,
1000
0000
0100
0000
0001
0000
0100
0000
0010
0100
0010
0001
1000
0001
0000
0000
,
1000
0010
0001
0000
0021
0000
1030
0000
0001
1000
0001
0100
0010
0100
0000
0000
,
0001
0010
1000
0000
1020
0000
0031
0000
1000
0001
1000
0010
0100
0010
0000
0000
,
1000
0100
0001
0000
0201
0000
1300
0000
0001
0100
0010
1000
0010
0100
0000
0000
,
0001
0000
0010
0000
0100
1000
0001
1000
0010
0000
0010
0000
0100
0001
1001
0000
,
0002
0000
0003
0010
0100
0100
0100
0000
1100
0000
0101
0000
2000
0000
3001
0000
,
1000
0000
0000
0010
0100
0100
0100
0000
0101
0000
1100
0000
0002
0000
1003
0000
,
0020
0000
0030
0100
0001
0001
0001
0000
0011
0000
1010
0000
0002
0000
1003
0000
,
0100
0000
0000
0010
0001
0001
0001
0000
1010
0000
0011
0000
1000
0010
0100
0000
,
0002
0000
0003
0000
1000
0100
0010
0000
0002
0000
0003
0000
1000
0000
0001
0000
,
0100
0010
0100
0010
1000
0000
0100
0010
0100
0010
0001
0000
1000
0000
0010
0100
,
0010
0000
0000
1000
0001
1000
0001
1000
0100
0000
0100
0000
0020
0000
0031
0000
,
1000
0000
0000
0000
0010
0100
0001
1000
0010
0010
0100
0000
0100
0010
0010
0000
,
2002
0000
0000
0000
,
3003
0000
0000
0000
;

//---------------dance-single - ----------------
#NOTES:
     dance-single:
     :
     Easy:
     1:
     0.130722,0.145805,0.030167,0.040222,0.000000,91.000000,88.000000,3.000000,4.000000,0.000000,0.000000,0.130722,0.145805,0.030167,0.040222,0.000000,91.000000,88.000000,3.000000,4.000000,0.000000,0.000000:
0000
0000
0000
0000
,
0000
0000
0000
0000
,
0000
1000
0100
0010
,
0001
0000
0100
0100
,
0000
0001
0100
0010
,
1000
0000
0100
0100
,
0000
1000
0100
0010
,
0001
0000
1000
0000
,
0010
0010
0100
0100
,
0001
0001
0010
0100
,
1000
1000
0010
0010
,
0100
0100
0001
1000
,
1001
0001
0100
0100
,
0001
1000
0100
0100
,
1000
0001
0010
0010
,
0001
1000
0010
0010
,
1000
0010
1000
0010
,
0100
0001
0100
0001
,
1000
0100
1000
0100
,
0010
0001
1000
0001
,
2002
0000
0000
3003
,
1000
0000
0010
0010
,
0100
0000
0001
0001
,
0010
0000
0100
0100
,
1000
0000
0001
0000
,
0010
0000
0100
0000
,
1000
0010
0001
0001
,
0010
1000
0100
0100
,
2002
0000
0000
0000
,
3003
0000
0000
0000
;

//---------------dance-single - ----------------
#NOTES:
     dance-single:
     :
     Medium:
     4:
     0.255697,0.262449,0.020111,0.180999,0.000000,178.000000,176.000000,2.000000,18.000000,0.000000,0.000000,0.255697,0.262449,0.020111,0.180999,0.000000,178.000000,176.000000,2.000000,18.000000,0.000000,0.000000:
0000
0000
0000
0000
,
0000
0000
0000
0000
,
1000
0000
0010
0100
0001
0000
1000
0001
,
2000
0000
3100
0000
1000
0100
0010
0001
,
1000
0000
0001
0100
0010
0000
1000
0010
,
0200
0000
0301
0000
1000
0100
0001
0100
,
1000
0000
0001
0100
0010
0000
1000
0010
,
0002
0000
0013
0000
0100
0001
1000
0000
,
0001
0001
0010
0010
0100
0100
1000
1000
,
0001
0001
1000
1000
0010
0100
0010
0000
,
1000
1000
0010
0010
0100
0100
0001
0001
,
1000
1000
0001
0001
0010
0100
0010
1001
,
0001
0100
1000
0100
0010
0010
2000
3000
,
0001
0010
1000
0010
0100
0100
2000
3000
,
0001
0100
1000
0001
0010
0010
2000
3000
,
0001
0010
1000
0001
0100
0100
1000
1000
,
0001
0100
0020
1030
0010
0010
0100
0100
,
0001
0010
0200
1300
0100
0100
0010
0010
,
0001
0100
2000
3100
0010
0010
1000
1000
,
0001
0010
1000
0010
0001
0100
0010
1000
,
0002
0003
0020
0030
0100
0100
2000
3000
,
0001
0000
0100
0000
0010
1000
0001
0001
,
2000
3000
0200
0300
0010
0010
0002
0003
,
1000
0000
0010
0000
0100
0001
1000
0100
,
0001
0000
1000
0010
0002
0000
1003
0000
,
0001
0100
0010
1000
0010
0100
0001
1000
,
0000
0000
0001
0010
0100
0100
1000
1000
,
0001
0000
1000
0010
0001
1000
0100
0001
,
2002
0000
0000
0000
,
3003
0000
0000
0000
;

//---------------dance-double - ----------------
#NOTES:
     dance-double:
     :
     Hard:
     7:
     0.360562,0.379093,0.160888,0.180999,0.256415,251.000000,235.000000,16.000000,18.000000,0.000000,0.000000,0.360562,0.379093,0.160888,0.180999,0.256415,251.000000,235.000000,16.000000,18.000000,0.000000,0.000000:
// measure 0
00000000
00000000
00000000
00000000
,  // measure 1
00000000
00000000
00000000
00000000
,  // measure 2
00001000
00000000
00100000
00001000
00010000
00000000
00000100
00001000
,  // measure 3
00000002
00000000
00000103
00000000
00000010
00001000
00000001
00000001
,  // measure 4
00000010
00000000
00000100
00001000
00000010
00000000
00010000
00000100
,  // measure 5
00002000
00000000
00003100
00000000
00010000
00001000
01000000
01000000
,  // measure 6
00100000
00000000
10000000
00100000
00010000
00000000
00010000
00100000
,  // measure 7
20000000
00000000
00000000
00000000
30010000
00000000
00000000
00000000
01000000
00100000
10000000
00000000
01000000
00100000
00010000
00000000
,  // measure 8
10000000
01000000
00010000
00001000
00010000
00010000
01000000
10000000
,  // measure 9
10100000
00000000
00010000
00000000
00110000
00000000
10000000
00000000
00100000
00000000
01000000
00001000
00000000
00001000
00010000
00000000
,  // measure 10
00000100
00001000
00000010
00000001
00000010
00000010
00000100
00000001
,  // measure 11
00000001
00000000
00001000
00000000
00001000
00000000
00000010
00000100
00000010
00000000
00010000
00000000
00001000
00000000
00011000
00000000
,  // measure 12
00200000
00000000
00310000
00000000
10000000
00100000
10000000
00100000
01000000
00000000
01000000
00000000
00020000
00000000
10030000
00000000
,  // measure 13
00010000
00000000
00100000
00000000
01000000
10000000
01000000
10000000
00001000
00000000
00010000
00000000
00000200
00000000
00001300
00000000
,  // measure 14
00000010
00000000
00000100
00000000
00000001
00000010
00000001
00000010
00000100
00000000
00001000
00000000
00000020
00000000
00010030
00000000
,  // measure 15
00000100
00000000
00001000
00000000
00000001
00000000
00000100
00000000
00000010
00010000
00000100
00001000
00000001
00000100
00000000
00000000
,  // measure 16
00000001
00000100
00001000
00000000
00000200
00000000
00000310
00000000
00001000
00000100
00010000
00001000
00100000
00010000
00000000
00000000
,  // measure 17
10000000
00100000
00010000
00000000
00200000
00000000
01300000
00000000
00010000
00100000
00001000
00010000
00000100
00001000
00000000
00000000
,  // measure 18
00000001
00000100
00001000
00000000
00020000
00000000
01030000
00000000
10000000
00100000
00010000
00001000
00010000
00100000
00000000
00000000
,  // measure 19
10000000
00000000
01000000
00000000
00010000
00001000
00000010
00000001
00001000
00000000
00000010
00000000
00000100
00000001
00001001
00000000
,  // measure 20
00000002
00000000
00000003
00000010
00000100
00000100
00000100
00000000
00001100
00000000
00000101
00000000
00020000
00000000
00031000
00000000
,  // measure 21
10000000
00000000
00000000
00100000
01000000
01000000
01000000
00000000
01010000
00000000
11000000
00000000
00002000
00000000
00013000
00000000
,  // measure 22
00000200
00000000
00000300
00001000
00000010
00000010
00000010
00000000
00000101
00000000
00001010
00000000
00010100
00000000
00101000
00000000
,  // measure 23
10000000
00000000
00000000
00100000
01000000
01000000
01000000
00000000
01010000
00000000
11000000
00000000
00010000
01000000
00100000
00000000
,  // measure 24
20000000
00000000
30000000
00000000
00010000
00100000
01000000
00000000
20000000
00000000
30000000
00000000
00010000
00000000
01000000
00000000
,  // measure 25
00001000
00100000
00001000
00100000
00000100
00000000
00010000
00000010
00010000
00000010
00000100
00000000
00001001
00000000
00000001
00000010
,  // measure 26
00000100
00000000
00000000
00001000
00000001
00001000
00000001
00001000
00000010
00000000
00000010
00000000
00010000
00000000
00001000
00000000
,  // measure 27
00100000
00000000
00000000
00000000
00010000
10000000
00010000
10000000
01000000
01000000
00100000
00000000
00001000
00001000
00010000
00000000
,  // measure 28
00022000
00000000
00000000
00000000
,  // measure 29
00033000
00000000
00000000
00000000
;
