#TITLE:Polyhymnia;
#SUBTITLE:;
#ARTIST:Scout McMillan;
#TITLETRANSLIT:;
#SUBTITLETRANSLIT:;
#ARTISTTRANSLIT:;
#GENRE:;
#CREDIT:;
#BANNER:Polyhymnia.png;
#BACKGROUND:Polyhymnia-bg.png;
#LYRICSPATH:;
#CDTITLE:;
#MUSIC:Polyhymnia.mp3;
#OFFSET:-0.088;
#SAMPLESTART:29.635;
#SAMPLELENGTH:15.640;
#SELECTABLE:YES;
#BPMS:0.000=138.000
,132.000=69.000
,148.000=138.000
;
#STOPS:
;
#BGCHANGES:;
#KEYSOUNDS:;
#ATTACKS:;

//---------------dance-double - Blank----------------
#NOTES:
     dance-double:
     :
     Hard:
     9:
     0.594,0.807,0.121,0.219,0.526,348.000,11.000,20.000,0.000,0.000,0.000,0.594,0.807,0.121,0.219,0.526,348.000,11.000,20.000,0.000,0.000,0.000:
00000000
00000000
00000000
00000000
,
00000000
00000000
00000000
00000000
,
00000000
00000000
00000000
00000000
,
10000000
00100000
00010000
00001000
00000100
00000000
00000000
00000000
,
00000001
00000010
00001000
00010000
01000000
00000000
00000000
00000000
,
10000000
00100000
00010000
00001000
00000010
00000000
00000000
00000000
,
00000001
00000100
00001000
00010000
01000000
00000000
00000000
00000000
,
10000000
10000000
00010000
00010000
10000000
00100000
00010000
00100000
,
01000000
01000000
00010000
00010000
00100000
00001000
00010000
00000100
,
00001000
00001000
00000001
00000001
00001000
00000010
00000001
00000010
,
00002000
00003100
00000002
00000103
,
00001000
00000010
00000100
00000010
00010000
00000100
00100000
00001000
,
10000000
00100000
00010000
00001000
00000100
00000001
00001000
00000000
,
00000001
00000001
00001000
00001000
00000001
00000100
00001000
00000100
,
00000010
00000010
00001000
00001000
00000100
00010000
00001000
00100000
,
00010000
00010000
10000000
10000000
00010000
01000000
10000000
01000000
,
00020000
00030000
20000000
30000000
,
20100000
00000000
30010000
00000000
10000000
10000000
00010000
00010000
,
10000000
00100000
01000000
00010000
00100000
00001000
00020000
00000000
00000000
00031000
00000000
00000000
,
00000000
00000000
00010000
00000010
00001000
00000010
00000100
00000001
00001000
00000000
00000001
00000000
00001001
00000000
00000000
00000000
,
00000001
00000000
00000010
00000100
00000000
00000100
00000010
00000000
00000001
00000000
00000100
00000000
00001000
00000000
00000100
00000000
,
00000102
00000000
00001003
00000000
00000001
00000001
00001000
00001000
,
00000001
00000100
00000010
00001000
00000100
00010000
00002000
00000000
00000000
00013000
00000000
00000000
,
00220000
00000000
00000000
00000000
00330000
00000000
00010000
01000000
00010000
00000000
00000000
00000000
00000000
00000000
10000000
00000000
,
01000000
00000000
00000000
00100000
00000000
00000000
01000000
00000000
10000000
00010000
00000000
01000000
00000000
00100000
10000000
00000000
,
00010000
00100000
00010000
01000000
00010000
01000000
00001000
00100000
00001000
00010000
00000100
00010000
,
00001000
00000000
00010000
00000000
00022000
00000000
00000000
00033000
,
00001010
00000000
00000011
00000000
00000100
00000100
00000100
00000000
,
00000001
00000000
00000100
00001000
00000000
00001000
00000100
00000000
00000010
00000000
00001000
00000000
00000100
00000000
00000100
00000000
,
00001000
00000100
00001000
00000010
00001000
00000010
00010000
00000100
00010000
00001000
00100000
00001000
,
00010000
00000000
00001000
00000000
00022000
00000000
00000000
00033000
,
00002200
00000000
00000000
00000000
00003300
00000000
00001000
00000010
00001000
00000000
00000000
00000000
00000000
00000000
00000001
00000000
,
00000010
00000000
00000000
00000100
00000000
00000000
00000010
00000000
00000001
00001000
00000000
00000010
00000000
00000100
00000001
00000000
,
00001000
00000000
00000100
00000000
00000010
00000001
00000100
00000001
00001000
00000000
00000001
00000000
00001000
00000010
00000100
00000010
,
00010000
00000000
00001000
00000000
00100000
00010000
01000000
00010000
00200000
00000000
01300000
00000000
20000000
00000000
30010000
00000000
,
10000000
00000000
00010000
00000000
10000000
00100000
00010000
00001000
00000100
00000000
00000001
00000000
00001000
00000100
00000001
00000100
,
00001000
00000000
00001000
00000000
00000010
00000000
00000010
00000000
00010000
00000000
00010000
00000000
00001000
00000000
00001000
00000000
00100000
00010000
00100000
00000000
00010000
01000000
00010000
00000000
01000000
00100000
01000000
00000000
00100000
10000000
00100000
00000000
,
10000000
00000000
01000000
00000000
00010000
00000000
01000000
00000000
10000000
00100000
01000000
00010000
01000000
00100000
10000000
00001000
,
00010000
00000000
00010000
00000000
00001000
00000000
00001000
00000000
00010000
00000010
00000100
00000010
00001000
00000100
00000010
00000001
,
00001000
00000000
00000001
00000100
00002010
00000001
00003000
00001000
,
00000100
00000000
00000000
00010000
00000000
00000000
00001000
00100000
00001000
00100000
00000000
01000000
00000000
01000000
10000000
00010000
,
10000000
00100000
10000000
00000000
00010000
00100000
00010000
00000000
10000000
00100000
01000000
00010000
00100000
00001000
00010000
00000100
,
00001000
00000010
00001000
00000000
00000001
00000010
00000001
00000000
00001000
00000010
00000100
00000010
00010000
00000100
00001000
00000010
,
00010000
00000000
00000000
00000000
00001000
00000000
01000000
00000000
01010000
00000000
00000000
00000000
01000000
00000000
00100000
10000000
,
00100000
00000000
00100000
01000000
00000000
01000000
00010000
00000000
10000000
01000000
00100000
00010000
00001000
00000100
00000010
00000001
,
00002000
00000000
00000000
00000000
,
00003000
00000000
00000000
00000000
;

//---------------dance-single - Blank----------------
#NOTES:
     dance-single:
     :
     Hard:
     9:
     0.636,0.958,0.186,0.252,0.625,366.000,17.000,23.000,0.000,0.000,0.000,0.636,0.958,0.186,0.252,0.625,366.000,17.000,23.000,0.000,0.000,0.000:
0000
0000
0000
0000
,
0000
0000
0000
0000
,
0000
0000
0000
0000
,
1000
0100
0001
0100
1000
0000
0000
0000
,
0001
0100
1000
0100
0001
0000
0000
0000
,
1000
0010
0001
0010
1000
0000
0000
0000
,
0001
0010
1000
0010
0001
0000
0000
0000
,
1000
1000
0001
0001
1000
0100
0001
0100
,
0010
0010
0100
0100
1000
0010
0001
0010
,
1000
1000
0001
0001
1000
0100
0001
0010
,
2000
3010
0200
0301
,
1000
0100
0010
0100
0001
0100
0010
0100
,
1000
0010
0001
0010
1000
0001
1001
0000
,
0001
0001
1000
1000
0001
0010
1000
0010
,
0100
0100
0010
0010
0001
0100
1000
0100
,
0001
0001
1000
1000
0001
0010
1000
0100
,
0002
0003
2000
3000
,
0102
0000
1003
0000
0001
0001
1000
1000
,
0001
0010
0100
1000
0100
0010
0002
0000
0000
1003
0000
0000
,
0000
0000
0001
0010
0001
0100
0001
1000
0001
0000
1000
0000
1001
0000
0000
0000
,
1000
0000
0010
0100
0000
0100
0010
0000
1000
0000
0100
0000
0001
0000
0100
0000
,
2100
0000
3001
0000
1000
1000
0001
0001
,
1000
0010
0100
0001
0100
0010
2000
0000
0000
3001
0000
0000
,
0202
0000
0000
0000
0303
0000
0100
0010
1000
0000
0000
0000
0000
0000
1000
0001
,
2000
0000
0000
0100
0000
0000
3100
0000
1000
0010
0000
0010
0000
0100
0001
1000
,
0001
0100
0001
1000
0100
1000
0001
0010
0001
1000
0010
1000
,
1010
0101
2002
3003
,
1000
0100
0000
0000
0001
0100
0000
0000
1010
0000
0011
0000
1001
0000
0000
0000
,
0001
0000
0010
0100
0000
0100
0010
0000
0001
0000
0100
0000
1000
0000
0100
0000
,
0001
0010
0100
1000
0100
0010
0001
0100
0010
1000
0010
0100
,
0101
1100
2002
3003
,
2020
0000
0000
0000
3030
0000
0010
0100
0001
0000
0000
0000
0000
0000
0001
1000
,
0002
0000
0000
0010
0000
0000
0013
0000
0001
0100
0000
0100
0000
0010
1000
0001
,
1000
0000
0100
0000
0001
0100
0001
0100
1000
0000
0010
0000
0001
0010
0001
0010
,
1000
0000
0100
0000
0001
1000
0010
0001
0200
0000
0310
0000
2000
0000
3001
0000
,
1000
1000
0001
0001
1000
0100
0001
0100
1000
1000
0001
0001
1000
0010
0001
0010
,
1000
0000
1000
0000
0010
0000
0010
0000
0100
0000
0100
0000
0001
0000
0001
0000
1000
0100
1000
0100
0010
0001
0010
0001
1000
0010
1000
0010
0100
0001
0100
0001
,
1000
0100
1000
0000
1000
0100
1000
0000
1000
0010
0100
0001
0100
0010
1000
0010
,
0100
0001
0100
0000
0100
0001
0100
0000
0010
1000
0010
0100
0001
1000
0001
0010
,
0001
0000
0100
0010
2010
0001
3000
1000
,
0100
0000
0000
0100
0000
0000
0010
0001
0010
0001
0000
0010
0000
0100
1000
0001
,
1000
0010
1000
0000
0001
0010
0001
0000
1000
0010
0100
0001
0100
0010
1000
0001
,
1000
0100
1000
0000
0001
0100
0001
0000
1000
0100
0010
0001
0010
0100
1000
0001
,
1000
0000
0000
0000
0010
0000
0100
0000
0102
0000
1000
0000
0003
0000
0001
0010
,
0100
0000
1000
0001
0000
1000
0001
0000
1000
0010
0001
0010
1000
0100
0001
0100
,
2000
0000
0000
0000
,
3000
0000
0000
0000
;

//---------------dance-single - Blank----------------
#NOTES:
     dance-single:
     :
     Easy:
     3:
     0.276,0.252,0.077,0.263,0.000,145.000,7.000,24.000,0.000,0.000,0.000,0.276,0.252,0.077,0.263,0.000,145.000,7.000,24.000,0.000,0.000,0.000:
0000
0000
0000
0000
,
0000
0000
0000
0000
,
0000
0000
0000
0000
,
1000
0010
0100
0000
,
0001
0100
0010
0000
,
1000
0100
0010
0000
,
0001
0010
0100
0000
,
1000
1000
0010
0100
,
0001
0001
0100
0010
,
1000
1000
0100
0010
,
0002
0003
2000
3000
,
0010
0010
0100
0100
,
0001
1000
0001
1001
,
1000
1000
0010
0001
,
0010
0010
0100
0001
,
0100
0100
1000
0100
,
0020
0030
0200
0300
,
0101
0001
0010
0100
,
1000
1000
0002
0003
,
1000
0010
0100
1001
,
0001
0010
0100
1000
,
1010
1000
0100
0010
,
0001
0001
2000
3000
,
0002
0003
0200
0300
,
0020
0030
2000
3000
,
0001
0001
1000
1000
,
0010
0100
2002
3003
,
0010
0010
0100
0100
,
0001
0010
1000
0010
,
0001
0001
1000
1000
,
0010
0100
2002
3003
,
0002
0003
0020
0030
,
0200
0300
2000
3000
,
0001
0100
1000
0100
,
0001
0010
1000
0010
,
0001
0100
1000
0010
,
0001
0010
1000
0100
,
0001
0100
1000
0010
,
0100
0001
0100
0010
,
1000
0100
0001
0100
,
2000
3000
0002
0003
,
1000
0010
0001
0010
,
1000
0100
0001
0100
,
1000
0010
0001
0100
,
2000
3000
0002
0003
,
2002
0000
0000
0000
,
3003
0000
0000
0000
;

//---------------dance-single - Blank----------------
#NOTES:
     dance-single:
     :
     Medium:
     6:
     0.418,0.403,0.219,0.274,0.110,222.000,20.000,25.000,0.000,0.000,0.000,0.418,0.403,0.219,0.274,0.110,222.000,20.000,25.000,0.000,0.000,0.000: // measure 0
0000
0000
0000
0000
,  // measure 1
0000
0000
0000
0000
,  // measure 2
0000
0000
0000
0000
,  // measure 3
1000
0000
0100
0010
0001
0000
0000
0000
,  // measure 4
1000
0000
0010
0100
0001
0000
0000
0000
,  // measure 5
1000
0000
0100
0001
0100
0000
0000
0000
,  // measure 6
1000
0000
0010
0001
0010
0000
0000
0000
,  // measure 7
1000
0000
1000
0000
0010
0100
0010
0100
,  // measure 8
0001
0000
0001
0000
0010
0100
0010
0100
,  // measure 9
1000
0000
1000
0000
0001
0100
0010
1000
,  // measure 10
0002
0003
2000
3000
,  // measure 11
0001
0010
1000
0000
1000
0010
0001
0000
,  // measure 12
0101
1100
2001
3100
,  // measure 13
1000
0000
0001
0000
0100
0010
0100
0010
,  // measure 14
1000
0000
0001
0000
0010
0100
0010
0100
,  // measure 15
1000
0000
0001
0000
1000
0100
0010
0001
,  // measure 16
2000
3000
0002
0003
,  // measure 17
2100
3001
1000
0001
,  // measure 18
0100
0000
0100
0000
0100
0000
0020
0000
0000
0130
0000
0000
,  // measure 19
0000
0001
0010
0100
1000
1000
1000
0000
,  // measure 20
0001
0000
0000
0001
0000
0000
0001
0000
1000
0000
0010
0000
0100
0000
0001
0000
,  // measure 21
0012
1003
0001
1000
,  // measure 22
0010
0000
0010
0000
0010
0000
0200
0000
0000
0310
0000
0000
,  // measure 23
2010
3001
0012
1003
,  // measure 24
2100
3001
0102
1003
,  // measure 25
0001
0000
0001
0000
0001
0000
1000
0000
1000
0000
1000
0000
,  // measure 26
0010
0000
0010
0000
0010
0000
0220
0000
0000
0330
0000
0000
,  // measure 27
0101
0000
1100
0000
0001
0001
0001
0000
,  // measure 28
1000
0000
0000
1000
0000
0000
1000
0000
0001
0000
0010
0000
0100
0000
1000
0000
,  // measure 29
0001
0000
0001
0000
0001
0000
1000
0000
1000
0000
1000
0000
,  // measure 30
0100
0000
0100
0000
0100
0000
0220
0000
0000
0330
0000
0000
,  // measure 31
2010
3001
0012
1003
,  // measure 32
2100
3001
0102
1003
,  // measure 33
0001
0100
1000
0100
0010
1000
0001
0100
,  // measure 34
0001
0010
1000
0010
0100
1000
0001
0100
,  // measure 35
0001
0001
0010
0010
0100
0100
1000
1000
,  // measure 36
0001
0000
0001
0000
1000
0000
1000
0000
0010
0000
0010
0000
1000
0001
1000
0001
,  // measure 37
1000
0000
0010
0000
0100
0001
0010
0001
,  // measure 38
0100
0000
0010
0000
1000
0100
0010
0100
,  // measure 39
1000
0001
0102
1003
,  // measure 40
0001
1000
2100
3001
,  // measure 41
1000
0000
0001
0000
1000
0010
0001
0010
,  // measure 42
1000
0000
0001
0000
1000
0100
0001
0100
,  // measure 43
1000
0010
0102
1003
,  // measure 44
0001
0000
1000
0000
0001
0010
1000
0100
,  // measure 45
0002
0000
0000
0000
,  // measure 46
0003
0000
0000
0000
;
