#VERSION:0.83;
#TITLE:鬼天;
#SUBTITLE:;
#ARTIST:兎々;
#TITLETRANSLIT:Onigami;
#SUBTITLETRANSLIT:;
#ARTISTTRANSLIT:Totto;
#GENRE:;
#ORIGIN:;
#CREDIT:;
#BANNER:Onigami.png;
#BACKGROUND:Onigami-bg.png;
#PREVIEWVID:;
#JACKET:Onigami-jacket.png;
#CDIMAGE:;
#DISCIMAGE:;
#LYRICSPATH:;
#CDTITLE:;
#MUSIC:Onigami.mp3;
#OFFSET:-0.336855;
#SAMPLESTART:74.754448;
#SAMPLELENGTH:15.039999;
#SELECTABLE:YES;
#BPMS:0.000=80.950,
20.000=161.000,
148.000=80.500,
164.000=161.000,
228.000=40.250;
#STOPS:;
#DELAYS:;
#WARPS:;
#TIMESIGNATURES:0.000=4=4;
#TICKCOUNTS:0.000=4;
#COMBOS:0.000=1;
#SPEEDS:0.000=1.000=0.000=0;
#SCROLLS:0.000=1.000;
#FAKES:;
#LABELS:0.000=Song Start;
#BGCHANGES:;
#KEYSOUNDS:;
#ATTACKS:
;

//---------------dance-single - ----------------
#NOTEDATA:;
#CHARTNAME:;
#STEPSTYPE:dance-single;
#DESCRIPTION:;
#CHARTSTYLE:;
#DIFFICULTY:Hard;
#METER:10;
#RADARVALUES:0.702833,0.923029,0.430934,0.448889,0.893290,548.000000,500.000000,48.000000,50.000000,0.000000,0.000000,0.000000,0.000000,0.000000,0.702833,0.923029,0.430934,0.448889,0.893290,548.000000,500.000000,48.000000,50.000000,0.000000,0.000000,0.000000,0.000000,0.000000;
#CREDIT:;
#NOTES:
// measure 0
0000
0000
0000
0000
,  // measure 1
0000
0000
0000
0000
,  // measure 2
1010
0000
0000
2020
0000
0000
3030
0000
0000
0000
0000
0000
0000
0000
0000
0000
,  // measure 3
0101
0000
0000
0202
0000
0000
0303
0000
0000
0000
0000
0000
0000
0000
0000
0000
,  // measure 4
2002
0000
0000
0000
0000
0000
0000
0000
0000
0000
0000
0000
3003
0000
0000
0000
1000
0100
1000
0000
0001
0100
0001
0000
1000
0000
0010
0100
0010
0000
1000
0000
,  // measure 5
0001
0000
0000
1100
0000
0000
1000
0010
0100
0000
0000
0101
0000
0000
0001
0100
,  // measure 6
0010
0000
0000
1010
0000
0000
0010
0100
0001
1000
0010
0000
1000
0001
0010
0001
,  // measure 7
1000
0000
0000
0011
0000
0000
0001
1000
0100
0000
0000
1010
0000
0000
0100
0001
,  // measure 8
0010
0000
0000
0101
0000
0000
0001
1000
0100
1000
0001
0000
0100
0001
1000
0001
,  // measure 9
1000
0000
0000
0011
0000
0000
0001
0010
1000
0000
0000
1010
0000
0000
1000
0010
,  // measure 10
0001
0000
0000
0011
0000
0000
0001
0100
1000
0100
0010
0000
1000
0100
0010
0001
,  // measure 11
1000
0000
0000
0101
0000
0000
0001
0100
1000
0000
0000
1100
0000
0000
1000
0100
,  // measure 12
0010
1000
0001
0000
0010
0001
1000
0000
0001
0100
0010
1000
0010
0100
0001
1000
,  // measure 13
0000
0000
0001
0010
0001
0000
0001
0010
0001
0000
0010
0000
0100
0000
1000
0000
,  // measure 14
0002
0000
0000
0103
2000
0000
0000
3100
0020
0000
1030
0001
2000
0000
3100
0000
,  // measure 15
0000
0000
1000
0010
1000
0000
1000
0010
1000
0000
0010
0000
0100
0000
0001
0000
,  // measure 16
2000
0000
0000
3100
0002
0000
0000
0103
0020
0000
0031
1000
0002
0000
0103
0000
,  // measure 17
0002
0000
0000
0013
0200
0000
1300
0000
0001
0000
0002
0000
0000
0000
0103
0000
,  // measure 18
0020
0000
0000
1030
0200
0000
1300
0000
0002
0000
1003
0100
0010
0001
0010
0100
,  // measure 19
1000
0000
0001
0100
0010
0000
1000
0000
0001
0000
1000
0100
0010
0000
0001
0000
,  // measure 20
1000
0000
0001
1000
0100
0000
1000
0000
0001
1000
0010
0000
0200
0000
0301
0000
,  // measure 21
0000
0000
1000
0100
0010
0000
0010
0100
1000
0000
0010
0000
0001
0000
0010
0000
,  // measure 22
0200
0000
0000
0301
2000
0000
0000
3001
0020
0000
0130
1000
0002
0000
0103
0000
,  // measure 23
0000
0000
0001
0100
0010
0000
0010
0100
0001
0000
0010
0000
1000
0000
0010
0000
,  // measure 24
0200
0000
0000
1300
0002
0000
0000
1003
0020
0000
0130
0001
2000
0000
3100
0000
,  // measure 25
2000
0000
0000
3010
0002
0000
0013
0000
0100
0000
0200
0000
0000
0000
0301
0000
,  // measure 26
2000
0000
0000
3100
0002
0000
0103
1000
0001
0100
0001
0100
0020
0000
1030
0000
,  // measure 27
0002
0000
0000
0013
2000
0000
3010
0001
1000
0000
0010
0000
0100
0000
0001
0000
,  // measure 28
2000
0000
3010
0001
0010
0000
0100
0000
0002
0000
0013
1000
0010
0000
0100
0000
,  // measure 29
1000
0000
0000
0011
0000
0000
0001
0100
0010
0000
0000
1010
0000
0000
1000
0010
,  // measure 30
0100
0000
0000
0101
0000
0000
0100
0010
1000
0001
0100
0000
0001
1000
0100
1000
,  // measure 31
0001
0000
0000
1100
0000
0000
1000
0001
0010
0000
0000
0101
0000
0000
0010
1000
,  // measure 32
0100
0000
0000
1010
0000
0000
1000
0001
0010
0001
1000
0000
0010
1000
0001
1000
,  // measure 33
0001
0000
0000
1100
0000
0000
1000
0100
0001
0000
0000
0101
0000
0000
0001
0100
,  // measure 34
1000
0000
0000
1100
0000
0000
1000
0010
0001
0010
0100
0000
0001
0010
0100
1000
,  // measure 35
0001
0000
0000
1010
0000
0000
1000
0010
0001
0000
0000
0011
0000
0000
0001
0010
,  // measure 36
1000
0100
0010
0001
0010
0100
1000
0001
1000
0010
0100
0001
0100
0010
1000
0001
,  // measure 37
1000
0000
0000
2002
0000
0000
3003
0000
0000
0000
0000
0000
0000
0000
0000
0000
,  // measure 38
1100
0000
0000
2200
0000
0000
3300
0000
0000
0000
0000
0000
0000
0000
0000
0000
,  // measure 39
0011
0000
0000
0022
0000
0000
0033
0000
0000
0000
0000
0000
0000
0000
0000
0000
,  // measure 40
1001
0000
0000
0000
0000
0000
2002
0000
0000
0000
0000
0000
3003
0000
0000
0000
1000
0000
0000
0010
0000
0000
0100
0000
0001
0000
1000
0100
1000
0000
0001
0000
,  // measure 41
1001
0000
0000
0001
0100
0000
0000
0100
1000
0000
0000
1000
0001
0000
0010
0000
,  // measure 42
1001
0000
0000
1000
0100
0000
0000
0100
0001
0000
0000
0001
1000
0000
0010
0000
,  // measure 43
0110
0000
0000
0100
1000
0000
0000
1000
0010
0000
0000
0010
0001
0000
1000
0000
,  // measure 44
0110
0000
0000
0010
1000
0000
0000
1000
0100
0000
0000
0100
0001
0100
1000
0001
,  // measure 45
1000
0000
0000
1000
0010
0000
0000
0010
0001
0000
0000
0001
1000
0000
0100
0000
,  // measure 46
0101
0000
0000
0001
0010
0000
0000
0010
1000
0000
0000
1000
0001
0000
0100
0000
,  // measure 47
1100
0000
0000
1000
0010
0000
0000
0010
0001
0000
0000
0001
1000
0000
0100
0000
,  // measure 48
0010
0000
1000
0001
0100
0000
0001
0000
0100
0000
0010
1000
0001
0000
1000
0000
,  // measure 49
1001
0000
0000
0001
0100
0000
0000
0100
1000
0000
0000
1000
0010
0000
0001
0000
,  // measure 50
1001
0000
0000
1000
0100
0000
0000
0100
0001
0000
0000
0001
0010
0000
0100
0000
,  // measure 51
0110
0000
0000
0100
0001
0000
0000
0001
0010
0000
0000
0010
1000
0000
0100
0000
,  // measure 52
0110
0000
0000
0010
0100
0000
0000
0100
1000
0000
0000
1000
0010
0000
0001
0000
,  // measure 53
0101
0000
0000
0001
0100
0000
0001
0000
1000
0000
0000
0100
1000
0000
0010
0000
,  // measure 54
1010
0000
0000
1000
0010
0000
1000
0000
0001
0000
0000
0010
0001
0000
0100
0000
,  // measure 55
0101
0000
0001
0100
0010
0000
1000
0000
1100
0000
1000
0100
0010
0000
0001
0000
,  // measure 56
2000
3000
0002
0003
,  // measure 57
1000
0100
0010
0100
0001
0100
0010
0100
1000
0010
0100
0010
0001
0010
0100
0010
1000
0010
0001
1000
0100
0001
1000
0001
1000
0100
0001
1000
0010
0001
1000
0001
,  // measure 58
0200
0000
0000
0300
;

//---------------dance-single - ----------------
#NOTEDATA:;
#CHARTNAME:;
#STEPSTYPE:dance-single;
#DESCRIPTION:;
#CHARTSTYLE:;
#DIFFICULTY:Easy;
#METER:4;
#RADARVALUES:0.291137,0.553817,0.008978,0.107733,0.035911,227.000000,226.000000,1.000000,12.000000,0.000000,0.000000,0.000000,0.000000,0.000000,0.291137,0.553817,0.008978,0.107733,0.035911,227.000000,226.000000,1.000000,12.000000,0.000000,0.000000,0.000000,0.000000,0.000000;
#CREDIT:;
#NOTES:
0000
0000
0000
0000
,
0000
0000
0000
0000
,
1000
1000
0000
0000
,
0010
0010
0000
0000
,
0200
0000
0000
0000
0301
0001
1000
1000
,
0010
0010
0100
0100
,
0001
0001
1000
0100
,
0010
0010
0100
0100
,
1000
1000
0001
0100
,
0010
1000
0100
1000
,
0001
1000
0010
0010
,
0100
0001
1000
0001
,
0010
0100
1000
0001
,
0000
1000
0010
0001
,
0010
0010
0100
0100
,
0000
0001
0100
1000
,
0100
0100
0010
0010
,
1000
0100
0001
0001
,
0100
1000
0001
0001
,
1000
0010
0001
0010
,
1000
0100
0001
0100
,
0000
1000
0010
0100
,
1000
1000
0100
0010
,
0000
1000
0100
0001
,
0100
0100
0010
0001
,
1000
0010
0001
0001
,
1000
0100
0001
0001
,
1000
0100
0001
0100
,
2000
3010
0200
0301
,
1000
1000
0100
0100
,
0001
0001
0100
1000
,
0001
0001
0100
0100
,
1000
1000
0100
0001
,
1000
1000
0010
0010
,
0001
0001
0010
1000
,
0001
0001
1000
1000
,
0001
0010
1000
0100
,
0001
0002
0003
0000
,
0010
0020
0030
0000
,
0100
0200
0300
0000
,
1000
0000
2000
0000
3001
0100
0010
1001
,
1000
1000
1000
0100
,
0001
0001
0001
0100
,
1000
1000
1000
0010
,
0001
0010
1000
0001
,
0100
0100
0100
0010
,
1000
1000
1000
0001
,
0010
0010
0010
0100
,
1000
0010
0001
0100
,
1000
1000
1000
0010
,
0100
0100
0100
1000
,
0100
0100
0100
0001
,
1000
0100
0001
0100
,
2000
3010
0200
0301
,
2000
3100
0020
0031
,
1000
0010
0001
0100
,
0001
0010
1000
0001
,
1000
1000
0100
0100
0010
0010
0001
0001
1000
1000
0010
0010
0100
0100
0001
0001
,
2000
0000
0000
3000
;

//---------------dance-single - ----------------
#NOTEDATA:;
#CHARTNAME:;
#STEPSTYPE:dance-single;
#DESCRIPTION:;
#CHARTSTYLE:;
#DIFFICULTY:Medium;
#METER:7;
#RADARVALUES:0.455302,0.501073,0.350134,0.520712,0.175067,355.000000,316.000000,39.000000,58.000000,0.000000,0.000000,0.000000,0.000000,0.000000,0.455302,0.501073,0.350134,0.520712,0.175067,355.000000,316.000000,39.000000,58.000000,0.000000,0.000000,0.000000,0.000000,0.000000;
#CREDIT:;
#NOTES:
0000
0000
0000
0000
,
0000
0000
0000
0000
,
1000
0000
0000
2000
0000
0000
3000
0000
0000
0000
0000
0000
0000
0000
0000
0000
,
0001
0000
0000
0002
0000
0000
0003
0000
0000
0000
0000
0000
0000
0000
0000
0000
,
2002
0000
0000
0000
0000
0000
3003
0000
1000
0000
0010
0000
0100
0001
1000
0000
,
0001
0000
0000
0001
0000
0000
0010
0000
0100
0000
0000
0100
0000
0000
1000
0000
,
0001
0000
0000
0001
0000
0000
0100
0000
0010
0000
1000
0000
0001
0000
1000
0000
,
0001
0000
0000
0001
0000
0000
0100
0000
0010
0000
0000
0010
0000
0000
1000
0000
,
0001
0000
0000
0001
0000
0000
1000
0000
0100
0000
0001
0000
1000
0000
0010
0000
,
0001
0000
0000
0001
0000
0000
0100
0000
1000
0000
0000
1000
0000
0000
0100
0000
,
0001
0000
0000
0001
0000
0000
0010
0000
1000
0000
0010
0000
0001
0000
1000
0000
,
0001
0000
0000
0001
0000
0000
0100
0000
1000
0000
0000
1000
0000
0000
0100
0000
,
0001
0010
1000
0001
0100
0010
0001
1000
,
0000
0001
0001
0100
0100
0010
1000
0001
,
0022
0033
2200
3300
0022
0033
0001
1000
,
0000
0001
0001
0010
0010
0100
1000
0001
,
0202
0303
2020
3030
0202
0303
0001
1000
,
0200
0000
0010
0000
0001
0301
0000
0100
,
1000
0000
1010
0000
0011
0001
0010
0100
,
1000
0010
1000
0000
0001
0010
0001
0000
,
1000
0010
0100
0010
0001
0010
0100
0010
,
0000
1000
1000
0100
0100
0001
0100
1000
,
2020
3030
0202
0303
1001
0001
0010
0100
,
0000
0001
0001
0010
0010
1000
0010
0001
,
0202
0303
2020
3030
1001
1000
0100
0010
,
0002
0000
0100
0000
1000
1003
0000
0001
,
0020
0000
0130
1000
0001
0001
1000
1000
,
1010
0000
0101
0000
0001
0010
1000
0010
,
0200
0310
2001
3100
,
1000
0000
0000
1000
0000
0000
0100
0000
0010
0000
0000
0010
0000
0000
0001
0000
,
1000
0000
0000
1000
0000
0000
0010
0000
0100
0000
0001
0000
1000
0000
0001
0000
,
1000
0000
0000
1000
0000
0000
0010
0000
0100
0000
0000
0100
0000
0000
0001
0000
,
1000
0000
0000
1000
0000
0000
0001
0000
0010
0000
1000
0000
0001
0000
0100
0000
,
1000
0000
0000
1000
0000
0000
0010
0000
0001
0000
0000
0001
0000
0000
0010
0000
,
1000
0000
0000
1000
0000
0000
0100
0000
0001
0000
0100
0000
1000
0000
0001
0000
,
1000
0000
0000
1000
0000
0000
0010
0000
0001
0000
0000
0001
0000
0000
0010
0000
,
1000
0100
0001
1000
0010
0100
1000
0001
,
1000
0000
0000
2000
0000
0000
3000
0000
0000
0000
0000
0000
0000
0000
0000
0000
,
0010
0000
0000
0020
0000
0000
0030
0000
0000
0000
0000
0000
0000
0000
0000
0000
,
0100
0000
0000
0200
0000
0000
0300
0000
0000
0000
0000
0000
0000
0000
0000
0000
,
0001
0000
0000
0000
0000
0000
0002
0000
0000
0000
0000
0000
0003
0000
0000
0000
0010
0000
0000
0100
0000
0000
1000
0000
0001
0000
0000
0000
1001
0000
0000
0000
,
2010
0010
3001
1001
,
0012
0010
1003
1001
,
1200
0301
0201
1300
,
2001
0000
0010
0000
3100
1000
0010
0100
,
0002
0010
0103
1010
,
0201
1300
1100
0110
,
2010
3100
0012
0103
,
0001
0100
1000
0001
0010
1000
0001
1000
,
2001
0100
3001
1100
,
1002
0100
1003
0101
,
2001
0000
0010
0000
3100
0000
1000
0010
,
0002
0023
2030
3100
,
1200
0000
0301
0100
2000
0000
3010
0001
,
0020
0230
0302
1003
,
1200
0000
0310
0001
0200
0000
1300
0100
,
0020
0030
0200
0300
,
0001
0010
0100
1000
0100
0010
0001
1000
0001
0100
0010
1000
0010
0100
0001
1000
,
0002
0000
0000
0003
;
