#TITLE:Nocturnal Type;
#SUBTITLE:;
#ARTIST:Switchworks;
#TITLETRANSLIT:;
#SUBTITLETRANSLIT:;
#ARTISTTRANSLIT:;
#GENRE:TECHNO;
#CREDIT:;
#BANNER:Nocturnal Type.png;
#BACKGROUND:Nocturnal Type-bg.png;
#LYRICSPATH:;
#CDTITLE:;
#MUSIC:Nocturnal Type.mp3;
#OFFSET:-0.135399;
#SAMPLESTART:11.714581;
#SAMPLELENGTH:12.000000;
#SELECTABLE:YES;
#BPMS:0.000000=160.000000
,96.000000=80.000000
,104.000000=160.000000
;
#STOPS:
;
#BGCHANGES:;
#KEYSOUNDS:;
#ATTACKS:;

//---------------dance-single - ----------------
#NOTES:
     dance-single:
     :
     Hard:
     9:
     0.709514,0.838332,0.166136,0.463433,0.677661,568.000000,549.000000,19.000000,53.000000,0.000000,0.000000,0.709514,0.838332,0.166136,0.463433,0.677661,568.000000,549.000000,19.000000,53.000000,0.000000,0.000000:
// measure 0
0000
0000
0000
0000
,  // measure 1
0000
0000
0000
0000
,  // measure 2
0000
0000
0000
0000
,  // measure 3
0000
0000
0000
0000
,  // measure 4
1000
0100
0010
0002
0000
1000
1003
0001
,  // measure 5
1000
0010
0100
0002
0000
1000
1003
0001
,  // measure 6
1000
0100
0001
0200
0000
0010
0310
0001
,  // measure 7
0000
0000
0000
0000
0000
0000
0000
0000
0000
0000
0000
0000
1000
0001
1000
0000
,  // measure 8
0001
0000
0001
0100
0000
0100
0010
0000
1000
0000
0010
0000
0100
0000
0100
0000
,  // measure 9
0001
0000
0001
0010
0000
0010
0100
0000
0100
1000
0000
1000
0100
0000
0010
0000
,  // measure 10
0002
0000
0100
0000
0103
0000
0001
0100
0000
0010
0000
0010
1000
0000
0001
0000
,  // measure 11
0020
0100
0130
2000
0001
3001
1001
0000
,  // measure 12
1000
0000
1000
0010
0000
0010
0100
0000
0001
0000
0100
0000
0010
0000
0010
0000
,  // measure 13
1000
0000
1000
0100
0000
0100
0010
0000
0010
0001
0000
0001
0010
0000
0100
0000
,  // measure 14
2000
0000
0010
0000
3010
0000
1000
0010
0000
0100
0000
0100
0001
0000
1000
0000
,  // measure 15
0200
0010
0310
0002
1000
1003
1001
0000
,  // measure 16
0001
0000
0001
0100
0000
0100
1000
0000
0100
0000
0010
0000
1000
0000
1000
0000
,  // measure 17
0001
0000
0001
0010
0000
0010
1000
0000
1000
0010
0000
0010
0001
0000
1000
0000
,  // measure 18
0002
0000
0100
0000
0103
0000
0010
1000
0000
0010
0000
0100
0001
0000
1000
0000
,  // measure 19
0200
0010
0310
0002
1000
1003
1001
0000
,  // measure 20
1000
0000
1000
0010
0000
0010
0001
0000
0010
0000
0100
0000
0001
0000
0001
0000
,  // measure 21
1000
0000
1000
0100
0000
0100
0001
0000
0001
0100
0000
0100
1000
0000
0001
0000
,  // measure 22
2000
0000
0010
0000
3010
0000
0100
0001
0000
0100
0000
0010
1000
0000
0001
0000
,  // measure 23
0020
0000
0100
0000
0130
0000
2000
0000
0001
0000
3001
0000
1000
0010
0100
0001
,  // measure 24
2000
0000
0000
3000
0020
0000
0000
0030
,  // measure 25
0200
0000
0000
0300
0002
0003
2000
3000
,  // measure 26
0001
0010
0110
0100
0000
1000
1001
1000
,  // measure 27
0001
0100
0110
0010
0000
1000
1001
0001
,  // measure 28
1000
0100
0101
0100
0000
0010
0011
0001
,  // measure 29
1000
0000
0010
0000
0011
0000
0001
0000
0000
0000
0010
0000
0100
0001
0100
0001
,  // measure 30
2000
0000
0000
0010
0000
0000
3100
0000
0100
0000
1000
0000
0010
0000
0001
0000
,  // measure 31
0020
0000
0000
1000
0000
0000
0100
0000
0000
0001
0030
0000
0010
0000
1000
0000
,  // measure 32
0002
0000
0010
0000
0010
0000
0000
0100
0000
0100
0000
0000
1003
0000
0001
0000
,  // measure 33
0200
0000
0010
0000
0010
0000
1000
0000
0001
0000
0301
0000
0010
0100
0010
0100
,  // measure 34
2000
0000
0000
0100
0000
0000
3010
0000
0010
0000
1000
0000
0100
0000
0001
0000
,  // measure 35
0200
0000
0000
1000
0000
0000
0010
0000
0000
0001
0300
0000
0100
0000
1000
0000
,  // measure 36
0002
0000
0100
0000
0100
0000
0000
0010
0000
0010
0000
0000
1003
0000
0001
0000
,  // measure 37
0020
0000
0100
0000
0100
0000
1000
0000
0001
0000
0031
0000
0100
0010
0100
0010
,  // measure 38
2000
0000
0010
0000
0000
0001
0000
0000
0100
0000
0000
0001
0000
0000
0010
0000
,  // measure 39
0000
0100
0000
0000
0010
0000
0000
0001
0000
0000
0100
0000
3100
0000
1000
0000
,  // measure 40
0002
0000
0100
0000
0000
1000
0000
0000
0010
0000
0000
1000
0000
0000
0100
0000
,  // measure 41
0000
0010
0000
0000
0100
0000
0000
1000
0000
0000
0010
0000
0013
0000
0001
0000
,  // measure 42
2000
0000
0100
0000
0000
0010
0000
0000
0001
0000
0000
0100
3000
0000
1000
0000
,  // measure 43
0002
0010
0000
0000
0100
0000
0000
1000
0000
0000
0010
0000
0013
0000
0001
0000
,  // measure 44
2000
0000
0010
0000
0000
0100
0000
0000
0001
0000
0000
0010
3000
0000
1000
0000
,  // measure 45
0002
0100
0000
0000
0010
0000
0000
1000
0000
0000
0100
0000
0103
0000
0001
0000
,  // measure 46
0000
2100
0000
0000
3001
0000
0000
0102
0000
0000
0010
0000
0013
0000
1000
0000
,  // measure 47
0000
0012
0000
0000
1003
0000
0000
2010
0000
0000
0100
0000
3100
0000
0001
0000
,  // measure 48
0000
1020
0000
0000
0130
0000
0000
0021
0000
0000
0100
0000
0130
0000
0001
0000
,  // measure 49
0000
1200
0000
0000
0310
0000
0000
0201
0000
0000
0010
0000
0310
0000
0001
0000
,  // measure 50
0000
1000
0000
1000
0010
0000
0010
0100
0000
0100
0001
0000
0001
0000
1000
0000
,  // measure 51
0000
0001
0000
0001
0010
0000
0010
0100
0000
0100
1000
0000
1000
0000
0001
0000
,  // measure 52
1000
0010
1000
0010
1000
0010
1000
0010
0100
0001
0100
0001
0100
0001
0100
0001
,  // measure 53
2000
0000
0000
3000
,  // measure 54
0001
0000
0010
0000
0100
1000
0000
0100
1000
0000
0010
1000
0000
0010
1000
0000
,  // measure 55
0010
0100
0000
0010
0100
0000
0001
0100
0000
0001
1000
0000
1000
0000
0001
0000
,  // measure 56
1000
0000
0100
0000
0010
0001
0000
0010
0001
0000
0100
0001
0000
0100
0001
0000
,  // measure 57
0100
0010
0000
0100
0010
0000
1000
0010
0000
1000
0001
0000
0001
0000
1000
0000
,  // measure 58
0001
0000
0100
0000
0010
1000
0000
0010
0100
0000
0001
0100
0000
0001
0010
0000
,  // measure 59
0001
1000
0000
0100
1000
0000
0010
1000
0000
0010
0100
0000
0100
0000
0001
0000
,  // measure 60
1000
0000
0010
0000
0100
0001
0000
0100
0010
0000
1000
0010
0000
1000
0100
0000
,  // measure 61
1000
0001
0000
0010
0001
0000
0100
0001
0000
0100
0010
0000
1000
0001
1000
0001
,  // measure 62
1000
0000
1000
0100
0000
0100
0001
0000
0100
0000
0010
0000
0001
0000
0001
0000
,  // measure 63
1000
0000
1000
0010
0000
0010
0001
0000
0001
0010
0000
0010
0100
0000
0100
0000
,  // measure 64
0002
0000
0010
0000
0013
0000
0100
1000
0000
0010
0000
0001
0010
0000
0100
0000
,  // measure 65
0002
0000
1003
0100
1000
0000
0002
0000
1003
0010
1000
0000
0001
0010
0100
1000
,  // measure 66
0001
0000
0001
0010
0000
0010
1000
0000
0010
0000
0100
0000
1000
0000
1000
0000
,  // measure 67
0001
0000
0001
0100
0000
0100
1000
0000
1000
0100
0000
0100
0010
0000
0010
0000
,  // measure 68
2000
0000
0100
0000
3100
0000
0010
0001
0000
0100
0000
1000
0100
0000
0010
0000
,  // measure 69
2000
0000
3001
0010
0001
0000
2000
0000
3001
0100
0001
0000
1000
0100
0010
0001
,  // measure 70
2000
0010
3010
1000
,  // measure 71
0002
0010
0013
0001
,  // measure 72
2000
0100
3100
1000
,  // measure 73
0002
0100
0103
1001
;

//---------------dance-single - ----------------
#NOTES:
     dance-single:
     Pseudo-ITG carnage:
     Challenge:
     10:
     0.904381,1.066742,0.052464,0.078696,1.162953,724.000000,718.000000,6.000000,9.000000,0.000000,0.000000,0.904381,1.066742,0.052464,0.078696,1.162953,724.000000,718.000000,6.000000,9.000000,0.000000,0.000000:
// measure 0
0000
0000
0000
0000
,  // measure 1
0000
0000
0000
0000
,  // measure 2
0000
0000
0000
0000
,  // measure 3
0000
0000
0000
0000
,  // measure 4
1000
0001
0010
0000
0100
0000
0010
0000
0001
0000
0100
0000
0010
0000
1000
0000
,  // measure 5
0100
1000
0010
0000
0100
0000
0001
0000
0100
0000
1000
0000
0100
0000
0001
0000
,  // measure 6
0010
0001
0100
0000
0010
0000
1000
0000
0001
0000
0010
0000
0100
1000
0001
1000
,  // measure 7
0000
0000
0000
0000
0000
0000
0000
0000
0000
0000
0000
0000
0100
0010
0100
0010
,  // measure 8
0001
0000
0100
0001
0000
0010
0001
0000
0100
0000
0010
0000
1000
0100
1000
0100
,  // measure 9
0010
0000
0100
1000
0000
0010
1000
0000
0001
0100
0000
0010
1000
0100
1000
0001
,  // measure 10
1000
0000
0010
1000
0010
0000
0010
1000
0000
0100
0000
0010
0001
0010
0001
0100
,  // measure 11
0010
0000
0100
0001
0100
0000
1000
0000
0100
0001
0100
0000
0100
0010
0100
0010
,  // measure 12
1000
0000
0100
1000
0000
0010
1000
0000
0100
0000
0010
0000
0001
0100
0001
0100
,  // measure 13
0010
0000
0100
0001
0000
0010
0001
0000
1000
0100
0000
0010
0001
0100
0001
1000
,  // measure 14
0001
0000
0010
0001
0010
0000
0010
0001
0000
0100
0000
0010
1000
0010
1000
0100
,  // measure 15
0010
0000
0100
1000
0100
0000
0001
0000
0100
1000
0100
0000
1000
0100
0010
0001
,  // measure 16
0100
0000
0010
0100
0000
0001
0100
0000
1000
0000
0100
0000
0001
0010
0100
1000
,  // measure 17
0010
0000
1000
0010
0000
0100
0010
0000
1000
0001
0000
0100
0010
1000
0010
0100
,  // measure 18
0001
0000
0010
0100
0010
0000
0001
1000
0000
0100
0000
1000
0001
0100
0001
0010
,  // measure 19
0001
0000
1000
0010
1000
0000
0001
0000
0100
0001
0010
0000
0001
0100
0010
1000
,  // measure 20
0100
0000
0010
0100
0000
1000
0100
0000
0001
0000
0100
0000
1000
0010
0100
0001
,  // measure 21
0010
0000
0001
0010
0000
0100
0010
0000
0001
1000
0000
0100
0010
0001
1000
0010
,  // measure 22
1000
0000
0100
0010
0001
0000
0010
1000
0000
0010
0000
0001
0100
0010
1000
0001
,  // measure 23
0010
0000
0100
1000
0100
0000
0010
0000
0001
0100
0001
0000
0001
0010
0100
1000
,  // measure 24
0002
0000
0010
0000
0000
1000
0000
0000
0100
0000
0000
1000
0000
0000
0013
0000
0200
0000
0010
0000
0000
1000
0000
0000
1000
0000
0000
0010
0000
0000
1300
0000
,  // measure 25
0020
0000
0100
0000
0000
0100
0000
0000
0001
0000
0000
0100
0000
0000
1030
0000
2000
0000
0100
0000
0000
0010
0000
0000
0001
0000
0000
0010
0000
0000
3100
0000
,  // measure 26
1000
0000
0001
0000
0001
0100
0000
0100
0010
0000
0010
1000
0000
1000
0001
0000
,  // measure 27
0001
0000
1000
0000
1000
0010
0000
0010
0100
0000
0100
0001
0000
0001
1000
0000
,  // measure 28
0100
0000
0010
0000
0001
0010
0000
0100
1000
0000
0001
0100
0000
0010
1000
0000
,  // measure 29
0100
0000
0010
0000
0100
1000
0000
1000
0001
0000
0001
0100
0000
0100
0010
0000
,  // measure 30
1000
0000
0100
1000
0000
0100
1000
0000
1001
0000
0000
0000
0001
0000
1000
0000
,  // measure 31
0001
0000
0100
0001
0000
0100
0001
0000
0000
0100
0000
0000
0010
0000
1000
0000
,  // measure 32
0100
0000
0100
0000
0010
0000
0001
1000
0000
0100
0000
0010
0001
0000
1000
0000
,  // measure 33
0001
0000
0100
0001
0100
0000
0001
0000
0010
0001
0010
0000
0100
0000
1000
0000
,  // measure 34
0001
0000
0010
0001
0000
0010
0001
0000
1001
0000
0000
0000
1000
0000
0001
0000
,  // measure 35
1000
0000
0010
1000
0000
0010
1000
0000
0000
0100
0000
0000
0010
0000
0001
0000
,  // measure 36
0100
0000
0100
0000
0010
0000
1000
0001
0000
0100
0000
0010
1000
0000
0001
0000
,  // measure 37
1000
0000
0100
1000
0100
0000
1000
0000
0010
1000
0010
0000
0100
0000
0001
0000
,  // measure 38
2000
0000
0100
0000
0000
0010
0000
0000
0001
0000
0000
0100
0000
3000
1000
0000
,  // measure 39
0001
0020
0000
0000
0100
0000
0000
1000
0000
0000
0100
0000
0001
0000
0031
0000
,  // measure 40
0001
1000
0001
0000
1000
0100
0000
0100
0010
0000
0010
0100
0000
0100
1000
0000
,  // measure 41
1000
0001
0000
0001
0100
0000
0100
0010
0000
0010
1000
0000
0001
0000
0001
0000
,  // measure 42
0002
0000
0100
0000
0000
0010
0000
0000
1000
0000
0000
0010
0000
0003
0001
0000
,  // measure 43
1000
0020
0000
0000
1000
0000
0000
0001
0000
0000
0100
0000
1000
0000
1030
0000
,  // measure 44
1000
0001
1000
0000
0001
0100
0000
0100
0010
0000
0010
0100
0000
0100
0001
0000
,  // measure 45
0001
1000
0000
1000
0100
0000
0100
0010
0000
0010
0001
0000
0100
0000
0010
0000
,  // measure 46
1000
0100
0010
0001
,  // measure 47
1000
0010
1000
0001
,  // measure 48
0100
1000
0100
0001
,  // measure 49
0010
0100
1000
0001
,  // measure 50
1000
0100
1000
0001
0100
0010
0100
0001
,  // measure 51
0010
0100
1000
0010
0100
0001
1000
0010
,  // measure 52
1000
0100
1000
0100
0010
0100
0010
0100
0010
0001
0010
0001
1000
0001
1000
0001
,  // measure 53
0200
0010
0010
0000
0310
0000
0000
0000
,  // measure 54
0001
0100
0001
0100
0001
1000
0001
1000
0001
0010
0001
0100
0010
0100
0001
0010
,  // measure 55
0100
1000
0100
1000
0001
1000
0001
1000
0100
0010
0100
1000
0100
0010
0001
1000
,  // measure 56
0100
0001
0100
1000
0010
0100
0001
1000
,  // measure 57
0010
1000
0001
0010
1000
0010
0001
0100
,  // measure 58
0010
1000
0010
1000
0100
1000
0100
1000
0001
1000
0010
0100
0001
0100
0010
1000
,  // measure 59
0001
0010
0001
0010
0001
1000
0001
1000
0100
1000
0001
0010
0001
0100
0010
1000
,  // measure 60
0010
0001
0010
1000
0001
0010
0100
1000
,  // measure 61
0100
0000
0001
0000
0100
0000
1000
0000
0010
0000
0100
0000
0001
0100
0010
1000
,  // measure 62
0100
0000
0010
0001
0000
0001
1000
0000
0001
0000
1000
0100
1000
0010
0100
0001
,  // measure 63
0010
0000
0010
1000
0000
1000
0010
0000
0010
0001
0000
0001
0100
0010
1000
0001
,  // measure 64
1000
0000
0100
1000
0100
0000
0001
0100
0000
1000
0000
0010
1000
0100
0010
0001
,  // measure 65
0011
0000
0001
0100
0001
0000
0011
0000
0010
0001
1000
0000
0001
0100
0010
1000
,  // measure 66
0100
0000
1000
0010
0000
0100
0001
0000
0100
0000
0010
0100
0001
0010
0100
1000
,  // measure 67
0010
0000
0010
0100
0000
0100
0001
0000
0001
0010
0000
0010
0100
0010
0001
1000
,  // measure 68
0001
0000
0100
0001
0010
0000
1000
0010
0000
0001
0000
0100
0010
1000
0001
1000
,  // measure 69
1010
0000
0010
0100
0001
0000
1010
0000
0010
1000
0100
0000
1000
0100
0010
0001
,  // measure 70
1000
0100
1000
0000
1000
0100
1000
0000
0001
0010
0001
0000
0001
0010
0001
0000
,  // measure 71
1000
0010
1000
0000
1000
0010
1000
0000
0001
0100
0001
0000
0001
0100
0001
0000
,  // measure 72
0010
0100
0010
0000
0100
0010
0100
0000
0010
0001
0010
0000
0010
0001
0010
0000
,  // measure 73
0100
0010
0100
0000
0010
0100
0010
0000
0100
1000
0100
0000
0010
0001
1000
0001
;

//---------------dance-single - ----------------
#NOTES:
     dance-single:
     :
     Easy:
     5:
     0.403474,0.451410,0.332272,0.104928,0.000000,323.000000,285.000000,38.000000,12.000000,0.000000,0.000000,0.403474,0.451410,0.332272,0.104928,0.000000,323.000000,285.000000,38.000000,12.000000,0.000000,0.000000:
// measure 0
0000
0000
0000
0000
,  // measure 1
0000
0000
0000
0000
,  // measure 2
0000
0000
0000
0000
,  // measure 3
0000
0000
0000
0000
,  // measure 4
1000
0100
1000
0010
,  // measure 5
0100
0001
0100
0010
,  // measure 6
1000
0100
0001
0100
,  // measure 7
0000
0000
0000
0000
,  // measure 8
1000
0010
0100
0001
,  // measure 9
0100
0010
1000
0001
,  // measure 10
1000
0100
0001
0100
,  // measure 11
1000
1010
0001
0011
,  // measure 12
0001
0100
0010
1000
,  // measure 13
0010
0100
0001
1000
,  // measure 14
0001
0010
1000
0010
,  // measure 15
0001
0101
1000
1100
,  // measure 16
1000
0010
0001
0100
,  // measure 17
0001
0010
1000
0001
,  // measure 18
1000
0100
0001
0010
,  // measure 19
0001
0101
0100
1100
,  // measure 20
0001
0100
1000
0010
,  // measure 21
1000
0100
0001
1000
,  // measure 22
0001
0010
1000
0100
,  // measure 23
1000
0000
1010
0000
0010
0000
0001
1000
,  // measure 24
0002
0003
0020
0030
,  // measure 25
0200
0000
0300
0000
2000
3000
0002
0003
,  // measure 26
1000
1010
0010
0110
,  // measure 27
0100
0101
0001
1001
,  // measure 28
0001
0011
0010
0110
,  // measure 29
0100
0000
1100
0000
1000
0000
0001
1000
,  // measure 30
0002
0010
0103
1001
,  // measure 31
0001
0000
0010
0000
0100
0000
1000
0001
,  // measure 32
1000
0010
0001
0010
,  // measure 33
0100
1001
0010
1001
,  // measure 34
2000
0100
3010
1001
,  // measure 35
1000
0000
0100
0000
0010
0000
0001
1000
,  // measure 36
0001
0100
1000
0100
,  // measure 37
0010
1001
0100
1001
,  // measure 38
2010
0010
0100
0100
,  // measure 39
0001
0001
0100
3010
,  // measure 40
0012
0010
0100
0100
,  // measure 41
1000
1000
0010
0103
,  // measure 42
0102
0100
0010
0010
,  // measure 43
1000
1000
0010
0103
,  // measure 44
2100
0100
0010
0010
,  // measure 45
0001
0001
0100
3010
,  // measure 46
1000
0100
0010
1001
,  // measure 47
0001
0100
0010
1001
,  // measure 48
1000
0010
0100
0101
,  // measure 49
0001
0010
0100
1100
,  // measure 50
1000
0010
0001
0011
,  // measure 51
0001
0010
1000
1001
,  // measure 52
1000
0100
0001
0010
,  // measure 53
2000
0000
0000
3000
,  // measure 54
0001
0010
0100
1000
,  // measure 55
0100
0000
0010
0000
0001
0000
1000
0001
,  // measure 56
1000
0010
0100
0001
,  // measure 57
0100
0000
0010
0000
1000
0000
0001
1000
,  // measure 58
0001
0010
0100
1000
,  // measure 59
0100
0000
0001
0000
0100
0000
0010
0001
,  // measure 60
1000
0010
0001
0010
,  // measure 61
0100
0000
0001
0000
1000
0000
0001
0010
,  // measure 62
0100
0000
1000
0000
0001
0100
0001
0000
,  // measure 63
1000
0000
0010
0000
0100
0001
0100
0001
,  // measure 64
1000
0100
0001
0100
,  // measure 65
1000
0101
0001
1100
,  // measure 66
0010
0000
0001
0000
1000
0010
1000
0000
,  // measure 67
0001
0000
0100
0000
0010
1000
0010
1000
,  // measure 68
0001
0010
1000
0010
,  // measure 69
0001
0000
1010
0000
1000
0000
0011
0001
,  // measure 70
1000
0010
1000
1010
,  // measure 71
0001
0010
0001
0011
,  // measure 72
1000
0100
1000
1100
,  // measure 73
0001
0100
0001
1001
;

//---------------dance-single - ----------------
#NOTES:
     dance-single:
     :
     Medium:
     7:
     0.544627,0.548140,0.341016,0.393480,0.201112,436.000000,397.000000,39.000000,45.000000,0.000000,0.000000,0.544627,0.548140,0.341016,0.393480,0.201112,436.000000,397.000000,39.000000,45.000000,0.000000,0.000000:
// measure 0
0000
0000
0000
0000
,  // measure 1
0000
0000
0000
0000
,  // measure 2
0000
0000
0000
0000
,  // measure 3
0000
0000
0000
0000
,  // measure 4
1000
0010
0100
0000
0001
0000
1001
0000
,  // measure 5
0001
0010
0100
0000
1000
0000
1001
0000
,  // measure 6
1000
0010
0001
0000
0010
0000
1001
0000
,  // measure 7
0000
0002
0023
0230
2300
3000
0000
0000
,  // measure 8
0001
0000
0000
0010
0000
0000
0100
0000
1000
0000
1000
0000
0001
0000
0001
0000
,  // measure 9
1000
0000
0000
0010
0000
0000
0001
0000
0000
0010
0000
0000
0100
0000
0100
0000
,  // measure 10
0001
0000
0010
0000
0001
0000
0000
0010
0000
0100
0000
0000
1000
0000
0001
0000
,  // measure 11
1000
0010
0010
0100
0001
0001
1001
0000
,  // measure 12
1000
0000
0000
0100
0000
0000
0010
0000
0001
0000
0001
0000
1000
0000
1000
0000
,  // measure 13
0001
0000
0000
0100
0000
0000
1000
0000
0000
0100
0000
0000
0010
0000
0010
0000
,  // measure 14
1000
0000
0100
0000
1000
0000
0000
0100
0000
0010
0000
0000
0001
0000
1000
0000
,  // measure 15
0001
0100
0100
0010
1000
1000
1001
0000
,  // measure 16
1000
0000
0000
0100
0000
0000
0001
0000
0100
0000
1000
0000
0001
0000
0001
0000
,  // measure 17
1000
0000
0000
0010
0000
0000
0001
0000
0000
0010
0000
0000
1000
0000
0001
0000
,  // measure 18
0010
0000
0100
0000
0100
0000
0000
1000
0000
0001
0000
0000
0100
0000
0010
0000
,  // measure 19
1000
0100
0100
0010
0001
0001
1001
0000
,  // measure 20
0001
0000
0000
0010
0000
0000
1000
0000
0010
0000
0001
0000
1000
0000
1000
0000
,  // measure 21
0001
0000
0000
0100
0000
0000
1000
0000
0000
0100
0000
0000
0001
0000
1000
0000
,  // measure 22
0100
0000
0010
0000
0010
0000
0000
0001
0000
1000
0000
0000
0010
0000
0100
0000
,  // measure 23
0001
0010
0010
0100
1000
1000
0001
0100
,  // measure 24
0020
0000
0000
0030
0200
0000
0000
0300
,  // measure 25
0002
0000
0000
0003
0020
0030
0200
0300
,  // measure 26
1100
0000
0101
0000
1000
0100
0001
0000
,  // measure 27
0101
0000
1100
0000
0001
0100
1000
0000
,  // measure 28
0011
0000
1010
0000
0001
0010
1000
0000
,  // measure 29
1010
0000
0011
0000
1000
0010
0001
0010
,  // measure 30
0100
0000
0101
0000
0001
0010
0001
0010
,  // measure 31
0200
1300
0002
1003
,  // measure 32
1010
0000
0101
0000
0001
0010
0100
0000
,  // measure 33
1000
0010
0010
0001
0010
0010
1001
0000
,  // measure 34
0010
0000
1010
0000
1000
0100
1000
0100
,  // measure 35
0020
0031
2000
3001
,  // measure 36
0101
0000
1010
0000
1000
0100
0010
0000
,  // measure 37
0001
0100
0100
1000
0100
0100
1001
0000
,  // measure 38
1020
0032
2003
3200
,  // measure 39
0320
0000
2030
0000
3001
1000
0001
1000
,  // measure 40
0002
0023
2030
3002
,  // measure 41
0203
0000
0320
0000
0031
1000
0001
1000
,  // measure 42
0002
0203
2300
3020
,  // measure 43
2030
0000
3200
0000
0301
0010
0100
1000
,  // measure 44
0002
0023
2030
3200
,  // measure 45
2300
0000
3020
0000
0031
0100
0010
1000
,  // measure 46
0001
0011
0001
0101
,  // measure 47
0001
0000
1001
0000
0001
0010
1000
0010
,  // measure 48
0100
1100
1000
1010
,  // measure 49
1000
0000
1001
0000
1000
0010
0001
0010
,  // measure 50
0100
0011
0100
1010
,  // measure 51
0100
0000
1001
0000
1000
0100
0001
0100
,  // measure 52
1000
1000
1000
1000
0001
0001
0001
0001
,  // measure 53
0000
2000
3020
0230
0302
0000
0003
0000
,  // measure 54
1000
0000
0100
0000
0000
0001
0000
0000
0100
0000
0000
1000
0000
0000
0100
0000
,  // measure 55
0000
0001
0000
0000
0100
0000
0000
0010
0000
0000
0001
0000
0001
0000
1000
0000
,  // measure 56
0000
0000
0001
0000
0000
0100
0000
0000
1000
0000
0000
0100
0000
0000
0001
0000
,  // measure 57
0000
0100
0000
0000
0010
0000
0000
1000
0000
0000
0001
0000
0001
0000
0001
0000
,  // measure 58
0000
0000
1000
0000
0000
0100
0000
0000
0001
0000
0000
0100
0000
0000
1000
0000
,  // measure 59
0000
0100
0000
0000
0010
0000
0000
0001
0000
0000
1000
0000
1000
0000
0010
0000
,  // measure 60
0000
0000
0100
0000
0000
0001
0000
0000
0010
0000
0000
1000
0000
0000
0010
0000
,  // measure 61
0000
0100
0000
0000
1000
0000
0000
0001
0000
0000
0100
0000
0010
0000
0010
0000
,  // measure 62
1000
0000
0000
0001
0000
0000
1001
0000
1000
0000
0010
0000
0001
0000
0010
0000
,  // measure 63
0100
0000
0000
0101
0000
0000
0001
0000
0000
1001
0000
0000
1000
0000
0100
0000
,  // measure 64
0010
0000
0001
0000
1000
0000
0000
0010
0000
1000
0000
0000
0001
0000
0010
0000
,  // measure 65
0100
1000
1000
0001
0100
0100
0010
1000
,  // measure 66
0001
0000
0000
1000
0000
0000
1001
0000
0001
0000
0100
0000
1000
0000
0100
0000
,  // measure 67
0010
0000
0000
1010
0000
0000
1000
0000
0000
1001
0000
0000
0001
0000
0010
0000
,  // measure 68
0100
0000
1000
0000
0001
0000
0000
0100
0000
0001
0000
0000
1000
0000
0100
0000
,  // measure 69
0010
0001
0001
1000
0010
0010
0100
0001
,  // measure 70
2000
0010
0100
3001
,  // measure 71
0002
0010
0100
1003
,  // measure 72
2000
0100
0001
3001
,  // measure 73
0002
0100
1003
1001
;
