#VERSION:0.83;
#TITLE:Miracle∞Hinacle -NJK Special!! DJ Command Mix-;
#SUBTITLE:;
#ARTIST:3L;
#TITLETRANSLIT:;
#SUBTITLETRANSLIT:;
#ARTISTTRANSLIT:;
#GENRE:;
#ORIGIN:;
#CREDIT:;
#BANNER:Miracle Hinacle -NJK Special!! DJ Command Mix-.png;
#BACKGROUND:Miracle Hinacle -NJK Special!! DJ Command Mix--bg.png;
#PREVIEWVID:;
#JACKET:Miracle Hinacle -NJK Special!! DJ Command Mix--jacket.png;
#CDIMAGE:;
#DISCIMAGE:;
#LYRICSPATH:;
#CDTITLE:;
#MUSIC:Miracle Hinacle -NJK Special!! DJ Command Mix-.mp3;
#OFFSET:-0.068000;
#SAMPLESTART:50.775002;
#SAMPLELENGTH:15.620000;
#SELECTABLE:YES;
#BPMS:0.000=140.000,
32.000=162.020;
#STOPS:;
#DELAYS:;
#WARPS:;
#TIMESIGNATURES:0.000=4=4;
#TICKCOUNTS:0.000=4;
#COMBOS:0.000=1;
#SPEEDS:0.000=1.000=0.000=0;
#SCROLLS:0.000=1.000;
#FAKES:;
#LABELS:0.000=Song Start;
#BGCHANGES:;
#KEYSOUNDS:;
#ATTACKS:
;

//---------------dance-single - Blank----------------
#NOTEDATA:;
#CHARTNAME:;
#STEPSTYPE:dance-single;
#DESCRIPTION:Blank;
#CHARTSTYLE:;
#DIFFICULTY:Hard;
#METER:8;
#RADARVALUES:0.605155,0.655468,0.264144,0.322843,0.220120,433.000000,406.000000,27.000000,33.000000,0.000000,0.000000,0.000000,0.000000,0.000000,0.605155,0.655468,0.264144,0.322843,0.220120,433.000000,406.000000,27.000000,33.000000,0.000000,0.000000,0.000000,0.000000,0.000000;
#CREDIT:;
#NOTES:
0000
0000
0000
0000
,
0000
0000
0000
0000
,
0000
0000
0000
0000
,
0000
0000
0000
0000
0000
0000
1000
0001
,
2000
0000
0010
0000
3100
0000
1000
0100
,
0001
0100
1000
0001
1000
0000
0001
0100
,
0020
0000
0100
0000
0130
0001
1000
0001
,
2000
0000
0000
0000
3001
0000
0000
0000
0010
0100
0000
0010
0100
0000
1000
0001
,
1000
0000
1001
0000
0001
0010
0100
1000
,
0001
0100
0001
0000
0100
0000
0010
0000
1000
0000
0000
1000
0000
0000
0002
0000
,
0003
0000
1000
0100
1000
0000
0100
0000
0010
0000
0000
0010
0000
0000
0001
0000
,
1000
0010
0001
0010
1000
0100
0001
0100
,
0000
0000
1100
0000
0000
0000
1000
0001
1000
0000
1000
0000
0010
0000
0000
0000
,
1000
0010
1000
0000
0010
0000
0100
0000
0001
0000
0000
0001
0000
0000
2000
0000
,
3000
0000
0001
0010
0001
0000
0010
0000
0100
0000
0000
0000
1001
0000
0000
0000
,
0001
0100
1000
0100
0001
0010
1000
0010
,
0001
0100
0000
0010
0000
1000
0002
0000
0000
0000
0100
0000
0103
0000
0000
0000
,
0001
0010
0100
1000
0100
0010
0001
0200
,
0000
0000
0010
0000
0310
0000
0000
0000
1001
0000
0000
0001
1000
0000
0100
0000
,
1000
0010
0010
0100
0001
0010
0010
0100
,
1000
0010
0001
0010
0200
0000
0310
0000
,
1000
0100
0010
0001
0010
0100
1000
0020
,
0000
0000
0100
0000
0130
0000
0000
0000
1001
0000
0000
1000
0001
0000
0010
0000
,
0001
0100
0100
0010
1000
0100
0100
0011
,
0000
0000
1010
0000
0000
0000
1001
0000
0000
0000
1000
0010
1000
0000
0001
0010
,
0002
0000
1003
0000
0001
0100
1000
0100
,
0020
0100
0130
0101
,
2010
0000
3001
0000
1000
0010
0001
0010
,
0200
0010
0310
1010
,
0102
0000
0010
0000
0103
0000
0001
0001
,
2000
0010
3010
1010
,
2100
0010
3001
1001
,
0001
0100
0010
1000
0001
0100
0010
1000
0001
0000
0001
0000
1000
0000
1000
0000
,
1200
0000
0000
0000
0301
0000
0100
0000
1000
0000
0000
0010
0000
0000
0100
0000
,
0001
0000
1000
1000
0100
0100
0010
0010
,
0021
0000
0000
0000
1030
0000
0010
0000
0001
0000
0000
0100
0000
0000
0010
0000
,
1000
0000
0001
0001
0010
0010
0100
1000
,
0002
0000
0010
0000
0103
0000
0001
0100
,
1000
0100
0001
1000
0001
0000
1000
0100
,
0020
0000
0100
0000
0130
1000
0010
0100
,
0002
0000
1003
0000
0010
0010
0100
0001
,
0021
0000
0000
0000
1030
0000
0010
0000
0001
0000
0000
0100
0000
0000
0010
0000
,
1000
0000
0001
0001
0010
0010
0100
0100
,
1200
0000
0000
0000
0301
0000
0100
0000
1000
0000
0000
0010
0000
0000
0100
0000
,
0001
0000
1000
1000
0100
0100
0010
0001
,
2000
0000
0100
0000
3010
0000
1000
0010
,
0001
0010
1000
0001
1000
0000
0001
0010
,
0200
0000
0010
0000
0310
0001
0100
0010
,
1000
0100
0010
0001
1000
0100
0010
0001
1000
0000
0100
0000
0001
0000
0100
0000
,
2000
0010
0100
3001
,
1000
0010
0001
0010
0100
0001
0010
0100
,
1000
0000
0101
0000
0001
0010
1000
0010
,
0000
0110
0000
0011
0000
0001
0100
0010
,
2000
0100
0010
3001
,
1000
0100
0001
0100
0010
0001
0100
0010
,
1000
0000
0102
0000
0010
0010
0000
1003
,
0001
0010
0000
0100
0000
1000
0000
0010
0100
0000
0000
0000
1001
0000
0000
0000
,
1000
0010
1000
0000
0010
0000
0100
0000
0001
0000
0000
0001
0000
0000
2000
0000
,
3000
0000
0001
0010
0001
0000
0010
0000
0100
0000
0000
0100
0000
0000
1000
0000
,
0001
0100
1000
0100
0001
0010
1000
0010
,
0000
0000
0011
0000
0000
0000
0001
1000
0001
0000
0001
0000
0100
0000
0000
0000
,
0001
0100
0001
0000
0100
0000
0010
0000
1000
0000
0000
1000
0000
0000
0002
0000
,
0003
0000
1000
0100
1000
0000
0100
0000
0010
0000
0000
0000
1001
0000
0000
0000
,
1000
0010
0001
0010
1000
0100
0001
0100
,
1000
0010
0000
0100
0000
0001
2000
0000
0000
0000
0010
0000
3010
0000
0000
0000
,
2002
0000
0000
0000
,
0000
0000
0000
0000
,
3003
0000
0000
0000
;

//---------------dance-double - Blank----------------
#NOTEDATA:;
#CHARTNAME:;
#STEPSTYPE:dance-double;
#DESCRIPTION:Blank;
#CHARTSTYLE:;
#DIFFICULTY:Hard;
#METER:8;
#RADARVALUES:0.602360,0.622695,0.254361,0.293493,0.210337,431.000000,405.000000,26.000000,30.000000,0.000000,0.000000,0.000000,0.000000,0.000000,0.602360,0.622695,0.254361,0.293493,0.210337,431.000000,405.000000,26.000000,30.000000,0.000000,0.000000,0.000000,0.000000,0.000000;
#CREDIT:;
#NOTES:
00000000
00000000
00000000
00000000
,
00000000
00000000
00000000
00000000
,
00000000
00000000
00000000
00000000
,
00000000
00000000
00000000
00000000
00000000
00000000
00000001
00001000
,
00000002
00000000
00000010
00000000
00000103
00000000
00000001
00000100
,
00001000
00000100
00001000
00010000
01000000
00000000
10000000
00010000
,
20000000
00000000
00100000
00000000
31000000
10000000
00100000
01000000
,
00002000
00000000
00000000
00000000
00013000
00000000
00010000
00000000
00000100
00001000
00000000
00001000
00000010
00000000
00000010
00000100
,
00000001
00000000
00001001
00000000
00000001
00000100
00001000
00000100
,
00000001
00000010
00000001
00000000
00000010
00000000
00000100
00000000
00010000
00000000
00000000
00010000
00000000
00000000
00001000
00000000
,
00000000
00000000
00100000
00010000
00100000
00000000
00010000
00000000
10000000
00000000
00000000
10000000
00000000
00000000
10000000
00000000
,
00010000
01000000
10000000
01000000
00001000
00010000
00000100
00001000
,
00000000
00000000
00001001
00000000
00000000
00000000
00000001
00000100
00000010
00000000
00000010
00000000
00000100
00000000
00000000
00000000
,
00000001
00000100
00000001
00000000
00000100
00000000
00000010
00000000
00010000
00000000
00000000
00010000
00000000
00000000
00001000
00000000
,
00000000
00000000
01000000
00010000
01000000
00000000
00010000
00000000
10000000
00000000
00000000
00000000
10010000
00000000
00000000
00000000
,
10000000
01000000
00010000
01000000
00100000
00001000
00010000
01000000
,
10000000
00100000
00000000
00010000
00000000
00100000
02000000
00000000
00000000
00000000
00010000
00000000
03010000
00000000
00000000
00000000
,
10000000
00100000
00010000
00100000
01000000
00010000
00100000
00002000
,
00000000
00000000
00010000
00000000
00013000
00000000
00000000
00000000
00011000
00000000
00000000
00001000
00010000
00000000
00000100
00000000
,
00001000
00000010
00000010
00000001
00000010
00000100
00000100
00000001
,
00001000
00000100
00000001
00000100
00020000
00000000
00031000
00000000
,
10000000
01000000
00010000
01000000
00100000
00010000
01000000
00002000
,
00000000
00000000
00010000
00000000
00013000
00000000
00000000
00000000
00011000
00000000
00000000
00001000
00010000
00000000
00000010
00000000
,
00001000
00000100
00000100
00000001
00000100
00000010
00000010
00000011
,
00000000
00000000
00001100
00000000
00000000
00000000
00001001
00000000
00000000
00000000
00000001
00000100
00000001
00000000
00001000
00000100
,
00002000
00000000
00003100
00000000
00001000
00000100
00010000
00000020
,
00001000
00000001
00000130
00000110
,
00002010
00000000
00003100
00000000
00010000
00001000
01000000
20000000
,
01000000
00010000
31000000
11000000
,
01020000
00000000
00100000
00000000
01030000
00000000
00010000
00200000
,
00001000
00010000
00301000
00101000
,
00021000
00000100
00031000
00011000
,
00010000
00000010
00010000
00000000
00000001
00000100
00000001
00000000
00001000
00000000
00000100
00000000
00000001
00000000
00000100
00000000
,
00001002
00000000
00000000
00000000
00000103
00000000
00001000
00000000
00010000
00000000
00000000
00001000
00000000
00000000
00000010
00000000
,
00001000
00000000
00010000
00010000
01000000
01000000
10000000
10000000
,
20010000
00000000
00000000
00000000
30100000
00000000
00010000
00000000
00001000
00000000
00000000
00010000
00000000
00000000
01000000
00000000
,
00010000
00000000
00001000
00001000
00000010
00000010
00000001
00001000
,
00000002
00000000
00000100
00000000
00001003
00000000
00000010
00001000
,
00000100
00010000
00100000
01000000
10000000
00000000
01000000
00010000
,
20000000
00000000
00100000
00000000
31000000
10000000
00100000
00010000
,
00002000
00000000
00013000
00000000
00100000
10000000
01000000
00100000
,
00120000
00000000
00000000
00000000
00130000
00000000
10000000
00000000
00010000
00000000
00000000
01000000
00000000
00000000
00100000
00000000
,
00001000
00000000
00010000
00010000
00000010
00000010
00000100
00000100
,
00002100
00000000
00000000
00000000
00003100
00000000
00000001
00000000
00001000
00000000
00000000
00000010
00000000
00000000
00000100
00000000
,
00010000
00000000
01000000
01000000
00100000
00100000
10000000
00010000
,
20000000
00000000
00100000
00000000
31000000
00000000
10000000
01000000
,
00010000
00001000
00010000
01000000
00100000
00000000
00010000
10000000
,
00002000
00000000
00100000
00000000
00013000
00001000
00010000
00000100
,
00000010
00000001
00001000
00000001
00000100
00000001
00001000
00000001
00000010
00000000
00000001
00000000
00000100
00000000
00001000
00000000
,
00000200
00000001
00001000
00000301
,
00000100
00000010
00001000
00000100
00000010
00000001
00000100
00001000
,
00010000
00000000
00110000
00000000
00100000
10000000
01000000
00010000
,
00000000
00011000
00000000
01010000
00000000
01000000
10000000
00010000
,
00200000
10000000
00010000
10300000
,
01000000
00100000
00010000
00100000
01000000
10000000
00100000
00010000
,
00001000
00000000
00001100
00000000
00000100
00000002
00000000
00001003
,
00000001
00000100
00000000
00000010
00000000
00001000
00000000
00000100
00020000
00000000
00000000
00000000
00031000
00000000
00000000
00000000
,
10000000
01000000
10000000
00000000
01000000
00000000
00100000
00000000
00001000
00000000
00000000
00001000
00000000
00000000
00010000
00000000
,
00000000
00000000
00000100
00001000
00000100
00000000
00001000
00000000
00000001
00000000
00000000
00000001
00000000
00000000
00000001
00000000
,
00001000
00000010
00000001
00000010
00010000
00001000
00100000
00010000
,
00000000
00000000
10010000
00000000
00000000
00000000
10000000
00100000
01000000
00000000
01000000
00000000
00100000
00000000
00000000
00000000
,
10000000
00100000
10000000
00000000
00100000
00000000
01000000
00000000
00001000
00000000
00000000
00001000
00000000
00000000
00010000
00000000
,
00000000
00000000
00000010
00001000
00000010
00000000
00001000
00000000
00000001
00000000
00000000
00000000
00001001
00000000
00000000
00000000
,
00000001
00000010
00001000
00000010
00000100
00010000
00001000
00000010
,
00000001
00000100
00000000
00001000
00000000
00000100
00000020
00000000
00000000
00000000
00001000
00000000
00001030
00000000
00000000
00000000
,
00002002
00000000
00000000
00000000
,
00000000
00000000
00000000
00000000
,
00003003
00000000
00000000
00000000
;

//---------------dance-single - ----------------
#NOTEDATA:;
#CHARTNAME:;
#STEPSTYPE:dance-single;
#DESCRIPTION:;
#CHARTSTYLE:;
#DIFFICULTY:Easy;
#METER:4;
#RADARVALUES:0.335421,0.327734,0.078265,0.048916,0.000000,240.000000,232.000000,8.000000,5.000000,0.000000,0.000000,0.000000,0.000000,0.000000,0.335421,0.327734,0.078265,0.048916,0.000000,240.000000,232.000000,8.000000,5.000000,0.000000,0.000000,0.000000,0.000000,0.000000;
#CREDIT:;
#NOTES:
0000
0000
0000
0000
,
0000
0000
0000
0000
,
0000
0000
0000
0000
,
0000
0000
0000
0000
,
1000
0010
1000
0010
,
0100
0001
0100
0001
,
1000
0100
1000
0100
,
0010
0001
1000
0001
,
0100
0100
0010
1000
,
0001
0010
0001
0010
,
1000
0010
1000
0010
,
0001
0100
0001
0100
,
1000
0100
0010
1001
,
1000
0100
1000
0100
,
0001
0100
0001
0100
,
1000
0010
0001
0010
,
1000
0100
0010
1001
,
0001
0000
1000
0000
,
0001
0100
0010
1000
,
0001
0000
0010
0000
,
0100
1000
1001
0000
,
1000
0000
0001
0000
,
1000
0010
0001
0010
,
0100
0000
0001
0000
,
1000
0001
1001
0000
,
0001
0010
0001
0010
,
0100
1000
0100
1000
,
0001
0100
0001
0100
,
0010
1000
0010
1000
,
0001
1000
0001
1000
,
0010
0100
0010
0100
,
0001
0010
1000
0010
,
0001
1000
0000
0000
,
0001
0100
1000
0100
,
0010
1000
0001
0001
,
1000
0100
0001
0100
,
0010
0001
1000
1000
,
0001
0100
1000
0001
,
0010
1000
0001
0100
,
0001
0010
1000
0001
,
0100
1000
0001
0001
,
1000
0010
0001
0010
,
0100
0001
1000
1000
,
0001
0010
1000
0010
,
0100
1000
0001
0001
,
1000
0010
0001
1000
,
0100
0001
1000
0010
,
1000
0100
0001
1000
,
0010
0001
1000
1001
,
2000
0010
0010
3010
,
1000
0010
0100
0001
,
0020
0100
0100
0130
,
1000
0010
0001
0010
,
0200
0001
0001
0301
,
0100
0010
1000
0001
,
1000
0100
0001
0010
,
1000
0001
1001
0000
,
1000
0100
1000
0100
,
0001
0100
0001
0100
,
1000
0010
1000
0010
,
0001
0010
0100
1001
,
0001
0010
0001
0010
,
1000
0010
1000
0010
,
0001
0100
1000
0100
,
0001
0010
0100
1000
,
2002
0000
0000
0000
,
0000
0000
0000
0000
,
3003
0000
0000
0000
;

//---------------dance-single - ----------------
#NOTEDATA:;
#CHARTNAME:;
#STEPSTYPE:dance-single;
#DESCRIPTION:;
#CHARTSTYLE:;
#DIFFICULTY:Medium;
#METER:6;
#RADARVALUES:0.468192,0.491601,0.430457,0.547854,0.039132,335.000000,291.000000,44.000000,56.000000,0.000000,0.000000,0.000000,0.000000,0.000000,0.468192,0.491601,0.430457,0.547854,0.039132,335.000000,291.000000,44.000000,56.000000,0.000000,0.000000,0.000000,0.000000,0.000000;
#CREDIT:;
#NOTES:
// measure 0
0000
0000
0000
0000
,  // measure 1
0000
0000
0000
0000
,  // measure 2
0000
0000
0000
0000
,  // measure 3
0000
0000
0000
0000
,  // measure 4
2000
0010
3010
1000
,  // measure 5
0002
0010
0013
0001
,  // measure 6
2000
0100
3100
1000
,  // measure 7
0002
0000
0000
0000
0103
0000
0000
0000
0001
0000
0000
0010
0000
0000
0100
0000
,  // measure 8
1000
0000
1001
0000
1000
0010
0100
0001
,  // measure 9
1000
0001
1000
0000
0020
0000
0130
0000
,  // measure 10
0001
1000
0001
0000
0010
0000
1100
0000
,  // measure 11
2000
3020
0032
0023
,  // measure 12
0130
0001
0010
0100
1000
0000
1001
0000
,  // measure 13
0001
1000
0001
0000
0200
0000
0310
0000
,  // measure 14
1000
0001
1000
0000
0100
0000
0011
0000
,  // measure 15
0002
0203
2300
3200
,  // measure 16
0310
0000
0000
1000
0000
0000
0002
0000
0000
0000
0100
0000
0103
0000
0000
0000
,  // measure 17
0002
0013
2000
3010
,  // measure 18
0001
1000
0001
0000
0100
0000
0110
0000
,  // measure 19
2000
3100
0002
0103
,  // measure 20
1000
0010
0100
0001
1000
0000
1001
0000
,  // measure 21
0002
0103
2000
3100
,  // measure 22
0001
0010
0100
0000
1000
0000
1001
0000
,  // measure 23
2000
0000
3010
0000
0002
0000
0013
1000
,  // measure 24
0000
1100
0000
0101
0000
1000
1000
0001
,  // measure 25
0002
0000
0013
0000
0001
0010
0100
0000
,  // measure 26
2000
0010
3100
1001
,  // measure 27
2000
0000
3100
0000
1000
0100
0010
0000
,  // measure 28
0002
0100
0013
1001
,  // measure 29
0002
0010
0103
0001
,  // measure 30
2000
0010
3100
1100
,  // measure 31
0102
0100
1003
1001
,  // measure 32
0001
0001
1000
1000
0010
0010
0100
0100
,  // measure 33
0002
0000
0000
0000
0013
0000
0000
0000
0100
0000
0000
0100
0000
0000
0100
0000
,  // measure 34
1000
1010
0011
1001
,  // measure 35
2000
0000
0000
0000
3100
0000
0000
0000
0010
0000
0000
0010
0000
0000
0010
0000
,  // measure 36
0001
0000
0101
0000
1100
0000
1000
0001
,  // measure 37
2000
0010
0100
3001
,  // measure 38
1000
0100
0001
0100
1000
0000
1001
0000
,  // measure 39
0002
0000
0100
0000
0013
0000
1000
0001
,  // measure 40
2000
3010
0101
1100
,  // measure 41
0002
0000
0000
0000
0103
0000
0000
0000
0010
0000
0000
0010
0000
0000
0010
0000
,  // measure 42
1000
1100
0101
1001
,  // measure 43
2000
0000
0000
0000
3010
0000
0000
0000
0100
0000
0000
0100
0000
0000
0100
0000
,  // measure 44
0001
0000
0011
0000
1010
0000
1000
0001
,  // measure 45
2000
0100
0010
3001
,  // measure 46
1000
0010
0001
0010
1000
0000
1001
0000
,  // measure 47
0002
0000
0010
0000
0103
0000
1000
0001
,  // measure 48
2000
3100
0011
1010
,  // measure 49
1002
1000
0010
0103
,  // measure 50
0001
0010
0100
0000
1000
0100
0010
0000
,  // measure 51
0001
0101
1000
1100
,  // measure 52
1000
1010
0101
0011
,  // measure 53
2001
0001
0100
3010
,  // measure 54
1000
0100
0010
0000
0001
0010
0100
0000
,  // measure 55
1000
1010
0110
0101
,  // measure 56
1000
0000
0000
1000
0000
0000
1000
0000
0002
0000
0000
0000
0103
0000
0000
0000
,  // measure 57
0001
1000
0001
0000
0200
0000
0310
0000
,  // measure 58
1000
0001
1000
0000
0100
0000
0011
0000
,  // measure 59
0002
0203
2300
3200
,  // measure 60
0310
1000
0100
0010
0001
0000
1001
0000
,  // measure 61
1000
0001
1000
0000
0020
0000
0130
0000
,  // measure 62
0001
1000
0001
0000
0010
0000
1100
0000
,  // measure 63
2000
3020
0032
0023
,  // measure 64
0130
0000
0000
0001
0000
0000
2000
0000
0000
0000
0010
0000
3010
0000
0000
0000
,  // measure 65
0202
0000
0000
0000
,  // measure 66
0000
0000
0000
0000
,  // measure 67
0303
0000
0000
0000
;
