#TITLE:メリリリリリリリクリスマス!;
#SUBTITLE:;
#ARTIST:流星群少女;
#TITLETRANSLIT:Meririririririri Christmas!;
#SUBTITLETRANSLIT:;
#ARTISTTRANSLIT:Ryuuseigun Shoujo;
#GENRE:;
#CREDIT:;
#BANNER:Meririririririri Christmas!.png;
#BACKGROUND:Meririririririri Christmas!-bg.png;
#LYRICSPATH:;
#CDTITLE:;
#MUSIC:Meririririririri Christmas!.mp3;
#OFFSET:-0.119047;
#SAMPLESTART:80.454521;
#SAMPLELENGTH:12.000000;
#SELECTABLE:YES;
#BPMS:0.000000=190.000000
,220.000000=95.000000
,237.000000=190.000000
,312.000000=160.000000
,313.000000=126.667000
,323.729156=126.666000
,324.062500=126.667000
,339.000000=118.005997
,340.333344=101.786003
;
#STOPS:
;
#BGCHANGES:;
#KEYSOUNDS:;
#ATTACKS:;

//---------------dance-single - ----------------
#NOTES:
     dance-single:
     :
     Hard:
     8:
     0.609784,0.689265,0.436369,0.793399,0.162647,538.000000,483.000000,55.000000,100.000000,0.000000,0.000000,0.609784,0.689265,0.436369,0.793399,0.162647,538.000000,483.000000,55.000000,100.000000,0.000000,0.000000:
0000
0000
0000
0000
,
0000
0000
0000
0000
,
0000
0000
0000
0000
,
2000
0000
3100
0100
0020
0000
0031
0001
,
2000
0000
3010
0010
0200
0000
0301
0001
,
2000
0000
3010
0010
0002
0000
0013
0010
,
1000
1100
0101
1001
,
0002
0000
0013
0010
0200
0000
1300
1000
,
0002
0000
0103
0100
0020
0000
1030
1000
,
0001
0011
0000
1100
0000
0101
0000
1010
,
1000
0000
0100
0000
0001
0000
0100
0000
1000
0000
0001
0100
0001
0000
1000
0100
,
1000
0000
0001
0100
0010
0010
2000
0000
,
3001
0000
1000
0100
0010
0010
0002
0000
,
1003
0000
0001
0010
1000
1000
0020
0000
,
0031
0000
1000
0010
0001
0001
0020
0000
,
1030
0002
0023
2030
,
3002
0203
2300
3001
,
0100
0010
1000
0000
1200
0000
0301
0001
,
0100
0010
0001
0000
0201
0000
0310
0000
,
1001
0000
1000
0010
0100
0100
0002
0000
,
1003
0000
0001
0010
0100
0100
2000
0000
,
3001
0000
1000
0100
0001
0001
0200
0000
,
1300
0000
0001
0100
1000
1000
0200
0000
,
0301
2000
3200
0302
,
2003
3020
0032
1003
,
0010
0100
0001
0000
0021
0000
1030
1000
,
0010
0100
1000
0000
1020
0000
0130
0000
,
0001
0010
0010
0010
0010
0010
0010
0010
,
0100
1000
1000
1000
1000
1000
1000
1000
,
0001
0100
0100
0100
0010
1000
1000
1000
,
0001
0101
0000
2100
0000
0001
3001
0000
,
1000
0010
0010
0010
0010
0010
0010
0010
,
0100
0001
0001
0001
0001
0001
0001
0001
,
1000
0100
0100
1000
0001
0100
0100
0001
,
1000
0010
0001
0010
0100
0001
0001
1000
,
1100
0000
0101
0000
1000
0001
0000
0011
,
0000
1010
0000
1000
1200
0000
0310
0000
,
0101
0000
1100
0000
1000
0001
0000
0011
,
0000
0001
0100
0010
1000
1000
0001
0001
,
1020
0000
0001
0001
0000
0100
0130
0000
,
0021
0000
1000
1000
0000
0100
0130
0000
,
0002
0000
0010
0013
0000
0100
1000
0101
,
0000
1100
0000
1002
0000
0100
0103
0000
,
0001
0010
0100
1000
0100
0010
0001
1000
,
1200
0302
2003
3010
,
0001
0100
0001
0001
1000
0100
1000
1000
,
0000
0010
0010
0010
0010
0010
0010
0000
,
0201
0000
1000
1000
0000
0010
0310
0000
,
1200
0000
0001
0001
0000
0010
0310
0000
,
2000
0000
0100
3100
0000
0010
0001
1010
,
0000
0011
0000
2001
0000
0010
3010
0000
,
1000
0100
0010
0001
0010
0100
1000
0001
,
0021
2030
3002
0103
,
1000
0010
1000
1000
0001
0010
0001
0001
,
0000
0100
0100
0100
0100
0100
0100
0000
,
0001
0010
0100
1000
0001
1000
0002
0003
,
1000
0010
0100
0001
1000
0001
2000
3000
,
0002
0000
0013
0000
2000
0000
3010
0000
0002
0000
0103
0000
2000
0000
3100
0010
,
2000
0000
3000
0000
0002
0000
0003
0000
2002
0000
3003
0001
0100
0010
0010
0010
,
2002
3000
0103
0010
0010
0010
2000
0000
,
0100
0100
0000
0001
0000
3010
0000
1010
,
0000
0101
0101
0000
1001
0000
0002
0000
,
0010
0010
0000
1000
0000
0103
0000
0101
,
0000
1010
1010
0000
1001
0000
2000
0010
,
3010
0000
0002
0010
0013
0000
2000
0100
,
3100
0000
0002
0100
0103
0000
2000
0000
,
3020
0032
0203
2300
,
0010
0000
3100
1000
0001
0001
2000
0000
,
0010
0010
0000
0001
0000
3100
0000
1100
,
0000
0011
0011
0000
1001
0000
0002
0000
,
0100
0100
0000
1000
0000
0013
0000
0011
,
0000
1100
1100
0000
1001
0000
2000
0100
,
3100
0000
0002
0100
0103
0000
2000
0010
,
3010
0000
0002
0010
0013
0000
1000
0100
,
0001
0100
1000
0010
0001
0010
1000
0000
,
0101
0000
0001
0010
1100
0000
2002
0000
,
3000
0000
0000
0000
0203
0000
0000
0000
0300
0000
0010
1000
0002
0000
0000
0000
,
0003
0000
0000
0000
0000
0000
0000
0000
0010
0000
0000
0000
0100
0000
0000
0000
2000
0000
0000
0000
0000
0000
0000
0000
0000
0000
0000
3001
0000
0000
0000
0000
0200
0000
0000
0000
0000
0000
0000
0000
0000
0000
0000
0000
0020
0000
0000
0000
,
0000
0000
0000
0330
0000
0000
2000
0000
0000
0000
0010
0000
0000
0000
3010
0000
0000
0000
0200
0000
0000
0000
0001
0000
,
0000
0301
0000
2000
0000
0100
0000
3100
0000
0020
0000
0001
,
0000
0031
0000
2000
0000
0100
0000
3100
0000
0020
0000
0001
,
0000
0031
0000
2000
0000
0010
0000
3010
0000
0200
0000
0001
,
0000
0301
0000
2000
0000
0010
0000
3010
0000
0002
0000
0010
,
0000
0013
0000
2000
0000
0100
0000
3100
0000
0002
0000
0100
,
0000
0103
0000
1000
0000
0010
0000
0001
0000
1000
0000
0100
,
0000
0001
0000
2000
0000
0000
0000
0000
0000
0000
0002
0000
,
0000
0000
0000
0000
0000
0000
0000
3003
;

//---------------dance-single - ----------------
#NOTES:
     dance-single:
     :
     Easy:
     4:
     0.333228,0.379096,0.119010,0.396699,0.003967,294.000000,279.000000,15.000000,50.000000,0.000000,0.000000,0.333228,0.379096,0.119010,0.396699,0.003967,294.000000,279.000000,15.000000,50.000000,0.000000,0.000000:
0000
0000
0000
0000
,
0000
0000
0000
0000
,
0000
0000
0000
0000
,
2000
3000
0200
0300
,
0020
0030
0002
0003
,
2000
3000
0020
0030
,
0100
0001
1000
0001
,
2000
3000
0200
0300
,
0020
0030
0002
0003
,
1000
1000
0010
0010
,
0100
0001
1000
0001
,
0010
0001
0100
0001
,
0000
1000
0100
1000
,
0000
0001
0010
0001
,
0000
1000
0010
1000
,
0000
0001
0001
0010
,
0010
0100
0100
1000
,
0001
0100
0020
0030
,
1000
0010
0200
0300
,
0000
0001
0010
0100
,
0000
1000
0100
0010
,
0000
0001
0100
0010
,
0000
1000
0010
0100
,
0000
0001
0001
0010
,
0010
0100
0100
1000
,
0001
0010
0200
0300
,
1000
0100
0020
0030
,
0001
0001
0001
0001
,
1000
1000
1000
1000
,
0010
0010
0100
0100
,
0001
1000
2002
3003
,
1000
1000
1000
1000
,
0001
0001
0001
0001
,
1000
0100
0001
0100
,
0010
0001
2002
3003
,
0001
0001
0100
0100
,
1000
1000
0100
0010
,
1000
1000
0100
0100
,
0001
0100
1001
0000
,
1000
0200
1000
1300
,
0001
0200
0001
0301
,
1000
0010
0001
0010
,
1000
0001
0202
0303
,
0001
0010
1000
0010
,
0100
0100
0100
0100
,
1000
1000
0001
0001
,
0000
0010
0100
0110
,
0001
0020
0001
0031
,
1000
0020
1000
1030
,
0001
0100
1000
0100
,
0001
1000
2020
3030
,
1000
0100
0001
0100
,
0010
0010
0010
0010
,
0001
0001
1000
1000
,
0000
0100
0010
0110
,
0001
0100
1000
0100
,
0001
0010
1000
0010
,
0001
0100
1000
0010
,
0001
1000
0002
0003
,
2001
3100
0000
1000
,
0010
0100
0001
0100
,
0010
1000
1001
1000
,
0100
0010
0001
0010
,
0100
1000
1001
0001
,
0001
0100
0100
1000
,
1000
0100
0100
0001
,
0010
1000
0010
0002
,
0010
1003
1001
0001
,
0100
0010
1000
0010
,
0100
0001
1001
0001
,
0010
0100
1000
0100
,
0010
0001
1001
1000
,
1000
0010
0010
0001
,
0001
0010
0010
1000
,
0100
0001
0100
2000
,
0100
3001
1001
1002
,
0003
0200
0300
0020
,
0030
0000
0000
2000
0000
0000
3000
0000
,
0000
0002
0003
0020
,
0030
0200
0300
2000
,
3000
0002
0003
0200
,
0300
0020
0030
2000
,
3000
0002
0003
0020
,
0030
2000
3000
0020
,
0030
0002
0003
0200
,
0300
0000
0000
2000
0000
0000
0000
0000
0000
0000
0002
0000
,
0000
0000
0000
0000
0000
0000
0000
3003
;

//---------------dance-single - ----------------
#NOTES:
     dance-single:
     :
     Medium:
     6:
     0.471506,0.551412,0.150746,0.380831,0.059505,416.000000,397.000000,19.000000,48.000000,0.000000,0.000000,0.471506,0.551412,0.150746,0.380831,0.059505,416.000000,397.000000,19.000000,48.000000,0.000000,0.000000:
0000
0000
0000
0000
,
0000
0000
0000
0000
,
0000
0000
0000
0000
,
2000
3100
0020
0031
,
2000
3010
0200
0301
,
2000
3100
0002
0103
,
1000
1001
0110
1001
,
0002
0013
2000
3010
,
0002
0103
2000
3100
,
0001
0010
0000
0100
0000
1000
0000
0100
,
0010
0000
0001
0000
1000
0010
0100
0001
,
2000
0000
3001
0000
0100
0010
0100
0000
,
0001
0000
1000
0000
0010
0100
0010
0000
,
1000
0000
0001
0000
1000
0100
0010
0000
,
0001
0000
1000
0000
0001
0100
0010
0000
,
1000
0001
0001
0010
,
0010
0100
0100
1000
,
0001
0100
1000
0000
0200
0000
0301
0000
,
1000
0010
0001
0000
0020
0000
1030
0000
,
0002
0000
1003
0000
0010
0100
0010
0000
,
1000
0000
0001
0000
0100
0010
0100
0000
,
0001
0000
1000
0000
0001
0010
0100
0000
,
1000
0000
0001
0000
1000
0010
0100
0000
,
0001
1000
1000
0100
,
0100
0010
0010
0001
,
1000
0010
0001
0000
0020
0000
1030
0000
,
0001
0100
1000
0000
0200
0000
0301
0000
,
1000
0100
1000
0100
1000
0100
1000
0000
,
0001
0100
0001
0100
0001
0100
0001
0000
,
1000
0010
1000
0000
0001
0010
0001
0000
,
1000
0001
0000
2002
0000
0000
3003
0000
,
0001
0010
0001
0010
0001
0010
0001
0000
,
1000
0010
1000
0010
1000
0010
1000
0000
,
0001
0100
0001
0000
1000
0100
1000
0000
,
0001
0100
0010
1000
0001
0001
0001
0001
,
2000
0010
0001
3001
,
1000
0010
0000
0100
0001
0000
1001
0000
,
0002
0010
1000
1003
,
0001
0010
0100
1000
0002
0000
0003
0000
,
1000
0000
0010
0100
0000
0002
0000
0003
,
1000
0000
0100
0010
0000
0002
0000
0003
,
1000
0000
0010
0001
0000
0010
0000
0100
,
0000
0001
0000
2002
0000
0000
3003
0000
,
0001
0000
0010
0000
0100
1000
0001
1000
,
0020
0100
0100
0130
,
0001
0100
0010
0000
1000
0010
0100
0000
,
0000
0001
1000
0001
1000
0001
1000
0000
,
0001
0000
0100
0010
0000
2000
0000
3000
,
0001
0000
0010
0100
0000
2000
0000
3000
,
0001
0000
0100
1000
0000
0100
0000
0010
,
0000
1000
0000
2002
0000
0000
3003
0000
,
1000
0000
0100
0000
0010
0001
1000
0001
,
0200
0010
0010
0310
,
1000
0010
0100
0000
0001
0100
0010
0000
,
0000
1000
0001
1000
0001
1000
0001
0000
,
1000
0100
0010
0001
0010
0100
1000
0000
,
0001
0100
0010
1000
0010
0100
0001
0000
,
1000
0010
0001
0010
1000
0100
0001
0100
,
1000
0000
0001
0000
2002
0000
0000
3003
,
2010
3001
1001
1000
,
0010
0001
0000
0010
0000
0100
0000
0001
,
0000
1000
0001
0000
1001
0000
1000
0000
,
0100
0001
0000
0100
0000
0010
0000
0001
,
0000
1000
0001
0000
1001
0000
0001
0100
,
0001
0000
1000
0010
1000
0000
0001
0010
,
0001
0000
1000
0100
1000
0000
0002
0000
,
0203
2300
3200
0320
,
1000
0031
1001
0001
,
0100
1000
0000
0100
0000
0010
0000
1000
,
0000
0001
1000
0000
1001
0000
0001
0000
,
0010
1000
0000
0010
0000
0100
0000
1000
,
0000
0001
1000
0000
1001
0000
1000
0010
,
1000
0000
0001
0100
0001
0000
1000
0100
,
1000
0000
0001
0010
0001
0000
1000
0010
,
0100
0001
0100
0010
1000
0001
1000
0000
,
1001
0000
0001
0010
0100
0000
2200
0000
,
0300
0020
3030
0202
,
0303
0000
0000
2002
0000
0000
3003
0000
,
0000
0000
0000
1000
0000
0000
0000
1000
0000
0010
0000
0000
,
0000
0010
0000
0100
0000
0000
0000
0100
0000
0001
0000
0000
,
0000
0001
0000
0010
0000
0000
0000
0010
0000
0100
0000
0000
,
0000
0100
0000
1000
0000
0000
0000
1000
0000
0001
0000
0000
,
0000
0001
0000
1000
0000
0000
0000
1000
0000
0010
0000
0000
,
0000
0010
0000
0001
0000
0000
0000
0001
0000
0100
0000
0000
,
0000
0100
0000
1000
0000
0000
0000
0010
0000
0100
0000
0000
,
0000
0001
0000
2000
0000
0000
0000
0000
0000
0000
0002
0000
,
0000
0000
0000
0000
0000
0000
0000
3003
;

//---------------dance-double - ----------------
#NOTES:
     dance-double:
     :
     Hard:
     9:
     0.668722,0.758192,0.499841,0.404633,0.230086,590.000000,527.000000,63.000000,51.000000,0.000000,0.000000,0.668722,0.758192,0.499841,0.404633,0.230086,590.000000,527.000000,63.000000,51.000000,0.000000,0.000000:
// measure 0
00000000
00000000
00000000
00000000
,  // measure 1
00000000
00000000
00000000
00000000
,  // measure 2
00000000
00000000
00000000
00000000
,  // measure 3
00002000
00000000
00103000
00010000
20000000
00000000
30010000
00100000
,  // measure 4
00002000
00000000
00013000
00000100
00002000
00000000
00003100
00001000
,  // measure 5
00000002
00000000
00000103
00000010
00002000
00000000
00003100
00010000
,  // measure 6
00001000
00101000
01010000
10010000
,  // measure 7
20000000
00000000
30100000
00010000
00002000
00000000
00003100
00000001
,  // measure 8
00000020
00000000
00001030
00010000
00200000
00000000
01300000
00000000
,  // measure 9
00010000
10010000
00000000
00011000
00000000
00001001
00000000
00011000
,  // measure 10
00001000
00000000
01000000
00000000
10000000
00000000
01000000
00000000
00001000
00000000
00010000
00000100
00001000
00000000
00000010
00000100
,  // measure 11
00000001
00000000
00001000
00000010
00000001
00000010
00002000
00000000
,  // measure 12
00003001
00000000
00001000
00000100
00000001
00000100
00020000
00000000
,  // measure 13
00031000
00000000
00100000
00010000
01000000
10000000
02000000
00000000
,  // measure 14
03100000
00000000
10000000
01000000
00010000
00001000
00000200
00000000
,  // measure 15
00000310
00000000
00000000
00000000
00001000
00000010
00000000
00000000
00000010
00000100
00000000
00000000
00000100
00001000
00000000
00000000
,  // measure 16
00001000
00010000
00000000
00000000
00010000
00000010
00000000
00000000
00000010
00000001
00000000
00000000
00000001
00000010
00000000
00000000
,  // measure 17
00000100
00000001
00000100
00000001
00000010
00001000
00000010
00001000
,  // measure 18
00000010
00000100
00000010
00000100
00010000
00001000
00100000
00000000
,  // measure 19
10010000
00000000
00010000
01000000
10000000
01000000
00020000
00000000
,  // measure 20
10030000
00000000
00010000
00100000
10000000
00100000
00002000
00000000
,  // measure 21
00013000
00000000
00000100
00001000
00000010
00000001
00000020
00000000
,  // measure 22
00000130
00000000
00000001
00000010
00001000
00010000
00200000
00000000
,  // measure 23
01300000
00000000
00000000
00000000
00010000
01000000
00000000
00000000
01000000
00100000
00000000
00000000
00100000
00010000
00000000
00000000
,  // measure 24
00010000
00001000
00000000
00000000
00001000
01000000
00000000
00000000
01000000
10000000
00000000
00000000
10000000
01000000
00000000
00000000
,  // measure 25
00100000
10000000
00100000
10000000
01000000
00010000
01000000
00010000
,  // measure 26
01000000
00100000
01000000
00100000
00001000
00010000
00000100
00000000
,  // measure 27
00001000
00000010
00000010
00000010
00000100
00000100
00000001
00000001
,  // measure 28
00010000
00001000
00001000
00001000
00100000
00100000
00010000
00010000
,  // measure 29
10000000
00100000
00100000
00100000
00010000
00001000
00001000
00001000
,  // measure 30
00000100
00000010
00010000
00000010
00000100
00000010
00001000
00000000
,  // measure 31
00000100
00010000
00010000
00010000
00001000
00001000
01000000
01000000
,  // measure 32
10000000
01000000
01000000
01000000
00100000
00100000
10000000
10000000
,  // measure 33
00001000
00010000
00000100
00001000
00000010
00100000
00001000
00010000
,  // measure 34
00000001
00000100
00001000
00000100
00000010
00010000
00001000
10000000
,  // measure 35
10010000
00000000
10100000
00000000
01000000
00001000
00000000
00101000
,  // measure 36
00000000
00010100
00000000
00001000
00001002
00000000
00000103
00000000
,  // measure 37
00000101
00000000
00001010
00000000
00001000
00000100
00000000
00010100
,  // measure 38
00000000
00010000
00001000
00100000
00010000
00010000
10000000
10000000
,  // measure 39
02010000
00000000
10000000
13000000
00000000
01000000
00001000
00000000
,  // measure 40
00010200
00000000
00000010
00000310
00000000
00000001
00001000
00000000
,  // measure 41
00000001
00000100
00001000
00010000
00001000
00000100
00000010
00010010
,  // measure 42
00000000
00010100
00000000
00012000
00000000
00100000
00103000
00000000
,  // measure 43
00001000
01000000
10000000
01000000
00001000
00100000
00001000
00000010
,  // measure 44
00000001
00000000
00000000
00000001
00000100
00000000
00000000
00000100
00000010
00000000
00000000
00000010
00001000
00000000
00000000
00000000
,  // measure 45
00000001
00000010
00001000
00001000
00000001
00000100
00010000
00010000
,  // measure 46
00000000
00011000
00011000
00010100
00010100
00000110
00001001
00000000
,  // measure 47
00001020
00000000
00000001
00000031
00000000
00000010
00010000
00000000
,  // measure 48
00201000
00000000
01000000
01300000
00000000
10000000
00010000
00000000
,  // measure 49
10000000
00100000
00010000
00001000
00010000
00100000
01000000
01001000
,  // measure 50
00000000
00101000
00000000
00021000
00000000
00000100
00030100
00000000
,  // measure 51
00010000
00000010
00000001
00000010
00010000
00000100
00010000
01000000
,  // measure 52
10000000
00000000
00000000
10000000
00100000
00000000
00000000
00100000
01000000
00000000
00000000
01000000
00010000
00000000
00000000
00000000
,  // measure 53
10000000
01000000
00010000
00010000
10000000
00100000
00001000
00001000
,  // measure 54
00000000
00011000
00011000
00101000
00101000
01100000
10010000
00000000
,  // measure 55
10000000
00100000
00010000
00001000
00010000
00100000
20000000
30000000
,  // measure 56
00010000
01000000
10000000
00001000
00010000
00100000
02000000
03000000
,  // measure 57
10000000
00100000
00010000
00001000
00000100
00000010
00001000
00000001
,  // measure 58
00000020
00000000
00000030
00000000
00000200
00000000
00000300
00001000
00000002
00000000
00000000
00000000
00001003
00000010
00000100
00000000
,  // measure 59
00000202
00000303
00001001
00000001
00000010
00000100
00002000
00000000
,  // measure 60
00000010
00000010
00000000
00000100
00000000
00003001
00000000
00001001
,  // measure 61
00000000
00011000
00011000
00000000
10010000
00000000
00020000
00000000
,  // measure 62
01000000
01000000
00000000
00100000
00000000
10030000
00000000
10010000
,  // measure 63
00000000
00011000
00011000
00000000
00001001
00000000
00000001
00000001
,  // measure 64
00000001
00000010
00001000
00001000
00001000
00000010
00000001
00000001
,  // measure 65
00000001
00000100
00001000
00001000
00001000
00000100
00000001
00000010
,  // measure 66
00001000
00000010
00000100
00010000
00001000
00100000
02000000
00000000
,  // measure 67
10000000
00000000
00000000
00000000
03010000
00000000
01000000
00000000
10000000
00000000
00010000
10000000
00020000
00000000
00000000
00000000
,  // measure 68
00100000
00100000
00000000
00001000
00000000
01030000
00000000
01010000
,  // measure 69
00000000
10100000
10010000
00000000
00001001
00000000
00002000
00000000
,  // measure 70
00000100
00000100
00000000
00010000
00000000
00003010
00000000
00001010
,  // measure 71
00000000
00000101
00001001
00000000
10010000
00000000
10000000
10000000
,  // measure 72
10000000
01000000
00010000
00010000
00010000
01000000
10000000
10000000
,  // measure 73
10000000
00100000
00010000
00010000
00010000
00100000
10000000
01000000
,  // measure 74
00010000
01000000
00100000
00001000
00010000
00000100
00000010
00000000
,  // measure 75
00001001
00000000
00000101
00000110
00010010
00000000
00022000
00000000
,  // measure 76
00030000
00000000
00000000
00000000
00200000
00000000
00000000
00000000
00303000
00000000
00001000
01000000
00200000
00000000
00300000
00000000
,  // measure 77
00000000
00000000
10000000
00010000
20000000
00000000
31000000
00000000
00100000
00020000
00000000
00000000
,  // measure 78
00000000
00000000
00000000
00030000
00000000
00000000
20000000
00000000
00000000
00000000
00100000
00000000
00000000
00000000
30100000
00000000
00000000
00000000
02000000
00000000
00000000
00000000
00010000
00000000
,  // measure 79
00000000
03010000
00000000
10000000
00000000
01000000
00000000
00010000
00000000
00001000
00000000
00000100
,  // measure 80
00000000
00001001
00000000
00000002
00000000
00000100
00000000
00000103
00000000
00000020
00000000
00001000
,  // measure 81
00000000
00001030
00000000
00000001
00000000
00000010
00000000
00001000
00000000
00010000
00000000
00100000
,  // measure 82
00000000
10010000
00000000
20000000
00000000
01000000
00000000
30010000
00000000
00020000
00000000
01000000
,  // measure 83
00000000
10030000
00000000
00010000
00000000
00100000
00000000
10000000
00000000
00010000
00000000
01000000
,  // measure 84
00000000
10000000
00000000
00010000
00000000
01000000
00000000
00100000
00000000
00010000
00000000
00001000
,  // measure 85
00000000
00000100
00000000
00000020
00000000
00000000
00000000
00000000
00000000
00000000
00002000
00000000
,  // measure 86
00000000
00000000
00000000
00000000
00000000
00000000
00000000
00003030
;
