#VERSION:0.83;
#TITLE:キラキラ☆ステーション;
#SUBTITLE:;
#ARTIST:Tatsh feat.Prico;
#TITLETRANSLIT:KIRAKIRA☆STATION;
#SUBTITLETRANSLIT:;
#ARTISTTRANSLIT:;
#GENRE:;
#ORIGIN:;
#CREDIT:;
#BANNER:KIRAKIRA STATION.png;
#BACKGROUND:KIRAKIRA STATION-bg.png;
#PREVIEWVID:;
#JACKET:KIRAKIRA STATION-jacket.png;
#CDIMAGE:;
#DISCIMAGE:;
#LYRICSPATH:;
#CDTITLE:;
#MUSIC:KIRAKIRA STATION.mp3;
#OFFSET:-1.600000;
#SAMPLESTART:43.820000;
#SAMPLELENGTH:15.420000;
#SELECTABLE:YES;
#BPMS:0.000=176.000;
#STOPS:;
#DELAYS:;
#WARPS:;
#TIMESIGNATURES:0.000=4=4;
#TICKCOUNTS:0.000=4;
#COMBOS:0.000=1;
#SPEEDS:0.000=1.000=0.000=0;
#SCROLLS:0.000=1.000;
#FAKES:;
#LABELS:0.000=Song Start;
#BGCHANGES:;
#KEYSOUNDS:;
#ATTACKS:
;

//---------------dance-single - Blank----------------
#NOTEDATA:;
#CHARTNAME:;
#STEPSTYPE:dance-single;
#DESCRIPTION:Blank;
#CHARTSTYLE:;
#DIFFICULTY:Hard;
#METER:7;
#RADARVALUES:0.575441,0.643335,0.560262,0.511963,0.000000,417.000000,359.000000,58.000000,53.000000,0.000000,0.000000,0.000000,0.000000,0.000000,0.575441,0.643335,0.560262,0.511963,0.000000,417.000000,359.000000,58.000000,53.000000,0.000000,0.000000,0.000000,0.000000,0.000000;
#CREDIT:;
#NOTES:
0000
0000
0000
0000
,
0000
0000
0000
0000
,
0000
0000
0000
0000
,
0000
0000
0000
0000
,
0000
0000
0000
0000
,
1000
0100
0010
0001
0010
0100
1000
0001
,
1000
0000
0010
0100
0001
1000
1001
0000
,
0001
0010
0100
1000
0100
0010
0001
1000
,
0001
0100
0010
2000
0000
0001
0001
3001
,
1000
2100
3010
0102
,
0013
2010
3100
0012
,
1003
0000
0010
0002
0000
0013
0000
0011
,
0000
1010
0000
1100
0000
0101
0000
1001
,
0000
0010
0100
0010
0000
1000
0001
1000
,
0001
0100
0010
1000
0000
0001
0000
2000
,
0000
3100
0000
0002
0000
0103
0000
1000
,
0001
0001
0001
0001
0000
0000
1100
0000
,
1000
0010
0000
0002
0000
0013
0000
1000
,
0002
0000
0103
2000
0000
3100
0000
2010
,
0000
3100
0000
0012
0000
0103
0000
0001
,
2000
0000
3100
0100
0001
0100
1000
0001
,
0000
1001
0000
0101
0001
0010
0100
1000
,
0000
2020
0030
3001
,
1000
0010
0100
0001
0100
0010
1000
0001
,
0010
2200
0300
3001
,
1000
0100
0010
0001
0010
0100
1000
0001
,
0100
0000
0010
1000
0002
0000
0013
0001
,
1000
0010
0000
0102
0000
1003
0000
0001
,
0020
0000
1000
0000
0031
0010
0001
0100
,
0000
0010
1000
0001
0100
0001
1000
0100
,
0010
0010
0010
0010
0000
0000
0000
0000
,
2001
0000
0000
3100
0000
1000
0010
0200
,
0000
0310
0000
2000
0000
3001
0000
1000
,
1002
0000
0000
0103
0000
0001
0010
0100
,
0000
1000
0010
0100
0000
0001
1001
0000
,
1000
0100
0100
0001
0100
0100
1000
0001
,
0002
0000
0103
0100
0020
0000
1030
0000
,
0002
0000
0013
0011
0000
0110
0000
2100
,
0100
0010
0100
3001
,
0102
0000
0000
1003
0000
0001
0010
2000
,
0000
3010
0000
0002
0000
1003
1001
0000
,
2100
0000
0000
3001
0000
1000
0000
0101
,
0000
0001
0010
1000
0000
0010
1001
0000
,
0100
0100
0100
0000
0000
0001
0010
2000
,
0000
3010
0000
0002
0000
1000
1003
0000
,
0010
0010
0010
0000
0000
0100
0000
0102
,
0000
0013
0000
2100
0000
3010
1000
1000
,
0011
0000
1100
0000
0101
0000
1010
2010
,
0000
0001
0000
0100
0000
0010
3010
1000
,
0001
0001
0001
0000
1000
1000
1000
0020
,
0000
0001
0100
1030
,
0010
1000
0100
0010
0001
0000
1001
0000
,
0001
0010
0100
1000
0100
0010
0001
1000
,
0001
0000
0100
0010
1000
0001
1001
0000
,
1000
0100
0010
0001
0010
0100
1000
0001
,
1000
0010
0100
0002
0000
1000
1000
1003
,
0001
0012
0103
2010
,
3100
0102
0013
2100
,
3001
0000
0100
2000
0000
3100
0000
1100
,
0000
0101
0000
0011
0000
1010
0000
1001
,
0001
1000
0100
1000
0001
0100
0001
1000
,
0010
0000
1000
0100
0010
0001
1000
1000
,
0001
1000
0010
1000
0001
0010
0001
1000
,
0001
0100
0010
2000
0000
3001
1001
0000
,
1000
0201
1300
1200
,
0301
0021
1030
1020
,
0031
0000
0100
2000
0000
3100
0000
1100
,
0000
0101
0000
0011
0000
1010
0000
1001
,
0000
0010
0100
0010
0000
1000
0001
1000
,
0000
0001
0100
0001
0000
1000
0100
1000
,
0000
0001
0010
1000
0000
0001
0100
1000
,
0000
2002
0000
0000
,
0000
0000
0000
0000
,
0000
0000
0000
0000
,
3003
0000
0000
0000
;

//---------------dance-single - ----------------
#NOTEDATA:;
#CHARTNAME:;
#STEPSTYPE:dance-single;
#DESCRIPTION:;
#CHARTSTYLE:;
#DIFFICULTY:Easy;
#METER:4;
#RADARVALUES:0.346369,0.393149,0.299450,0.144895,0.000000,251.000000,220.000000,31.000000,15.000000,0.000000,0.000000,0.000000,0.000000,0.000000,0.346369,0.393149,0.299450,0.144895,0.000000,251.000000,220.000000,31.000000,15.000000,0.000000,0.000000,0.000000,0.000000,0.000000;
#CREDIT:;
#NOTES:
0000
0000
0000
0000
,
0000
0000
0000
0000
,
0000
0000
0000
0000
,
0000
0000
0000
0000
,
0000
0000
0000
0000
,
1000
0100
0010
0001
,
0010
0100
1000
1000
,
0001
0100
0010
1000
,
0010
0100
0001
0001
,
0000
1100
0000
0011
,
0000
0101
0000
1010
,
1000
0010
0001
0010
,
0100
0100
0001
0001
,
1000
1100
0001
0101
,
1000
0100
0010
0001
,
1000
0010
0100
0001
,
1000
0001
1001
0000
,
0001
0010
1000
0010
,
0001
0100
0010
1000
,
0010
0100
0001
1000
,
0001
0010
0100
0000
,
1000
0100
0001
0100
,
0000
2002
0000
3003
,
1000
0010
0001
0100
,
1000
2002
0000
3003
,
0001
0100
1000
0100
,
0010
0010
0100
0100
,
0001
0001
1000
1000
,
0001
0010
1000
0010
,
0001
0100
1000
0100
,
0001
0000
1000
1000
0000
0000
0000
0000
,
0022
0030
1003
0000
,
0001
0100
0010
1000
,
2200
0300
3001
0000
,
1000
0010
0100
0000
,
0001
0001
0010
0010
,
0100
0000
1000
0001
,
1000
0010
0001
0010
,
0100
0100
0001
0001
,
0202
0300
1003
0000
,
0001
0100
1000
0100
,
2020
0030
3001
0000
,
1000
0100
0010
0000
,
0001
0001
0000
1000
,
0010
0001
0010
0000
,
0100
0100
0000
0001
,
0010
0100
1000
0000
,
0001
0010
1000
0010
,
0100
0100
1000
1000
,
0001
0100
1000
0010
,
0002
0000
0000
0000
,
0000
0000
0003
1001
,
0001
0100
0001
1000
,
0100
1000
0001
1001
,
1000
0010
1000
0001
,
0010
0010
0100
0100
,
1000
1010
0000
0101
,
0000
0011
0000
1100
,
0001
0010
1000
0001
,
0100
0100
1000
1001
,
1000
0010
0100
0001
,
0100
0010
1000
1000
,
0001
0010
0100
1000
,
0001
0100
0010
1000
,
0001
0101
0000
1010
,
0000
0011
0000
1100
,
1000
0100
0001
0010
,
0001
0001
0100
0100
,
0000
1010
0000
0101
,
0000
0011
0000
1100
,
0000
1001
0000
0110
,
0000
2002
0000
0000
,
0000
0000
0000
0000
,
0000
0000
0000
0000
,
3003
0000
0000
0000
;

//---------------dance-single - ----------------
#NOTEDATA:;
#CHARTNAME:;
#STEPSTYPE:dance-single;
#DESCRIPTION:;
#CHARTSTYLE:;
#DIFFICULTY:Medium;
#METER:6;
#RADARVALUES:0.460905,0.500372,0.396047,0.212513,0.000000,334.000000,293.000000,41.000000,22.000000,0.000000,0.000000,0.000000,0.000000,0.000000,0.460905,0.500372,0.396047,0.212513,0.000000,334.000000,293.000000,41.000000,22.000000,0.000000,0.000000,0.000000,0.000000,0.000000;
#CREDIT:;
#NOTES:
0000
0000
0000
0000
,
0000
0000
0000
0000
,
0000
0000
0000
0000
,
0000
0000
0000
0000
,
0000
0000
0000
0000
,
1000
0000
0100
0000
0010
0001
0000
0001
,
0010
0000
0100
0000
1000
0001
1000
0000
,
0001
0000
0100
0000
0010
1000
0000
1000
,
0010
0000
0100
0001
0000
0001
1000
0000
,
0001
0011
0001
0011
,
1000
1010
1000
1010
,
1000
0000
0100
0010
0000
0001
0000
0010
,
0000
0100
0000
1000
0000
0001
0000
1001
,
0000
0001
0100
0001
0000
1000
0100
1000
,
0001
0100
1000
0100
,
0010
0010
1000
1000
,
0001
1000
0001
1000
0000
0000
0110
0000
,
0100
0001
1000
0100
,
1000
0000
0010
0001
0000
0010
0000
0100
,
0000
0001
0000
0010
0000
0100
0000
1000
,
0002
0103
0020
1030
,
0000
1001
0000
1000
0100
0000
0011
0000
,
0000
2002
0000
3003
,
0001
0000
0100
0000
1000
0100
0010
0000
,
1000
2002
0000
3003
,
1000
0000
0100
0000
0001
0100
0001
0100
,
0010
0001
0002
0103
,
0010
1000
2000
3100
,
0020
0100
0130
1000
,
0002
1000
1003
0010
,
0100
0100
0100
0100
0000
0000
0000
0000
,
1002
0000
0000
0103
0000
0001
0000
0010
,
0000
1000
0000
0001
0000
0100
1000
0000
,
2001
0000
0000
3010
0000
1000
0000
0010
,
0000
0001
0000
0010
0000
0100
1001
0000
,
0012
1003
2010
3001
,
0102
1003
2100
3001
,
1000
0000
0100
0010
0000
0001
0000
0010
,
0100
1010
0101
1001
,
2001
0000
0000
3010
0000
1000
0000
0100
,
0000
0001
0000
1000
0000
0010
0001
0000
,
1002
0000
0000
0103
0000
0001
0000
0100
,
0000
1000
0000
0100
0000
0010
1001
0000
,
0001
0001
0001
0000
0000
0010
0000
0100
,
0000
1000
0000
0100
0000
0010
0001
0000
,
1000
1000
1000
0000
0000
0001
0000
0100
,
0000
0010
0000
1000
0000
0001
1000
0000
,
1100
1100
0101
0101
,
2000
0010
0001
3100
,
1000
0010
0100
0000
0001
0100
0010
2000
,
0000
0000
0000
3000
,
0001
0010
0100
1000
0001
0000
1001
0000
,
1000
0000
0010
0000
0100
0001
0000
0001
,
0100
0000
0010
0000
1000
0001
1000
0000
,
0001
0000
0010
0000
0100
1000
0000
0100
,
0010
0000
0001
1000
0000
0010
0100
0000
,
0001
0101
1000
1100
,
0001
0011
1000
1010
,
0001
0000
0100
1000
0000
0100
0000
0010
,
0000
1000
0000
0001
0000
1000
0000
1001
,
0001
0000
0010
0000
0100
1000
0001
1000
,
0010
0100
0001
1001
,
0001
0000
0100
0000
0010
1000
0001
1000
,
0100
0000
0010
0000
0001
1000
1001
0000
,
1000
1010
0001
0011
,
1000
1100
0001
0101
,
1000
0000
0010
0001
0000
0010
0000
0100
,
0000
0100
0000
0001
0000
1000
0000
1001
,
0000
0001
0010
0001
0000
1000
0010
1000
,
0000
0001
0100
0001
0000
1000
0100
1000
,
0000
0001
0100
0010
0000
1000
0010
0100
,
0000
2002
0000
0000
,
0000
0000
0000
0000
,
0000
0000
0000
0000
,
3003
0000
0000
0000
;

//---------------dance-double - ----------------
#NOTEDATA:;
#CHARTNAME:;
#STEPSTYPE:dance-double;
#DESCRIPTION:;
#CHARTSTYLE:;
#DIFFICULTY:Hard;
#METER:8;
#RADARVALUES:0.572682,0.643335,0.608560,0.569922,0.000000,415.000000,352.000000,63.000000,59.000000,0.000000,0.000000,0.000000,0.000000,0.000000,0.572682,0.643335,0.608560,0.569922,0.000000,415.000000,352.000000,63.000000,59.000000,0.000000,0.000000,0.000000,0.000000,0.000000;
#CREDIT:;
#NOTES:
// measure 0
00000000
00000000
00000000
00000000
,  // measure 1
00000000
00000000
00000000
00000000
,  // measure 2
00000000
00000000
00000000
00000000
,  // measure 3
00000000
00000000
00000000
00000000
,  // measure 4
00000000
00000000
00000000
00000000
,  // measure 5
00010000
00000100
00010000
00001000
00100000
00001000
00010000
00000010
,  // measure 6
00000100
00000000
00000001
00001000
00000100
00000100
00000010
00000010
,  // measure 7
00000001
00000100
00000001
00001000
00000010
00001000
00000100
00010000
,  // measure 8
00001000
00100000
00010000
02000000
00000000
03100000
10000000
00010000
,  // measure 9
10000000
12000000
03010000
02010000
,  // measure 10
13000000
10200000
00310000
00210000
,  // measure 11
10300000
00000000
01000000
00010000
00000000
00001000
00000000
00001100
,  // measure 12
00000000
00000101
00000000
00000011
00000000
00000110
00000000
00001001
,  // measure 13
00000000
00000001
00000010
00001000
00000000
00000001
00000100
00001000
,  // measure 14
00000001
00000100
00000001
00000100
00000000
00001000
00000000
00000200
,  // measure 15
00000000
00000310
00000000
00020000
00000000
00031000
00000000
00100000
,  // measure 16
00010000
00010000
00010000
00010000
00000000
00000000
11000000
00000000
,  // measure 17
10000000
00100000
00000000
00020000
00000000
00130000
00000000
01000000
,  // measure 18
00002000
00000000
00013000
00000200
00000000
00001300
00000000
00000020
,  // measure 19
00000000
00010030
00000000
00002000
00000000
00103000
00000000
00010000
,  // measure 20
02000000
00000000
03100000
00100000
20000000
00000000
00010000
30010000
,  // measure 21
00000000
11000000
00000000
01010000
01010000
00000000
10010000
00000000
,  // measure 22
00000000
20200000
00300000
30010000
,  // measure 23
10000000
00100000
00010000
00100000
01000000
00001000
00010000
00000100
,  // measure 24
00000010
00000202
00000300
00001003
,  // measure 25
00000001
00000010
00001000
00010000
00001000
00000010
00000001
00010000
,  // measure 26
00001000
00000000
10000000
00100000
00020000
00000000
10030000
01000000
,  // measure 27
00010000
00100000
00000000
02000000
00000000
13000000
00000000
00001000
,  // measure 28
00020000
00000000
00000100
00000000
00030010
00010000
00000010
00000200
,  // measure 29
00000000
00000001
00000010
00001300
,  // measure 30
00000100
00000010
00001000
00001001
00000000
00000000
00000000
00000000
,  // measure 31
00000202
00000000
00000300
00001003
00000000
00000001
00000010
00002000
,  // measure 32
00000000
00003010
00000000
00000200
00000000
00010300
00000000
00001000
,  // measure 33
00202000
00000000
00300000
01003000
00000000
00001000
01000000
00100000
,  // measure 34
00000000
10000000
00010000
10000000
00000000
00100000
01100000
00000000
,  // measure 35
00100000
10000000
10000000
01000000
00010000
00010000
00001000
00000100
,  // measure 36
00000200
00000000
00000310
00000010
00002000
00000000
00003001
00000000
,  // measure 37
00000010
00000000
00000100
00001100
00000000
00001010
00000000
00020010
,  // measure 38
00000010
00001000
00000100
00030001
,  // measure 39
00022000
00000000
00030000
00103000
00000000
00001000
01000000
20000000
,  // measure 40
00000000
31000000
00000000
00200000
00000000
10300000
00010000
00000000
,  // measure 41
22000000
00000000
30000000
03010000
00000000
01000000
00000000
01100000
,  // measure 42
00000000
00100000
00001000
10000000
00000000
00100000
01010000
00000000
,  // measure 43
10010000
10010000
10010000
00000000
00000000
10000000
00100000
00020000
,  // measure 44
00000000
00130000
00000000
02000000
00000000
00001000
03001000
00000000
,  // measure 45
00011000
00011000
00011000
00000000
00000000
00002000
00000000
00003020
,  // measure 46
00000000
00000032
00000000
00000203
00000000
00000010
00000310
00000000
,  // measure 47
00001010
00000000
00000101
00000000
00001100
00000000
00001001
00001002
,  // measure 48
00000000
00000010
00000000
00000100
00000000
00001000
00001003
00000000
,  // measure 49
00001001
00001001
00001001
00000000
00000001
00000100
00001000
00020000
,  // measure 50
00000000
00100000
00100000
00130000
,  // measure 51
01000000
00010000
10000000
01000000
11000000
00000000
01010000
00000000
,  // measure 52
10000000
01000000
01000000
00010000
01000000
01000000
00100000
00001000
,  // measure 53
00010000
00000000
00000100
00001000
00000001
00000001
00001000
00001000
,  // measure 54
00000001
00000100
00001000
00000001
00000010
00001000
00000001
00001000
,  // measure 55
00000001
00000010
00001000
00020000
00000000
00001000
00001000
00031000
,  // measure 56
00000010
00000012
00000103
00002100
,  // measure 57
00003010
00020010
00031000
00102000
,  // measure 58
01003000
00000000
00100000
20000000
00000000
30010000
00000000
10100000
,  // measure 59
00000000
01010000
00000000
00101000
00000000
00010100
00000000
00001001
,  // measure 60
00000001
00000010
00001000
00000010
00000001
00000100
00001000
00010000
,  // measure 61
00001000
00000000
00000100
00000010
00010000
00010000
00001000
00001000
,  // measure 62
00100000
00010000
01000000
10000000
01000000
00100000
10000000
00010000
,  // measure 63
10000000
01000000
00010000
00002000
00000000
00013000
11000000
00000000
,  // measure 64
10000000
10200000
00310000
00012000
,  // measure 65
00003100
00001200
00000301
00001002
,  // measure 66
00001003
00000000
00000001
00000020
00000000
00001030
00000000
00001010
,  // measure 67
00000000
00000011
00000000
00000101
00000000
00001100
00000000
00000110
,  // measure 68
00000000
00000010
00010000
00001000
00000000
00100000
00010000
10000000
,  // measure 69
00000000
01000000
10000000
00001000
00000000
00100000
00000100
00001000
,  // measure 70
00000000
00000100
00001000
00000001
00000000
00000100
00000010
00010000
,  // measure 71
00000000
00022000
00000000
00000000
,  // measure 72
00000000
00000000
00000000
00000000
,  // measure 73
00000000
00000000
00000000
00000000
,  // measure 74
00033000
00000000
00000000
00000000
;
