#TITLE:ジョジョ その血の記憶~end of THE WORLD~;
#SUBTITLE:;
#ARTIST:JO☆STARS ~TOMMY, Coda, JIN~;
#TITLETRANSLIT:JoJo Sono Chi no Kioku ~end of THE WORLD~;
#SUBTITLETRANSLIT:;
#ARTISTTRANSLIT:JOSTARS ~TOMMY, Coda, JIN~;
#GENRE:;
#CREDIT:;
#BANNER:JoJo Sono Chi no Kioku ~end of THE WORLD~.png;
#BACKGROUND:JoJo Sono Chi no Kioku ~end of THE WORLD~-bg.png;
#LYRICSPATH:;
#CDTITLE:;
#MUSIC:JoJo Sono Chi no Kioku ~end of THE WORLD~.mp3;
#OFFSET:0.694000;
#SAMPLESTART:48.591999;
#SAMPLELENGTH:14.100000;
#SELECTABLE:YES;
#BPMS:0.000000=220.001007
;
#STOPS:
;
#BGCHANGES:1.500=JoJo Sono Chi no Kioku ~end of THE WORLD~.avi=1.000=0=0=1=====,
99999=-nosongbg-=1.000=0=0=0 // don't automatically add -songbackground-
;
#KEYSOUNDS:;
#ATTACKS:;

//---------------dance-single - ----------------
#NOTES:
     dance-single:
     :
     Hard:
     9:
     0.585137,0.769962,0.517622,0.517622,0.078769,364.000000,318.000000,46.000000,46.000000,0.000000,0.000000,0.585137,0.769962,0.517622,0.517622,0.078769,364.000000,318.000000,46.000000,46.000000,0.000000,0.000000:
0000
0000
0000
0000
,
0000
0000
0000
0000
,
0000
0000
0000
0000
,
0000
0000
0000
0000
,
0000
0000
0000
0000
,
0000
0000
0000
0000
,
0000
0000
0000
0000
,
0000
0000
0000
0000
,
0000
0000
0000
0000
,
0000
0000
0000
0000
,
0000
0000
0000
0000
,
0000
0000
0000
0000
,
0000
0000
0000
0000
,
0000
0000
0000
0000
,
1000
0100
1000
0000
0001
0100
0001
0000
,
1000
0010
1000
0000
0001
0010
0001
0000
,
1000
0001
1000
0000
0010
0100
0010
0000
,
2000
0001
0000
0001
0000
3001
0100
0000
,
0001
0100
0000
0010
2000
0000
3001
0000
,
1000
0100
0000
0010
0002
0000
1003
0000
,
0001
0100
0000
0010
1000
0010
0000
1000
,
0001
0011
0110
1100
,
1000
0010
0000
0100
0002
0000
1003
0000
,
0101
1100
2001
3100
,
1000
0100
0000
0010
0001
0000
1000
0000
,
1010
0000
0011
0000
1001
0000
0001
1000
,
0001
0000
0010
0100
0000
0100
0010
0000
,
0001
0000
0100
0010
0000
0010
0100
0000
,
0102
0010
0100
1003
,
0001
0010
0100
1000
0000
2002
0000
3003
,
1000
0010
0000
0001
0010
0000
1000
0000
,
0002
2003
0010
3100
,
1000
0100
0000
0001
0100
0000
1000
0001
,
2000
0010
0100
3001
,
1000
0010
0000
0001
0010
0000
0100
0000
,
0002
2003
0010
3100
,
1000
0000
0010
0000
0010
0000
0100
0000
0001
0000
0001
0000
,
1000
0000
0001
0010
0100
1000
0100
0010
,
0002
0103
2000
3100
,
0002
0013
2000
3010
,
0001
1000
0001
1000
0000
0010
0100
0000
,
0202
0000
0300
1003
,
1001
0000
0001
0010
0100
0000
1100
0000
,
1000
0010
0100
0000
0001
1000
0001
1000
,
0001
0000
0010
0100
2000
0000
3001
0000
,
0100
2020
3030
0011
,
1001
0000
0001
0100
0002
0000
1003
0000
,
0001
0010
0001
0010
0200
0000
1300
0000
,
0001
0010
0001
0000
1000
0010
1000
0000
,
1100
0101
2000
3001
,
1000
0010
0100
0001
1000
0100
0010
0001
,
1000
1010
0022
0033
,
0001
0000
0010
0000
0010
0000
0100
0000
1000
0000
1000
0000
,
0002
0000
0103
0000
0001
0100
1000
0100
,
0001
0012
1003
2010
,
3001
0102
1003
2100
,
3001
0000
0000
0001
0200
0000
0310
0000
,
1000
0100
0000
0100
0020
0000
0031
0000
,
2000
0000
0000
0010
0000
0100
3100
0000
,
1000
0101
1100
0011
,
1020
0000
0001
0001
0000
1000
1030
0000
,
1010
0000
0110
0000
0101
0000
0001
1000
,
0001
0000
0011
0000
0001
0001
1000
0000
,
0100
1010
0101
0011
,
2100
0000
0010
0010
0000
0001
3001
0000
,
1010
0000
0000
0101
0000
0000
1001
0000
,
0010
0010
0010
0000
0000
0000
1000
0001
,
2000
3200
0320
0031
,
0102
1003
2100
3001
,
1000
0001
1000
0000
0010
0100
0010
0000
,
1000
0100
0001
0100
1000
0100
0001
0100
,
1000
0010
0001
0010
1000
0010
0001
0010
,
1000
0100
0001
0100
0010
0100
1000
0001
,
1000
0010
0001
0010
0100
0010
1000
0001
,
0000
0000
2002
0000
,
0000
0000
0000
0000
,
0000
0000
0000
0000
,
0000
0000
0000
3003
,
1100
0000
0000
0101
0000
0000
1000
0000
0010
0000
0010
0000
,
0100
0000
0001
0000
0001
0000
1000
0000
0100
0000
0100
0000
,
0022
0000
0033
0000
;

//---------------dance-single - ----------------
#NOTES:
     dance-single:
     :
     Challenge:
     9:
     0.634971,0.905838,0.585138,0.360085,0.157537,395.000000,343.000000,52.000000,32.000000,68.000000,0.000000,0.634971,0.905838,0.585138,0.360085,0.157537,395.000000,343.000000,52.000000,32.000000,68.000000,0.000000:
0000
0000
0000
0000
,
0000
0000
0000
0000
,
0000
0000
2000
0000
,
0000
0000
0000
0000
,
0000
0000
3000
0000
,
0000
0200
0000
0000
,
0000
0000
0000
0000
,
0000
0300
0000
0000
,
0020
0000
0000
0000
,
0000
0000
0000
0000
,
0030
0000
0000
0002
,
0000
0000
0000
0000
,
0000
0000
0000
0003
,
0000
0000
0000
0000
,
1000
0100
0010
0100
0010
0001
0100
0010
,
1000
0100
0001
0100
1000
0010
0100
0001
,
0010
0000
0010
0000
0001
0000
1000
0000
0010
0000
0010
0000
1000
0000
0001
0100
,
0020
1000
0000
0001
0000
1030
0010
0100
,
1001
0000
MMMM
1000
0100
0001
0100
0000
,
1001
0000
MMMM
0001
0200
0000
0310
0000
,
1001
0000
0000
1000
0200
0000
0310
0000
,
0010
0010
0100
0100
0010
0010
0001
0001
,
1001
0000
0000
0001
0010
1000
0010
0000
,
0011
1100
0011
MMMM
,
1001
0000
0000
1000
0010
0001
0010
0000
,
1010
0101
1010
MMMM
,
1000
0001
0010
0001
0000
0010
0001
0100
,
0010
0100
0001
1000
0000
0100
1000
0001
,
2001
0001
0001
3001
,
0001
0000
0010
0100
1000
0000
0001
0000
0000
0000
0220
0000
0000
0000
0330
0000
,
1000
0010
0000
0100
0001
0000
0010
0000
,
1200
0001
0010
1300
,
0001
0000
0000
0010
0000
0000
0000
0000
0000
0100
0000
0000
1000
0000
0000
0000
0010
0000
0000
0000
0100
0000
0000
0000
,
0201
1000
0010
0301
,
1000
0100
0000
0010
0001
0000
0100
0000
,
1020
0000
0000
0000
0001
0000
0000
0000
1030
0000
0000
0000
0010
1000
0001
0000
,
2002
3003
0220
0330
,
1000
0000
0001
0100
0010
1000
0001
0000
,
1100
MMMM
0101
MMMM
,
0110
MMMM
1001
MMMM
,
1000
0100
0010
0001
0000
0100
0100
0000
,
0020
0000
0000
0000
,
1030
0000
0010
0100
0010
1000
1001
0000
,
0001
0100
0000
0010
0100
0001
1000
0100
,
0110
0000
0010
0010
0001
0000
0100
0000
,
0010
1000
0001
0000
2002
0000
0000
0000
3003
0000
0001
0000
1000
0000
1000
0000
,
1010
0000
0001
0001
0011
0000
0010
0100
,
1000
0010
0001
0010
1000
0000
0000
0110
,
0000
0001
0100
0010
1000
0100
0010
0001
,
0101
1010
1001
MMMM
,
1000
0100
0010
0100
0001
0100
0010
0100
,
1100
0011
1001
MMMM
,
0010
0000
1000
0000
0100
0000
0010
0000
0001
0000
0100
0000
,
0010
0000
1000
0010
0000
0100
0001
0000
,
1000
0000
0100
0000
1100
0000
0000
0000
0001
0000
0100
0000
0101
0000
0000
1000
,
0100
0000
0010
0000
0011
0000
0000
0001
0100
0000
0010
0000
1010
0000
1000
0000
,
0002
0000
0000
0000
0000
0000
0000
0000
0000
0010
0000
0000
0010
0000
0003
0000
0000
0000
0001
0000
0000
0000
0000
0000
,
2000
0000
0001
0000
0001
0000
3001
0000
0000
1001
0000
0000
,
2000
0000
0000
0010
0000
3001
1000
0000
,
0002
0000
0000
0010
0000
1003
0001
0000
,
0010
0000
0001
0100
0010
0000
0100
0000
,
1010
0000
1001
0000
0011
0000
0010
0100
,
1000
0100
0001
0100
,
1000
0000
0010
0100
0010
0000
0100
0000
0001
0000
0010
0000
0110
0000
0100
0000
,
1002
0203
0320
1030
,
1010
0000
0000
MMMM
0000
0000
0011
0000
0000
MMMM
0000
0000
0110
0000
0000
0000
,
0100
0100
0100
0000
MMMM
0000
MMMM
0000
,
MMMM
0000
0000
0000
MMMM
0000
0000
0000
MMMM
0000
1000
0001
1000
0000
0000
0000
,
1002
0000
0000
0000
0000
0000
1003
0100
1000
0000
0000
0000
1010
0000
0000
0000
,
1000
0000
0001
0100
0001
0000
0010
0000
0100
1000
0001
0000
0100
0000
0010
0000
,
1000
1000
0001
0001
1000
1000
0001
0001
,
1000
1000
0100
0100
0010
0010
0001
0001
,
0100
0100
0100
0100
0100
0100
0100
0100
,
0010
0010
0010
0010
0010
0010
0010
0010
,
0000
0000
0000
0000
0000
0000
0000
0000
2000
0002
0000
0000
0000
0000
0000
0000
,
0000
0000
0000
0000
,
0000
0000
0000
0000
,
0000
0000
0000
3003
,
1001
0000
0000
0110
0000
0000
1000
0000
0100
0000
0010
0000
,
0001
0000
0100
0000
1000
0000
0001
0000
0010
0000
1000
0000
,
2002
0000
3003
0000
;

//---------------dance-double - Blank----------------
#NOTES:
     dance-double:
     :
     Hard:
     9:
     0.572277,0.769962,0.472611,0.517622,0.078769,356.000000,314.000000,42.000000,46.000000,0.000000,0.000000,0.572277,0.769962,0.472611,0.517622,0.078769,356.000000,314.000000,42.000000,46.000000,0.000000,0.000000:
// measure 0
00000000
00000000
00000000
00000000
,  // measure 1
00000000
00000000
00000000
00000000
,  // measure 2
00000000
00000000
00000000
00000000
,  // measure 3
00000000
00000000
00000000
00000000
,  // measure 4
00000000
00000000
00000000
00000000
,  // measure 5
00000000
00000000
00000000
00000000
,  // measure 6
00000000
00000000
00000000
00000000
,  // measure 7
00000000
00000000
00000000
00000000
,  // measure 8
00000000
00000000
00000000
00000000
,  // measure 9
00000000
00000000
00000000
00000000
,  // measure 10
00000000
00000000
00000000
00000000
,  // measure 11
00000000
00000000
00000000
00000000
,  // measure 12
00000000
00000000
00000000
00000000
,  // measure 13
00000000
00000000
00000000
00000000
,  // measure 14
10000000
00100000
10000000
00000000
00010000
01000000
00010000
00000000
,  // measure 15
00100000
00001000
00100000
00000000
00000100
00010000
00000100
00000000
,  // measure 16
00001000
00000010
00001000
00000000
00000001
00000100
00000001
00000000
,  // measure 17
00002000
00000100
00000000
00000100
00000000
00003100
00010000
00000000
,  // measure 18
00001000
00100000
00000000
00001000
00200000
00000000
01300000
00000000
,  // measure 19
10000000
00100000
00000000
10000000
00200000
00000000
01300000
00000000
,  // measure 20
00010000
00100000
00000000
00001000
00010000
00001000
00000000
00010000
,  // measure 21
00000100
00001100
00001010
00001001
,  // measure 22
00000001
00000010
00000000
00000100
00002000
00000000
00003001
00000000
,  // measure 23
00000101
00001100
00021000
00130000
,  // measure 24
10000000
01000000
00000000
00100000
00020000
00000000
10030000
00000000
,  // measure 25
10100000
00110000
00012000
00003100
,  // measure 26
00000001
00000000
00000010
00000100
00000000
00000100
00001000
00000000
,  // measure 27
00000001
00000000
00000100
00000010
00000000
00000010
00001000
00000000
,  // measure 28
00000200
00010000
00001000
00010300
,  // measure 29
00000100
00010000
00001000
00100000
00000000
20020000
00000000
30030000
,  // measure 30
10000000
00100000
00000000
00100000
00010000
00000000
00001000
00000000
,  // measure 31
00000200
00000010
00000010
00000310
,  // measure 32
00001000
00000100
00000000
00000100
00000001
00000000
00000001
00000100
,  // measure 33
00000020
00000100
00000130
00001001
,  // measure 34
00000001
00000100
00000000
00000100
00001000
00000000
00010000
00000000
,  // measure 35
00200000
01000000
01000000
01300000
,  // measure 36
00010000
00000000
00100000
00000000
00001000
00000000
00010000
00000000
00000100
00000000
00001000
00000000
,  // measure 37
00000001
00000000
00000100
00000010
00000100
00000010
00001000
00000100
,  // measure 38
00020000
00031000
00200000
00310000
,  // measure 39
20000000
30100000
02000000
03010000
,  // measure 40
00100000
00001000
00100000
00001000
00000000
00010000
00000100
00000000
,  // measure 41
00002002
00000000
00000000
00003003
,  // measure 42
00001001
00000000
00000001
00000100
00001000
00000000
00001100
00000000
,  // measure 43
00000100
00001000
00010000
00000000
00100000
10000000
00010000
00000000
,  // measure 44
10010000
00000000
10000000
01000000
00010000
00000000
00011000
00000000
,  // measure 45
00001000
00000010
00000002
00000000
00000000
00000000
00000103
00000000
,  // measure 46
00000102
00001003
00002100
00003001
,  // measure 47
00001000
00000010
00001000
00000010
00020000
00000000
00031000
00000000
,  // measure 48
10000000
01000000
10000000
00000000
00010000
01000000
00010000
00000000
,  // measure 49
10100000
01010000
00200000
00301000
,  // measure 50
00010000
00000010
00010000
00000000
00000100
00001000
00000100
00000000
,  // measure 51
00001010
00000101
00002002
00003003
,  // measure 52
00000001
00000000
00000100
00000000
00001000
00000000
00010000
00000000
00001000
00000000
00000100
00000000
,  // measure 53
00000002
00000000
00001003
00000000
00000001
00000100
00001000
00010000
,  // measure 54
00100000
21000000
30010000
00210000
,  // measure 55
00301000
00010200
00001300
00001001
,  // measure 56
00000001
00000000
00000001
00000200
00000000
00000000
00000310
00000000
,  // measure 57
00001000
00000100
00000000
00000100
00020000
00000000
00031000
00000000
,  // measure 58
00200000
00000000
00000000
10000000
00000000
00000000
00310000
00000000
,  // measure 59
00100000
00110000
00101000
00011000
,  // measure 60
00010200
00000000
00000001
00000001
00001000
00001000
00000300
00000000
,  // measure 61
00010010
00000000
00010100
00000000
00011000
00000000
00010000
00100000
,  // measure 62
10000000
00000000
11000000
00000000
10000000
10000000
00010000
00000000
,  // measure 63
00100000
00001000
00010000
00000100
00001000
00000010
00000100
00000001
,  // measure 64
00002000
00000000
00000010
00000020
00000000
00000000
00003030
00000000
,  // measure 65
00000101
00000000
00000000
00001100
00000000
00000000
00011000
00000000
,  // measure 66
00100000
00100000
00100000
00000000
00000000
00000000
10000000
00010000
,  // measure 67
20000000
30200000
00320000
00032000
,  // measure 68
00003200
00000310
00002000
00003001
,  // measure 69
00000010
00000100
00001000
00000000
00000001
00000100
00000010
00000000
,  // measure 70
00001000
00000010
00001000
00000010
00010000
00000100
00010000
00000100
,  // measure 71
00100000
00001000
00100000
00001000
10000000
01000000
10000000
01000000
,  // measure 72
10000000
00100000
01000000
00010000
00100000
00001000
00010000
00000100
,  // measure 73
00001000
00000010
00000001
00000010
00001000
00010000
01000000
10000000
,  // measure 74
00000000
00000000
20020000
00000000
,  // measure 75
00000000
00000000
00000000
00000000
,  // measure 76
00000000
00000000
00000000
00000000
,  // measure 77
00000000
00000000
00000000
30030000
,  // measure 78
11000000
00000000
00000000
01010000
00000000
00000000
10000000
00000000
01000000
00000000
00010000
00000000
,  // measure 79
00001000
00000000
00000010
00000000
00000001
00000000
00000010
00000000
00001000
00000000
00100000
00000000
,  // measure 80
20020000
00000000
30030000
00000000
;

//---------------dance-double - ----------------
#NOTES:
     dance-double:
     :
     Challenge:
     10:
     0.665514,1.128781,0.652653,0.348832,0.185669,414.000000,356.000000,58.000000,31.000000,144.000000,0.000000,0.665514,1.128781,0.652653,0.348832,0.185669,414.000000,356.000000,58.000000,31.000000,144.000000,0.000000:
00000000
00000000
00000000
00000000
,
00000000
00000000
00000000
00000000
,
00000000
00000000
20000000
00000000
,
00000000
00000000
00000000
00000000
,
00000000
00000000
30000000
00000000
,
00000000
02000000
00000000
00000000
,
00000000
00000000
00000000
00000000
,
00000000
03000000
00000000
00000000
,
00200000
00000000
00000000
00000000
,
00000000
00000000
00000000
00000000
,
00300000
00000000
00000000
00020000
,
00000000
00000000
00000000
00000000
,
00000000
00000000
00000000
00030000
,
00000000
00000000
00000000
00000000
,
10000000
01000000
00010000
01000000
00100000
00010000
01000000
00100000
,
01000000
00001000
00010000
01000000
00010000
00001000
00000100
00000010
,
00001000
00000000
00001000
00000000
00000100
00000000
00000010
00000000
00000001
00000000
00000001
00000000
00000100
00000000
00000001
00001000
,
00000020
00000001
00000000
00001000
00000000
00000130
00000010
00001000
,
00001001
00000000
00000000
MMMMMMMM
00000000
00000000
00001000
00000000
00000100
00000000
00010000
00000000
00000100
00000000
00000000
00000000
,
00001001
00000000
00000000
MMMMMMMM
00000000
00000000
00000001
00000000
00000100
00000000
00001000
00000000
00010000
00000000
00000000
00000000
,
00011000
00010000
00000000
00000100
00000000
00000010
00000001
00000000
,
00000100
00000100
00001000
00001000
00010000
00010000
01000000
10000000
,
10010000
00000000
00000000
MMMMMMMM
00000000
00000000
00010000
00000000
01000000
00000000
00001000
00000000
01000000
00000000
00000000
00000000
,
01001000
00011000
00220000
00330000
,
10010000
00000000
00000000
MMMMMMMM
00000000
00000000
10000000
00000000
01000000
00000000
00010000
00000000
00001000
00000000
00000000
00000000
,
00011000
00000000
00001100
00000000
00000011
00000000
00000010
00000010
,
00000001
00000100
00000010
00001000
00000000
00001000
00000010
00010000
,
00001000
00000100
00001000
00010000
00000000
00010000
01000000
10000000
,
20010000
00010000
00010000
30010000
,
10000000
00000000
01000000
00100000
00010000
00000000
01000000
00000000
00000000
00000000
02200000
00000000
00000000
00000000
03300000
00000000
,
20000000
01000000
00000000
00010000
30010000
00000000
00100000
00000000
,
00021000
00000100
00000010
00030100
,
00002000
00000000
00000000
00000100
00000000
00000000
00000000
00000000
00000000
00003001
00000000
00000000
00000100
00000000
00000000
00000000
00001000
00000000
00000000
00000000
00010000
00000000
00000000
00000000
,
00012000
01000000
00100000
01003000
,
01000000
00010000
00000000
00100000
01000000
00000000
10000000
00000000
,
20100000
00000000
00000000
00000000
01000000
00000000
00000000
00000000
30010000
00000000
00000000
00000000
10000000
00010000
01000000
00000000
,
02002000
03003000
00020200
00030300
,
00000110
00000000
00000100
00010000
00001000
01000000
00100000
00000000
,
10010000
MMMMMMMM
00011000
MMMMMMMM
,
00001001
MMMMMMMM
00011000
MMMMMMMM
,
10000000
01000000
00100000
00010000
00000000
01000000
01000000
00000000
,
00200000
00000000
00000000
01300000
,
01100000
00000000
00100000
10000000
01000000
00100000
00101000
00000000
,
00001000
00010000
00000000
00010000
00000100
00000010
00000001
00000100
,
00000101
00000000
00000100
00000010
00001000
00000000
00000100
00000000
,
00000010
00000001
00001000
00000010
00002000
00000000
00000000
00000000
00000000
00000000
00003100
00000000
00010000
00000000
00010000
00000000
,
00010100
00000000
00001000
00001000
01001000
00000000
00001000
00010000
,
01000000
10000000
00100000
00010000
00100000
00000000
00000000
10100000
,
00000000
00100000
01000000
00010000
00100000
00001000
00010000
00000100
,
00001000
00000110
00000011
MMMMMMMM
,
00000001
00000100
00000010
00001000
00000100
00010000
00001000
00100000
,
00010000
11000000
10100000
MMMMMMMM
,
10000000
00000000
01000000
00000000
00100000
00000000
00010000
00000000
00000100
00000000
00000001
00000000
,
00000010
00000000
00001000
00000010
00000000
00000001
00000100
00000010
,
00001000
00000000
00001000
00000000
00001100
00000000
00000100
00010000
00000100
00000000
00010000
00000000
00010010
00000000
00010000
00001000
,
00010000
00000000
00001000
00000000
01001000
00000000
01000000
00001000
01000000
00000000
00010000
00000000
01010000
00000000
01000000
00000000
,
10010000
00000000
10000000
01000000
00000000
00100000
00110000
00000000
,
00011000
00000000
00000000
00000000
00001000
00000000
00000000
00000000
00000010
00000000
00000000
00000000
00000001
00000000
00000000
00000100
00000000
00000000
00000101
00000000
00000000
00000000
00000000
00000000
,
00001001
00000000
00000001
00000010
00000000
00000100
00001100
00000000
,
00012000
00203000
20300000
30100000
,
00110000
00000000
00100000
00001000
00010000
00000000
00000100
00000000
,
00000110
00000000
00000011
00000000
00000101
00000000
00000001
00000100
,
00000010
00001000
00010000
10000000
,
00010000
00000000
00100000
01000000
00100000
00000000
01000000
00000000
10000000
00000000
00100000
00000000
10100000
00000000
01000000
00000000
,
20010000
32000000
03200000
00310000
,
00101000
00000000
00000000
MMMMMMMM
00000000
00000000
00010010
00000000
00000000
MMMMMMMM
00000000
00000000
00010000
00000000
00000000
00000000
,
00011000
00011000
00011000
00000000
MMMMMMMM
00000000
MMMMMMMM
00000000
,
MMMMMMMM
00000000
00000000
00000000
MMMMMMMM
00000000
00000000
00000000
MMMMMMMM
00000000
00000001
00001000
00000001
00000000
00000000
00000000
,
00000201
00000000
00000000
00000000
00000000
00000000
00000310
00001000
00000001
00000000
00000000
00000000
00000100
00000000
00000000
00000000
,
00001000
00000000
00010000
00001000
01000000
00000000
00100000
00000000
10000000
00000000
01000000
00000000
00010000
00000000
01000000
00000000
,
10000000
10000000
01000000
01000000
00100000
00100000
00010000
00010000
,
00001000
00001000
00000100
00000100
00000010
00000010
00000001
00000001
,
00000100
00000100
00000100
00000100
00000100
00000100
00000100
00000100
,
00000010
00000010
00000010
00000010
00000010
00000010
00000010
00000010
,
00000000
00000000
00000000
00000000
00000000
00000000
00000000
00000000
00020000
00002000
00000000
00000000
00000000
00000000
00000000
00000000
,
00000000
00000000
00000000
00000000
,
00000000
00000000
00000000
00000000
,
00000000
00000000
00033000
MMMMMMMM
,
00101000
00000000
00000000
11000000
00000000
00000000
01000000
00000000
00010000
00000000
00001000
00000000
,
00000100
00000000
00000001
00000000
00000100
00000000
00010000
00000000
00100000
00000000
10000000
00000000
,
02000000
03000000
00000000
00000000
;

//---------------dance-single - ----------------
#NOTES:
     dance-single:
     :
     Easy:
     5:
     0.339187,0.452919,0.157537,0.135032,0.000000,211.000000,197.000000,14.000000,12.000000,0.000000,0.000000,0.339187,0.452919,0.157537,0.135032,0.000000,211.000000,197.000000,14.000000,12.000000,0.000000,0.000000:
0000
0000
0000
0000
,
0000
0000
0000
0000
,
0000
0000
0000
0000
,
0000
0000
0000
0000
,
0000
0000
0000
0000
,
0000
0000
0000
0000
,
0000
0000
0000
0000
,
0000
0000
0000
0000
,
0000
0000
0000
0000
,
0000
0000
0000
0000
,
0000
0000
0000
0000
,
0000
0000
0000
0000
,
0000
0000
0000
0000
,
0000
0000
0000
0000
,
1000
0010
1000
0000
,
0001
0010
0001
0000
,
1000
0100
1000
0000
,
0001
0100
0010
1000
,
0001
0000
0011
0000
,
1000
0000
1010
0000
,
0001
0010
0100
1000
,
0001
0001
1000
1000
,
0010
0000
0101
0000
,
1000
0001
1001
0000
,
0010
0000
1100
0000
,
1000
0001
1001
0000
,
1000
0010
1000
0010
,
0100
0001
0100
0001
,
1000
1000
1000
1000
,
0001
0010
0100
1000
,
0001
0100
0001
0100
,
0010
1000
0010
0000
,
1000
0100
1000
0100
,
0010
0000
0001
0000
,
1000
0001
1000
0001
,
0100
0010
0100
0000
,
0001
1000
0001
1000
,
0010
0000
0100
0000
,
0001
0010
0100
1000
,
0100
0010
0001
0000
,
1000
1000
0001
0001
,
0200
0000
0000
0300
,
0001
0100
0001
0000
,
1000
0010
1000
0000
,
0001
0010
0100
1000
,
0001
2000
3000
1000
,
0001
0100
0001
0100
,
0010
0100
0010
0000
,
1000
0100
1000
0100
,
0010
0100
0010
0000
,
0001
0010
0100
1000
,
0100
0010
0001
0000
,
1000
0010
0100
0001
,
0100
0000
0010
1000
,
0001
1000
0000
1001
,
0000
0001
0000
1001
,
2000
3000
0010
0000
,
0200
0300
0001
0000
,
0020
0030
0100
0000
,
2000
3000
0001
0000
,
1000
0010
1000
0000
,
0001
0100
0001
0000
,
1000
0100
1000
0100
,
0010
0001
0010
0001
,
1000
0001
1000
0000
,
0010
0000
0000
0010
0000
0000
0010
0000
,
0100
0100
0000
0000
,
0001
0010
0100
1000
,
0002
0003
2000
3000
,
0010
0100
0001
1000
,
0001
0001
0001
0001
,
0010
0010
0010
0010
,
0100
0100
0100
0100
,
1000
1000
1000
1000
,
0000
0000
2002
0000
,
0000
0000
0000
0000
,
0000
0000
0000
0000
,
0000
0000
0000
3003
,
1010
0000
0101
0000
,
0011
0000
1100
0000
,
2002
0000
3003
0000
;

//---------------dance-single - ----------------
#NOTES:
     dance-single:
     :
     Medium:
     7:
     0.461358,0.588795,0.315074,0.562632,0.000000,287.000000,259.000000,28.000000,50.000000,0.000000,0.000000,0.461358,0.588795,0.315074,0.562632,0.000000,287.000000,259.000000,28.000000,50.000000,0.000000,0.000000:
0000
0000
0000
0000
,
0000
0000
0000
0000
,
0000
0000
0000
0000
,
0000
0000
0000
0000
,
0000
0000
0000
0000
,
0000
0000
0000
0000
,
0000
0000
0000
0000
,
0000
0000
0000
0000
,
0000
0000
0000
0000
,
0000
0000
0000
0000
,
0000
0000
0000
0000
,
0000
0000
0000
0000
,
0000
0000
0000
0000
,
0000
0000
0000
0000
,
1000
0010
1000
0010
,
0100
0001
0100
0001
,
1000
0100
0010
0001
,
1000
0001
0000
1000
0000
0010
0100
0000
,
0001
0000
0000
0001
0010
0000
0100
0000
,
1000
0000
0000
1000
0010
0000
0100
0000
,
0001
0000
0000
0001
0100
0000
0010
0000
,
1000
1000
0001
0001
,
1000
0000
0000
1000
0100
0000
0001
0000
,
0100
1000
1002
0103
,
0001
0000
0000
0001
0010
0000
1000
0000
,
0010
0001
2001
3100
,
1000
0000
0010
0100
0000
0100
0001
0000
,
1000
0000
0100
0010
0000
0010
0001
0000
,
1000
1000
0001
0001
,
0100
0000
0010
1000
0000
2002
0000
3003
,
1000
0010
0000
0010
1000
0000
0010
0000
,
0200
0001
0001
0301
,
1000
0100
0000
0100
1000
0000
0100
0000
,
0020
0001
0001
0031
,
1000
0010
0000
0010
0100
0000
0001
0000
,
2000
0001
0001
3001
,
0202
0303
2200
3300
,
1001
0000
1000
0010
1000
0000
0010
0000
,
0200
0310
2000
3001
,
0020
0130
2000
3001
,
0100
0010
0100
0010
0000
1000
0001
0000
,
2002
0000
0000
3003
,
0001
0000
0010
0100
0000
0100
0010
0000
,
0001
0100
0020
1030
,
0001
0000
0100
0010
0000
0010
0100
0000
,
0001
2002
3003
0101
,
0002
0013
0200
1300
,
0001
1000
0001
1000
0002
0000
0003
0000
,
2000
3010
0200
0301
,
1000
0001
2002
3003
,
2000
3100
0002
0103
,
1100
0101
2002
3003
,
0001
0010
1000
0100
,
0001
0010
0100
1000
,
0001
0011
0001
0011
,
1000
1010
1000
1001
,
1000
0000
0000
1000
0010
0000
0100
0000
,
0001
0000
0000
0001
0100
0000
0010
0000
,
2000
0000
0000
0001
0000
0000
3001
0000
,
0100
0020
2030
3002
,
0013
0000
0100
1000
0200
0000
1300
0000
,
0001
0100
1000
0100
,
0020
0130
0002
1003
,
0001
0011
1100
0101
,
2010
0000
0000
0002
0000
0000
3003
0000
,
0101
0000
0000
1100
0000
0000
1001
0000
,
0010
0010
0010
0000
0000
0000
1000
0001
,
2000
3020
0230
0302
,
2003
3000
0002
0003
,
0010
0100
1000
0001
,
1000
0010
1000
0000
0010
1000
0010
0000
,
0100
0001
0100
0000
0001
0100
0001
0000
,
0010
0001
0010
0000
0001
0010
0001
0000
,
1000
0100
1000
0000
0100
1000
0100
1000
,
0000
0000
2002
0000
,
0000
0000
0000
0000
,
0000
0000
0000
0000
,
0000
0000
0000
3003
,
1100
0101
1000
0100
,
0001
0010
1000
0001
,
2002
0000
3003
0000
;
