#VERSION:0.83;
#TITLE:ゲゲゲの鬼太郎;
#SUBTITLE:;
#ARTIST:泉谷しげる;
#TITLETRANSLIT:Gegege no Kitaro;
#SUBTITLETRANSLIT:;
#ARTISTTRANSLIT:Shigeru Izumiya;
#GENRE:;
#ORIGIN:;
#CREDIT:;
#BANNER:Gegege no Kitaro.png;
#BACKGROUND:Gegege no Kitaro-bg.png;
#PREVIEWVID:;
#JACKET:Gegege no Kitaro-jacket.png;
#CDIMAGE:;
#DISCIMAGE:;
#LYRICSPATH:;
#CDTITLE:;
#MUSIC:Gegege no Kitaro.mp3;
#OFFSET:-0.081186;
#SAMPLESTART:15.614578;
#SAMPLELENGTH:15.640000;
#SELECTABLE:YES;
#BPMS:0.000=108.000;
#STOPS:;
#DELAYS:;
#WARPS:;
#TIMESIGNATURES:0.000=4=4;
#TICKCOUNTS:0.000=4;
#COMBOS:0.000=1;
#SPEEDS:0.000=1.000=0.000=0;
#SCROLLS:0.000=1.000;
#FAKES:;
#LABELS:0.000=Song Start;
#BGCHANGES:;
#KEYSOUNDS:;
#ATTACKS:
;

//---------------dance-single - ----------------
#NOTEDATA:;
#CHARTNAME:;
#STEPSTYPE:dance-single;
#DESCRIPTION:;
#CHARTSTYLE:;
#DIFFICULTY:Hard;
#METER:7;
#RADARVALUES:0.448466,0.531930,0.455387,0.339118,0.218004,324.000000,277.000000,47.000000,35.000000,0.000000,0.000000,0.000000,0.000000,0.000000,0.448466,0.531930,0.455387,0.339118,0.218004,324.000000,277.000000,47.000000,35.000000,0.000000,0.000000,0.000000,0.000000,0.000000;
#CREDIT:;
#NOTES:
// measure 0
0000
0000
0000
0000
,  // measure 1
0000
0000
0000
0000
,  // measure 2
0000
0000
0000
0000
,  // measure 3
2010
0000
0000
0100
0000
0100
0000
0000
0001
0000
0000
0001
3000
0000
0000
0000
,  // measure 4
0012
0000
0000
0100
0000
0100
0000
0000
1000
0000
0000
1000
0003
0000
0001
1000
,  // measure 5
0002
0000
0000
0103
0000
0000
0001
0010
0001
0000
0000
0010
0100
0010
0000
0100
,  // measure 6
1000
0000
0000
0000
0001
0000
0100
0010
0100
0000
0000
0001
1000
0001
0000
0000
,  // measure 7
0102
1003
2100
3001
,  // measure 8
1000
0100
0001
0010
2000
0000
3001
0000
,  // measure 9
1000
0000
0000
0010
0000
0000
0100
0000
0001
0000
0001
0000
1000
0000
1000
0000
,  // measure 10
1100
0000
0000
0000
0101
0000
0000
0000
1001
0000
0000
0001
1000
0000
0010
0000
,  // measure 11
1000
0100
0000
0001
0100
0010
0001
0001
,  // measure 12
1000
0000
0010
0000
0000
0001
0000
0000
0010
0000
0100
0000
0001
1000
0000
0000
,  // measure 13
0001
0010
1000
0010
0011
0000
1010
0000
,  // measure 14
0001
0001
1000
1000
1100
0101
1001
0000
,  // measure 15
1020
0001
0030
0001
0200
0000
1300
1000
,  // measure 16
0002
0000
0000
0000
0000
0000
0000
0000
0003
1000
0010
0000
0100
0000
0001
0000
,  // measure 17
0012
1003
2010
3001
,  // measure 18
1000
0010
0001
0100
2000
0000
3001
0000
,  // measure 19
0200
0000
0310
1000
0001
0001
0001
0000
,  // measure 20
1100
0000
0100
0000
0101
0000
0100
0000
0010
0000
0010
0000
0001
1000
0000
0000
,  // measure 21
0001
0100
0010
0100
1000
0100
0010
0100
,  // measure 22
0001
0000
0000
0002
0000
0000
0003
0000
0010
0100
0010
0000
0001
1000
0000
1000
,  // measure 23
0002
0000
0100
0000
0000
0100
0000
0000
1000
0000
0000
1000
0003
0000
0001
0000
,  // measure 24
2000
0000
0100
0000
0000
0100
0000
0000
0001
0000
0000
0001
3000
0000
1000
0000
,  // measure 25
1001
0000
0002
0000
0000
0000
0203
0000
0000
0000
0310
0000
1000
0000
0001
0020
,  // measure 26
0000
0130
0000
0000
1000
0000
0010
0200
0000
0000
0301
0000
1000
0000
1000
0000
,  // measure 27
0001
0000
0100
0000
0010
0000
0100
0000
1000
0000
0100
0010
0100
0000
0010
0000
,  // measure 28
1010
0000
1010
0000
0011
0000
0011
0000
1001
0000
0000
0001
0010
0000
0100
0000
,  // measure 29
1200
0310
0201
0310
,  // measure 30
0001
0100
1000
0010
0002
0000
1003
0000
,  // measure 31
0001
1000
0010
0001
1000
0100
0010
1000
,  // measure 32
1100
0000
0000
0000
0011
0000
0000
0000
1001
0000
0000
0001
0100
0000
0010
0000
,  // measure 33
1000
0100
0001
0000
0101
0100
1000
1000
,  // measure 34
0001
0000
0100
0000
0000
1000
0000
0000
1100
0000
0100
0000
0001
1000
0000
0000
,  // measure 35
0001
0010
1000
0001
0000
0100
0010
0001
,  // measure 36
1000
1000
0001
0001
1010
0101
1001
0000
,  // measure 37
1200
0000
0301
0001
0020
0000
1030
1000
,  // measure 38
2002
0000
0000
0000
0000
0000
0000
0000
3003
0001
0100
0000
0010
0000
1000
0000
,  // measure 39
1020
0130
0021
0130
,  // measure 40
0001
0010
1000
0100
0002
0000
1003
0000
,  // measure 41
0200
0000
0310
0001
1000
1000
1000
0000
,  // measure 42
1010
0000
0010
0000
0011
0000
0010
0000
0110
0000
0000
0100
0001
0000
1000
0000
,  // measure 43
0102
0000
0000
0010
0000
0010
0000
0000
1000
0000
0000
0100
0003
0000
0001
0000
,  // measure 44
2010
0000
0000
0100
0000
0100
0000
0000
0001
0000
0000
0010
3000
0000
1000
0000
,  // measure 45
0101
1010
0011
1100
2002
0000
3003
0000
;

//---------------dance-single - ----------------
#NOTEDATA:;
#CHARTNAME:;
#STEPSTYPE:dance-single;
#DESCRIPTION:;
#CHARTSTYLE:;
#DIFFICULTY:Medium;
#METER:5;
#RADARVALUES:0.351575,0.376784,0.155025,0.358496,0.000000,254.000000,238.000000,16.000000,37.000000,0.000000,0.000000,0.000000,0.000000,0.000000,0.351575,0.376784,0.155025,0.358496,0.000000,254.000000,238.000000,16.000000,37.000000,0.000000,0.000000,0.000000,0.000000,0.000000;
#CREDIT:;
#NOTES:
0000
0000
0000
0000
,
0000
0000
0000
0000
,
0000
0000
0000
0000
,
2000
0000
3010
0010
0100
0000
1001
0000
,
0002
0000
0013
0010
0100
0000
1001
1000
,
0002
0000
0103
0100
0010
0000
1000
0001
,
2000
0000
3100
0000
0010
0001
1000
0001
,
2000
3010
0002
0013
,
1000
0100
0001
0100
2000
0000
3001
0000
,
1000
0010
0100
0001
,
0011
1100
1002
0103
,
0001
0100
0010
0000
2000
0000
3001
0000
,
1000
0100
0010
0000
0002
0000
1003
0000
,
0001
0100
1000
0100
0001
0000
0010
0100
,
2000
0000
3001
0000
0100
0100
0100
0000
,
0001
0010
0001
0010
0100
0000
1000
0001
,
2000
0000
3000
0000
0010
0100
0010
1000
,
0002
0103
2000
3100
,
0001
0010
1000
0010
0002
0000
1003
0000
,
0002
0000
0103
0010
1000
1000
1000
0000
,
0001
0010
1000
0010
0001
0000
1001
0000
,
1000
1000
0100
0100
0010
0010
0001
0001
,
1000
1000
0100
0000
0001
0001
0100
0000
,
1000
0010
0001
0010
0200
0000
0301
0000
,
1000
0100
0001
0100
0020
0000
0031
0000
,
1000
0002
0000
0203
0000
0310
1000
1000
,
0001
0010
1000
0000
0001
0100
1000
0000
,
0001
0100
1000
0100
0010
1000
0001
0010
,
0100
0100
0010
0010
1002
0000
0103
0000
,
0002
0103
2000
3100
,
0001
0010
1000
0010
0002
0000
1003
0000
,
0001
0100
0010
1000
,
1100
0011
2001
3010
,
1000
0010
0100
0000
0002
0000
1003
0000
,
0001
0010
0100
0000
2000
0000
3001
0000
,
1000
0010
0001
0010
1000
0000
0100
0010
,
0002
0000
1003
0000
0010
0010
0010
0000
,
1000
0100
1000
0100
0010
0000
0001
1000
,
0002
0000
0003
0000
0100
0010
0100
0001
,
2000
3010
0002
0013
,
1000
0100
0001
0100
2000
0000
3001
0000
,
2000
0000
3010
0100
0001
0001
0001
0000
,
1000
0100
0001
0100
1000
0000
1001
0000
,
0021
0000
0130
1000
0001
0000
1001
0000
,
0201
0000
0310
1000
0001
0000
1001
0000
,
1000
0100
0001
0100
2002
0000
3003
0000
;

//---------------dance-single - ----------------
#NOTEDATA:;
#CHARTNAME:;
#STEPSTYPE:dance-single;
#DESCRIPTION:;
#CHARTSTYLE:;
#DIFFICULTY:Easy;
#METER:3;
#RADARVALUES:0.224233,0.265965,0.135647,0.184092,0.000000,162.000000,148.000000,14.000000,19.000000,0.000000,0.000000,0.000000,0.000000,0.000000,0.224233,0.265965,0.135647,0.184092,0.000000,162.000000,148.000000,14.000000,19.000000,0.000000,0.000000,0.000000,0.000000,0.000000;
#CREDIT:;
#NOTES:
0000
0000
0000
0000
,
0000
0000
0000
0000
,
0000
0000
0000
0000
,
1000
0010
1000
1000
,
0001
0020
0031
0001
,
1000
0100
1000
1000
,
0001
0100
0001
0001
,
0101
0000
1100
0000
,
0001
0010
0200
0300
,
1000
0010
0001
0010
,
0100
0100
0200
0300
,
0001
0100
0002
0003
,
1000
0100
2000
3000
,
0001
0010
1000
0010
,
0001
0001
1000
1000
,
0001
0100
0010
0100
,
2000
3000
0100
0001
,
1010
0000
0011
0000
,
1000
0010
0200
0300
,
0001
0010
1000
0001
,
0100
0100
1001
0000
,
1000
1000
0010
0010
,
0100
0100
0001
0001
,
1000
0100
0010
0100
,
0001
0100
0010
0100
,
1000
1000
0010
0010
,
0100
0100
0001
0001
,
1000
0010
0100
0010
,
0001
0010
2002
3003
,
0011
0000
1100
0000
,
0001
0100
2000
3000
,
0100
0010
1000
0001
,
0010
0010
0020
0030
,
0001
0100
2000
3000
,
0001
0010
2000
3000
,
0001
0010
0100
1000
,
0001
0001
1000
1000
,
0001
0100
1000
0010
,
0002
0003
0010
0100
,
1010
0000
0101
0000
,
0001
0010
2000
3000
,
0010
0001
0100
0010
,
1000
1000
2002
3003
,
0001
0010
0100
0100
,
1000
0010
0100
0100
,
1001
1001
2002
3003
;

//---------------dance-double - ----------------
#NOTEDATA:;
#CHARTNAME:;
#STEPSTYPE:dance-double;
#DESCRIPTION:;
#CHARTSTYLE:;
#DIFFICULTY:Hard;
#METER:7;
#RADARVALUES:0.433240,0.531930,0.397252,0.310050,0.193782,313.000000,272.000000,41.000000,32.000000,0.000000,0.000000,0.000000,0.000000,0.000000,0.433240,0.531930,0.397252,0.310050,0.193782,313.000000,272.000000,41.000000,32.000000,0.000000,0.000000,0.000000,0.000000,0.000000;
#CREDIT:;
#NOTES:
00000000
00000000
00000000
00000000
,
00000000
00000000
00000000
00000000
,
00000000
00000000
00000000
00000000
,
00102000
00000000
00000000
00010000
00000000
00010000
00000000
00000000
01000000
00000000
00000000
01000000
00003000
00000000
00000000
00000000
,
00020100
00000000
00000000
00001000
00000000
00001000
00000000
00000000
00000010
00000000
00000000
00000010
00030000
00000000
00000100
00000000
,
00000002
00000000
00000000
00000013
00000000
00000000
00000100
00000000
00001000
00000000
00000000
00000000
00000001
00001000
00000000
00001000
,
00000002
00000000
00000000
00000000
00000103
00000000
00000010
00000000
00010000
00000000
00000000
00001000
00010000
00001000
00000000
00000000
,
01020000
10030000
21000000
30010000
,
10000000
01000000
00010000
00001000
00000200
00000000
00000310
00000000
,
00001000
00000000
00000000
00000100
00000000
00000000
00000010
00000000
00000001
00000000
00000001
00000000
00001000
00000000
00001000
00000000
,
00001001
00011000
20010000
31000000
,
10000000
00100000
00000000
00010000
00100000
01000000
00001000
00001000
,
00010000
00000000
00000010
00000000
00000000
00000100
00000000
00000000
00000001
00000000
00000010
00000000
00000100
00001000
00000000
00000000
,
00000001
00000100
00001000
00000100
00000110
00000000
00001010
00000000
,
00000100
00000100
00010000
00010000
00011000
00101000
00110000
00000000
,
00010000
01000000
10000000
00100000
00010000
00000000
10000000
00001000
,
00020000
00000000
00000000
00000000
00000000
00000000
00000000
00000000
00030000
00000100
00001000
00000000
00000001
00000000
00001000
00000000
,
00002010
00003001
00000012
00001003
,
00000001
00000010
00001000
00010000
00200000
00000000
01300000
00000000
,
20000000
00000000
30100000
01000000
00001000
00001000
00001000
00000000
,
00010000
00000000
00000100
00000000
00001000
00000000
00000010
00000000
00010000
00000000
00000000
01000000
10000000
00000000
00010000
00000000
,
10000000
00100000
01000000
00100000
00010000
00100000
00001000
00100000
,
01000000
00000000
00000000
02000000
00000000
00000000
03000000
00000000
00010000
00000000
00100000
00000000
00001000
00010000
00000000
00010000
,
00000002
00000000
00000100
00000000
00000000
00000100
00000000
00000000
00001000
00000000
00000000
00001000
00000003
00000000
00000001
00000000
,
00002000
00000000
00000010
00000000
00000000
00000010
00000000
00000000
00000001
00000000
00000000
00000001
00003000
00000000
00001000
00000000
,
00000001
00000000
00000200
00000000
00000000
00000000
00000320
00000000
00000000
00001030
00000000
00000000
00000100
00000000
00010000
00001000
,
00000000
00100000
00000000
00000000
00010000
00000000
01000000
00100000
00000000
00000000
10000000
00000000
00010000
00000000
00010000
00000000
,
10000000
00000000
01000000
00000000
00010000
00000000
00001000
00000000
00010000
00000000
01000000
10000000
00010000
00000000
10000000
00000000
,
10010000
00000000
10010000
00000000
00011000
00000000
00011000
00000000
00001001
00000000
00000000
00000001
00000100
00000000
00000010
00000000
,
00010200
00000310
00000201
00000310
,
00000001
00000100
00001000
00000010
00000002
00000000
00001003
00000000
,
00000001
00000100
00001000
00000100
00000010
00010000
00001000
00010000
,
00011000
00000000
00000000
00000000
10010000
00000000
00000000
00000000
01100000
00000000
00000000
00100000
10000000
00000000
00010000
00000000
,
10000000
01000000
00010000
00000000
01010000
01000000
10000000
10000000
,
00010000
00000000
00100000
00000000
00000000
00000000
00000100
00000000
00000110
00000000
00000010
00000000
00000001
00001000
00000000
00000000
,
00000001
00000100
00001000
00010000
00000000
00000010
00000100
00000001
,
00001000
00001000
00000001
00000001
00001001
00010100
00101000
00000000
,
00020000
00000000
01030000
01000000
20000000
00000000
30100000
00100000
,
00020000
00000000
00000000
00000000
00000000
00000000
00000000
00000000
00030000
10000000
00100000
00000000
01000000
00010000
10000000
00000000
,
20010000
30001000
00012000
10003000
,
00001000
01000000
10000000
01000000
00200000
00000000
10300000
00000000
,
00002000
00000000
00013000
00000010
00000100
00000100
00000100
00000000
,
00001001
00000000
00010000
00000000
00011000
00000000
10000000
00000000
10010000
00000000
00000000
10000000
00100000
00000000
01000000
00000000
,
01020000
00000000
00000000
00100000
00000000
00100000
00000000
00000000
10000000
00000000
00000000
01000000
00030000
00000000
00010000
00000000
,
21000000
00000000
00000000
00100000
00000000
00100000
00000000
00000000
00010000
00000000
00000000
01000000
30000000
00000000
10000000
00000000
,
10100000
01010000
00101000
00010100
00002002
00000000
00003003
00000000
;
