#VERSION:0.83;
#TITLE:Gale Rider;
#SUBTITLE:;
#ARTIST:P*Light;
#TITLETRANSLIT:;
#SUBTITLETRANSLIT:;
#ARTISTTRANSLIT:;
#GENRE:;
#ORIGIN:;
#CREDIT:;
#BANNER:Gale Rider.png;
#BACKGROUND:Gale Rider-bg.png;
#PREVIEWVID:;
#JACKET:Gale Rider-jacket.png;
#CDIMAGE:;
#DISCIMAGE:;
#LYRICSPATH:;
#CDTITLE:;
#MUSIC:Gale Rider.mp3;
#OFFSET:-0.040000;
#SAMPLESTART:82.054482;
#SAMPLELENGTH:15.899995;
#SELECTABLE:YES;
#BPMS:0.000=193.000;
#STOPS:71.500=0.311,
74.500=0.311,
77.500=0.311;
#DELAYS:;
#WARPS:;
#TIMESIGNATURES:0.000=4=4;
#TICKCOUNTS:0.000=4;
#COMBOS:0.000=1;
#SPEEDS:0.000=1.000=0.000=0;
#SCROLLS:0.000=1.000;
#FAKES:;
#LABELS:0.000=Song Start;
#BGCHANGES:;
#KEYSOUNDS:;
#ATTACKS:
;

//---------------dance-single - ----------------
#NOTEDATA:;
#CHARTNAME:;
#STEPSTYPE:dance-single;
#DESCRIPTION:;
#CHARTSTYLE:;
#DIFFICULTY:Hard;
#METER:10;
#RADARVALUES:0.849850,0.980567,0.455628,0.816691,0.442733,692.000000,639.000000,53.000000,95.000000,0.000000,0.000000,0.000000,0.000000,0.000000,0.849850,0.980567,0.455628,0.816691,0.442733,692.000000,639.000000,53.000000,95.000000,0.000000,0.000000,0.000000,0.000000,0.000000;
#CREDIT:;
#NOTES:
// measure 0
0000
0000
0000
0000
,  // measure 1
0000
0000
0000
0000
,  // measure 2
0000
0000
0000
0000
,  // measure 3
0000
0000
0000
0000
,  // measure 4
0000
0000
0000
0000
,  // measure 5
0000
0000
0000
0000
,  // measure 6
1001
0000
0001
0000
0100
0000
0010
0100
0010
0000
0100
0000
0001
0000
1000
0001
,  // measure 7
1000
0000
0000
1010
0000
0000
0101
0000
0000
0000
0011
0000
0000
0000
1100
0000
,  // measure 8
1001
0000
0001
0000
0100
0000
1000
0100
1000
0100
0010
0000
2000
0000
3001
0000
,  // measure 9
1000
0100
0001
0100
0010
0001
2002
3003
,  // measure 10
1000
0000
0010
1000
0000
0001
1000
0000
0100
1000
0000
0001
2000
0000
3000
0000
,  // measure 11
0001
0000
0010
0001
0000
1000
0001
0000
0100
0001
0000
1000
0002
0000
0003
0000
,  // measure 12
1000
0000
0010
0100
0000
0010
0001
0000
0010
0100
0000
0010
2000
0000
3000
0000
,  // measure 13
0001
0100
1000
0100
0010
1000
0001
0001
,  // measure 14
1000
0000
0001
0100
0000
0001
1000
0000
0001
0010
0000
0001
0200
0000
0300
0000
,  // measure 15
0001
0000
1000
0010
0000
1000
0001
0000
1000
0100
0000
1000
0020
0000
0030
0000
,  // measure 16
1000
0000
0100
0010
0000
0100
0001
0000
0100
0010
0000
0100
2000
0000
3000
0000
,  // measure 17
0001
0100
1000
0100
0010
1000
1001
1001
,  // measure 18
0001
0000
0100
0000
1000
0100
0000
1000
0100
0000
0001
0000
1000
0000
0100
0000
,  // measure 19
0001
0100
0000
0001
0100
0000
1000
0000
0001
0000
0010
0000
1000
0010
0000
1000
,  // measure 20
0020
0031
1000
0010
0001
0010
1000
0001
,  // measure 21
1000
0000
1000
0000
1001
0000
1000
0010
0000
0100
0001
0000
1001
0000
0001
0010
,  // measure 22
0000
0100
1000
0000
1001
0000
1000
0010
0000
0001
0010
0000
1001
0000
1000
0100
,  // measure 23
0000
0001
0100
0000
0000
1000
0010
0000
0010
0000
0100
0001
0000
1000
0100
0000
,  // measure 24
0010
0000
0001
0000
1000
0000
0010
0000
0001
0000
0010
0000
1000
0001
1000
0001
,  // measure 25
0200
0000
0300
0000
0012
0000
0000
1000
0000
0000
0020
0000
0030
0000
0100
0000
,  // measure 26
0100
0000
1003
0000
2010
0000
0000
0010
0000
0000
3001
0000
0000
0000
1010
0000
,  // measure 27
0000
0000
0101
0000
0102
0000
0000
0010
0000
0000
2000
0000
3000
0000
0100
0000
,  // measure 28
0103
0001
0011
0011
0000
1100
0000
1001
,  // measure 29
2002
0000
3003
0000
1000
0000
0010
0000
0100
0000
0001
0100
0010
0000
1000
0000
,  // measure 30
0001
0000
1000
0100
0010
0000
0001
0000
0010
0000
0100
1000
0001
0000
1000
0000
,  // measure 31
0010
0000
0100
0001
1000
0000
1000
0000
1000
0000
1000
0000
0001
0000
0001
0000
,  // measure 32
0001
0001
1000
0010
0100
0010
0001
0010
,  // measure 33
2002
0000
3003
0000
0001
0000
0010
0001
0000
0100
0010
0000
1000
0010
0000
0100
,  // measure 34
0002
0000
0003
0000
1000
0000
0100
1000
0000
0010
0100
0000
0001
0100
0000
0010
,  // measure 35
2000
0000
3000
0000
0001
0000
0010
0100
0000
1000
0001
0000
0100
0010
0000
1000
,  // measure 36
0002
0003
1000
0100
0001
0100
0010
0001
,  // measure 37
1000
0000
1000
0000
0001
0000
0100
0010
0000
1000
0010
0000
0100
0001
0000
0010
,  // measure 38
0200
0000
0300
0000
1000
0000
0010
0100
0000
0001
0100
0000
0010
1000
0000
0100
,  // measure 39
0020
0000
0030
0000
0001
0000
0100
1000
0000
0100
0010
0000
1000
0001
0000
0010
,  // measure 40
0200
0300
1000
1000
1000
0100
0001
0100
,  // measure 41
0010
0001
1000
1000
1000
0010
0001
0010
,  // measure 42
0100
0001
1000
1000
1000
0010
0001
1000
,  // measure 43
0100
0001
1000
1000
1000
1000
0001
0001
,  // measure 44
0001
0000
0001
0000
1000
0001
0020
0000
0031
1000
0020
0000
1030
0001
0200
0000
,  // measure 45
0301
1000
0100
0000
2002
0000
0000
0000
0000
0000
0000
0000
0000
0000
0000
0000
,  // measure 46
0000
0000
0000
0000
,  // measure 47
3003
0000
2000
0000
3100
0200
0000
0301
,  // measure 48
0002
0000
0103
0200
0000
1300
2000
0000
,  // measure 49
3010
0020
0000
0031
0002
0000
1003
2000
,  // measure 50
0000
3100
0200
0000
0301
0002
0000
1000
,  // measure 51
1003
0000
0002
0000
0013
0020
0000
1030
,  // measure 52
2000
0000
3010
0020
0000
0031
0002
0000
,  // measure 53
0103
0200
0000
1300
2000
0000
3001
0002
,  // measure 54
0000
0013
0020
0000
1030
2000
0000
0001
,  // measure 55
3001
0000
1100
0000
0101
0000
1000
0100
,  // measure 56
0001
0100
1100
0000
0101
0000
0001
0100
,  // measure 57
1000
0000
0110
0000
1001
0000
0001
0010
,  // measure 58
1000
0000
0010
0000
0001
0000
0100
0000
1000
0000
0100
0000
0001
1000
0001
0000
,  // measure 59
1001
0000
0000
0000
0001
0000
0001
0000
0001
0000
0010
0100
1000
0000
1000
0000
,  // measure 60
1000
0000
0010
0100
0001
0000
0001
0000
0001
0000
0100
0010
1000
0000
1000
0000
,  // measure 61
1000
0000
0001
0010
0100
0000
0100
0000
0100
0000
0100
0000
0010
0000
0010
0000
,  // measure 62
0010
0010
0000
0011
0000
1100
1001
1001
,  // measure 63
1001
0000
1000
0010
0001
0010
1000
0100
,  // measure 64
0001
0000
0100
0000
1000
0000
0010
0000
0100
0000
0001
0000
1000
0001
1000
0000
,  // measure 65
2002
3003
2000
3100
0002
0103
1000
0010
,  // measure 66
0100
0000
0001
0000
2000
0000
3010
0000
0002
0000
0013
0000
1000
0010
0100
0000
,  // measure 67
1001
0000
0002
0013
2000
3010
0001
0100
,  // measure 68
0010
0000
1000
0000
0001
0000
0010
0000
0100
0000
1000
0000
0001
1000
0010
0000
,  // measure 69
0101
0000
0002
0013
2000
3010
0001
0100
,  // measure 70
0010
0000
1000
0000
0002
0000
0103
0000
2000
0000
3100
0000
0001
0100
0010
0000
,  // measure 71
1001
0000
2000
3100
0002
0103
1000
0010
,  // measure 72
0100
0001
1000
0100
0001
0010
1000
0000
,  // measure 73
2002
3003
0002
0103
0020
0130
1000
0100
,  // measure 74
0001
0000
1000
0000
0002
0000
0013
0000
0200
0000
0310
0000
1000
0010
0100
0000
,  // measure 75
1001
0000
2000
3010
0200
0310
0001
0010
,  // measure 76
1000
0000
0001
0000
1000
0000
0100
0000
0001
0000
0100
0000
1000
0010
0100
0000
,  // measure 77
1001
0000
2000
3010
0200
0310
0001
0010
,  // measure 78
1000
0000
0001
0000
2000
0000
3100
0000
0020
0000
0130
0000
0001
0100
0010
0000
,  // measure 79
1001
0000
0002
0103
0020
0130
1000
0100
,  // measure 80
0001
1000
0001
0010
1000
0100
0001
0000
,  // measure 81
2002
3003
1000
0020
0031
0020
1030
0200
,  // measure 82
0301
0200
1300
0020
0130
0020
0031
0010
,  // measure 83
0020
0000
1030
0000
0002
0000
0010
0000
0013
0000
0001
1000
0020
0000
1000
0000
,  // measure 84
1030
0000
0001
1000
0100
0000
0001
0000
0100
0000
1000
0000
0010
0000
0001
0000
,  // measure 85
0010
0000
1000
0000
0202
0000
0000
0000
0303
0000
1000
0100
2000
0000
0000
0000
,  // measure 86
3000
0000
0001
0010
0001
0000
0010
0000
0100
0000
0010
0000
1000
0000
0010
0000
,  // measure 87
0100
0000
0010
0000
0001
0000
0001
0000
1000
0000
1000
0000
0001
0100
0010
1000
,  // measure 88
0010
0100
0001
1000
0000
0000
1100
0000
0000
0000
0011
0000
1001
0000
1001
0000
,  // measure 89
1001
0220
0000
0000
,  // measure 90
0000
0000
0000
0000
,  // measure 91
0000
0330
0000
0000
;

//---------------dance-single - ----------------
#NOTEDATA:;
#CHARTNAME:;
#STEPSTYPE:dance-single;
#DESCRIPTION:;
#CHARTSTYLE:;
#DIFFICULTY:Medium;
#METER:7;
#RADARVALUES:0.578439,0.706008,0.352467,0.326677,0.128951,471.000000,430.000000,41.000000,38.000000,0.000000,0.000000,0.000000,0.000000,0.000000,0.578439,0.706008,0.352467,0.326677,0.128951,471.000000,430.000000,41.000000,38.000000,0.000000,0.000000,0.000000,0.000000,0.000000;
#CREDIT:;
#NOTES:
// measure 0
0000
0000
0000
0000
,  // measure 1
0000
0000
0000
0000
,  // measure 2
0000
0000
0000
0000
,  // measure 3
0000
0000
0000
0000
,  // measure 4
0000
0000
0000
0000
,  // measure 5
0000
0000
0000
0000
,  // measure 6
1000
0100
0010
0000
0001
0010
0100
0000
,  // measure 7
1000
0000
0000
1000
0000
0000
0001
0000
0000
0000
0100
0000
0000
0000
0010
0000
,  // measure 8
0020
0000
0000
0000
,  // measure 9
1000
0100
0031
1001
,  // measure 10
0001
0000
0000
0010
0000
0000
1000
0000
0000
0010
0000
0000
0002
0000
0003
0000
,  // measure 11
1000
0000
0000
0010
0000
0000
0001
0000
0000
0010
0000
0000
2000
0000
3000
0000
,  // measure 12
0001
0000
0000
0100
0000
0000
1000
0000
0000
0100
0000
0000
0002
0000
0003
0000
,  // measure 13
1000
0100
0010
0001
0010
0100
1000
0001
,  // measure 14
1000
0000
0000
0100
0000
0000
0001
0000
0000
0100
0000
0000
2000
0000
3000
0000
,  // measure 15
0001
0000
0000
0100
0000
0000
1000
0000
0000
0100
0000
0000
0002
0000
0003
0000
,  // measure 16
1000
0000
0000
0010
0000
0000
0001
0000
0000
0010
0000
0000
2000
0000
3000
0000
,  // measure 17
0001
0010
0100
1000
0100
0010
0001
1000
,  // measure 18
1001
0000
0001
0100
0020
0030
1001
0000
,  // measure 19
1000
0100
0020
0030
1001
0000
0001
0100
,  // measure 20
0020
0030
1000
0010
0100
0001
0010
0001
,  // measure 21
1000
0000
0000
0000
0001
0000
0000
0001
0000
0000
0001
0000
0010
0000
0000
0010
,  // measure 22
0000
0000
0010
0000
0100
0000
0000
0100
0000
0000
0100
0000
1000
0000
0000
1000
,  // measure 23
0000
0000
1000
0000
0000
0000
0001
0000
0100
0000
0000
0010
0000
0000
1000
0000
,  // measure 24
1000
0001
1000
0100
0001
0100
1000
0001
,  // measure 25
1000
0022
0000
0033
,  // measure 26
0000
0000
2200
0000
0000
0000
3300
1000
,  // measure 27
0000
0010
2020
0000
0000
0000
0000
0000
,  // measure 28
3030
0000
1000
0100
0000
0001
0000
0100
,  // measure 29
1000
0000
0001
0100
1000
0000
0100
1000
,  // measure 30
0010
0000
1000
0010
0001
0000
0010
0001
,  // measure 31
0100
0000
0001
0010
0100
1000
0010
0100
,  // measure 32
0001
1000
0010
0010
0010
0000
0100
0000
,  // measure 33
1001
0000
0000
0000
0001
0000
0000
0010
0000
0000
1000
0000
0000
0010
0000
0000
,  // measure 34
0002
0000
0003
0000
1000
0000
0000
0010
0000
0000
0001
0000
0000
0010
0000
0000
,  // measure 35
2000
0000
3000
0000
0001
0000
0000
0100
0000
0000
1000
0000
0000
0100
0000
0000
,  // measure 36
0002
0003
1000
0100
0010
0001
0010
0100
,  // measure 37
1000
0000
0001
0000
1000
0000
0000
0100
0000
0000
0001
0000
0000
0100
0000
0000
,  // measure 38
2000
0000
3000
0000
0001
0000
0000
0100
0000
0000
1000
0000
0000
0100
0000
0000
,  // measure 39
0002
0000
0003
0000
1000
0000
0000
0010
0000
0000
0001
0000
0000
0010
0000
0000
,  // measure 40
2000
3000
0001
0010
0100
1000
0100
0010
,  // measure 41
0001
1000
0001
0100
0010
1000
0010
0100
,  // measure 42
0001
1000
0001
0010
0100
1000
0001
1000
,  // measure 43
0010
0100
0001
0001
0001
0000
0010
0010
,  // measure 44
0010
0000
0100
1000
0010
1000
0001
1000
,  // measure 45
0010
0100
2002
0000
0000
0000
0000
0000
,  // measure 46
0000
0000
0000
0000
,  // measure 47
3003
0002
0000
0000
,  // measure 48
0003
0020
0000
0000
,  // measure 49
0030
0200
0000
0000
,  // measure 50
0300
2000
0000
0000
,  // measure 51
3000
0002
0000
0000
,  // measure 52
0003
0200
0000
0000
,  // measure 53
0300
0020
0000
0000
,  // measure 54
0030
2000
0000
0000
,  // measure 55
3000
0001
0010
1000
,  // measure 56
0010
0000
0001
0000
1000
0000
0010
0100
,  // measure 57
0001
1000
0100
0001
,  // measure 58
0100
0000
1000
0010
0001
0010
0100
0001
,  // measure 59
1000
0000
0001
0001
0001
0000
0010
0010
,  // measure 60
0010
0000
0100
0100
0100
0000
1000
1000
,  // measure 61
1000
0000
0001
0100
0010
1000
0010
0100
,  // measure 62
0001
1000
0000
1001
0000
1000
0100
0001
,  // measure 63
0100
1100
0000
0101
,  // measure 64
0000
0000
1000
0010
0001
0010
1000
0001
,  // measure 65
1001
0000
0011
0000
1010
0000
0001
0010
,  // measure 66
1000
0010
0011
0000
1010
0000
1000
0010
,  // measure 67
0001
0000
0101
0000
1100
0000
1000
0100
,  // measure 68
0001
0100
0010
0100
1000
0001
0100
0010
,  // measure 69
1000
0000
1100
0000
0101
0000
0001
0100
,  // measure 70
1000
0100
0101
0000
1100
0000
1000
0100
,  // measure 71
0001
0000
0011
0000
1010
0000
0001
0010
,  // measure 72
1000
0010
0001
0100
1000
0100
0010
0000
,  // measure 73
1001
0000
1100
0000
0011
0000
1000
0010
,  // measure 74
0001
0010
0101
0000
1010
0000
0001
0010
,  // measure 75
0100
0000
1100
0000
0011
0000
1000
0010
,  // measure 76
0001
0010
0100
0010
1000
0001
0010
0100
,  // measure 77
1000
0000
1010
0000
0101
0000
0001
0010
,  // measure 78
1000
0010
0101
0000
1010
0000
1000
0100
,  // measure 79
0001
0000
0110
0000
1001
0000
0001
0100
,  // measure 80
1000
0001
0010
1000
0001
0010
0100
0000
,  // measure 81
1001
0000
1000
0010
1000
0001
1000
0100
,  // measure 82
1000
0001
0001
0010
0001
1000
0001
0100
,  // measure 83
0100
0001
0020
0000
0130
0100
2000
0000
,  // measure 84
3001
0001
1000
0010
0001
1000
0100
0001
,  // measure 85
0010
0100
2000
0000
3000
0001
0002
0000
,  // measure 86
0003
0100
0010
1000
0100
0001
0100
0010
,  // measure 87
0001
0100
1000
1000
1000
1000
0100
0001
,  // measure 88
0010
0100
0000
1001
0000
1000
0010
0100
,  // measure 89
0001
2002
0000
0000
,  // measure 90
0000
0000
0000
0000
,  // measure 91
0000
3003
0000
0000
;

//---------------dance-single - ----------------
#NOTEDATA:;
#CHARTNAME:;
#STEPSTYPE:dance-single;
#DESCRIPTION:;
#CHARTSTYLE:;
#DIFFICULTY:Easy;
#METER:5;
#RADARVALUES:0.427381,0.549118,0.343870,0.343870,0.000000,348.000000,308.000000,40.000000,40.000000,0.000000,0.000000,0.000000,0.000000,0.000000,0.427381,0.549118,0.343870,0.343870,0.000000,348.000000,308.000000,40.000000,40.000000,0.000000,0.000000,0.000000,0.000000,0.000000;
#CREDIT:;
#NOTES:
// measure 0
0000
0000
0000
0000
,  // measure 1
0000
0000
0000
0000
,  // measure 2
0000
0000
0000
0000
,  // measure 3
0000
0000
0000
0000
,  // measure 4
0000
0000
0000
0000
,  // measure 5
0000
0000
0000
0000
,  // measure 6
1000
0010
1000
0010
,  // measure 7
0100
0001
0100
0001
,  // measure 8
2002
0000
0000
3003
,  // measure 9
0001
0010
0100
1001
,  // measure 10
0001
0010
0001
2000
,  // measure 11
3001
0010
0001
0200
,  // measure 12
0301
0010
0100
2000
,  // measure 13
3001
0100
0010
1001
,  // measure 14
0100
0001
0100
0020
,  // measure 15
0130
0001
0100
2000
,  // measure 16
3100
0001
1000
0020
,  // measure 17
0130
1000
0001
0110
,  // measure 18
0001
0000
0010
0000
0200
0300
1000
0000
,  // measure 19
0010
0000
0200
0300
0001
0000
1000
0000
,  // measure 20
0020
0030
1000
0000
0100
0000
0010
0000
,  // measure 21
0001
1000
1100
0001
,  // measure 22
0101
1000
1010
0001
,  // measure 23
0011
0000
0001
0010
,  // measure 24
1000
0001
0001
0100
,  // measure 25
1001
2010
0001
3001
,  // measure 26
1000
0012
1003
0001
,  // measure 27
1001
2100
0001
3001
,  // measure 28
1000
0000
0100
0000
0010
0000
0001
1000
,  // measure 29
0001
1000
1010
1000
,  // measure 30
1001
0001
0011
0001
,  // measure 31
1001
0000
0001
0100
1000
0000
0001
0010
,  // measure 32
1000
0000
0001
0001
0001
0000
0010
0000
,  // measure 33
1100
1000
0010
0001
,  // measure 34
0020
1030
0100
0001
,  // measure 35
0200
1300
0010
0001
,  // measure 36
2000
3100
0100
0010
,  // measure 37
1001
0001
0010
1000
,  // measure 38
0002
0103
1000
0010
,  // measure 39
0002
1003
0100
0010
,  // measure 40
2000
0000
3001
0001
0001
0000
0010
0000
,  // measure 41
0100
0000
1000
1000
1000
0000
0010
0000
,  // measure 42
0100
0000
0001
0001
0001
0000
0100
0000
,  // measure 43
0010
0000
1000
1000
1000
0000
0001
0001
,  // measure 44
0001
0010
0110
0100
,  // measure 45
0110
2002
0000
0000
,  // measure 46
0000
0000
0000
0000
,  // measure 47
3003
0002
0000
0000
,  // measure 48
0003
0020
0000
0000
,  // measure 49
0030
0200
0000
0000
,  // measure 50
0300
2000
0000
0000
,  // measure 51
3000
0002
0000
0000
,  // measure 52
0003
0200
0000
0000
,  // measure 53
0300
0020
0000
0000
,  // measure 54
0030
2000
0000
0000
,  // measure 55
3000
0001
0010
0001
,  // measure 56
0001
1000
0010
0100
,  // measure 57
1001
1000
0010
1000
,  // measure 58
1000
0001
0010
0100
,  // measure 59
1001
0001
0100
0001
,  // measure 60
0001
1000
0100
0010
,  // measure 61
1001
0001
0010
1000
,  // measure 62
1000
0000
0001
0100
,  // measure 63
1000
0001
0001
1000
,  // measure 64
1000
0010
0100
0001
,  // measure 65
1001
1000
0100
0001
,  // measure 66
0001
0100
1000
0001
,  // measure 67
1001
0001
0100
1000
,  // measure 68
1000
0100
0001
1000
,  // measure 69
1001
1000
0010
0001
,  // measure 70
0001
0010
1000
0001
,  // measure 71
1001
0001
0010
1000
,  // measure 72
1000
0010
0001
1000
,  // measure 73
1001
0001
0100
1000
,  // measure 74
0010
1000
0100
0001
,  // measure 75
1001
0001
0010
1000
,  // measure 76
0100
1000
0010
0001
,  // measure 77
1001
0001
0100
1000
,  // measure 78
0010
0001
0010
1000
,  // measure 79
1001
0001
0100
1000
,  // measure 80
0010
0001
1000
0001
,  // measure 81
1001
1000
0100
0010
,  // measure 82
0001
0000
0010
0000
0100
0000
1000
0001
,  // measure 83
1000
0001
0100
0010
,  // measure 84
1000
0000
0010
0000
0100
0000
0001
1000
,  // measure 85
0001
0022
0033
2200
,  // measure 86
3300
0000
1000
0010
1000
0000
0001
0010
,  // measure 87
0001
2002
3003
0220
,  // measure 88
0330
0000
0000
1001
0000
1000
0100
0010
,  // measure 89
0001
2002
0000
0000
,  // measure 90
0000
0000
0000
0000
,  // measure 91
0000
3003
0000
0000
;
