#VERSION:0.81;
#TITLE:FAKE STYLE II;
#SUBTITLE:;
#ARTIST:FAKE TYPE.;
#TITLETRANSLIT:;
#SUBTITLETRANSLIT:;
#ARTISTTRANSLIT:;
#GENRE:;
#ORIGIN:;
#CREDIT:;
#BANNER:FAKE STYLE II.png;
#BACKGROUND:FAKE STYLE II-bg.png;
#PREVIEWVID:;
#JACKET:FAKE STYLE II-jacket.png;
#CDIMAGE:;
#DISCIMAGE:;
#LYRICSPATH:;
#CDTITLE:;
#MUSIC:FAKE STYLE II.mp3;
#OFFSET:-0.082;
#SAMPLESTART:61.455;
#SAMPLELENGTH:18.200;
#SELECTABLE:YES;
#BPMS:0.000=125.000,
192.000=62.500,
207.938=125.000;
#STOPS:207.938=1.940;
#DELAYS:;
#WARPS:;
#TIMESIGNATURES:0.000=4=4;
#TICKCOUNTS:0.000=4;
#COMBOS:0.000=1;
#SPEEDS:0.000=1.000=0.000=0;
#SCROLLS:0.000=1.000;
#FAKES:;
#LABELS:0.000=Song Start;
#BGCHANGES:0.000=FAKE STYLE II.avi=1.000=0=0=1=====,
99999=-nosongbg-=1.000=0=0=0 // don't automatically add -songbackground-
;
#KEYSOUNDS:;
#ATTACKS:
;

//---------------dance-single - Blank----------------
#NOTEDATA:;
#CHARTNAME:;
#STEPSTYPE:dance-single;
#DESCRIPTION:Blank;
#CHARTSTYLE:;
#DIFFICULTY:Hard;
#METER:9;
#RADARVALUES:0.559,0.986,0.354,0.137,0.451,474.000,49.000,19.000,0.000,0.000,0.000,0.000,0.000,0.559,0.986,0.354,0.137,0.451,474.000,49.000,19.000,0.000,0.000,0.000,0.000,0.000;
#CREDIT:;
#NOTES:
0000
0000
0000
0000
,
0000
0000
0000
0000
,
0000
0000
0000
0000
,
0000
0000
0000
0000
,
1001
0000
0000
0000
0001
0000
0100
0000
0010
0000
1000
0010
0000
1000
0010
0000
,
0100
0000
0000
0000
0001
0000
0010
0000
0100
0000
1000
0001
0000
1000
0001
0000
,
0010
0000
0000
0000
0100
0000
1000
0000
0001
0000
0010
0001
0000
2000
0000
0000
,
0001
0000
0000
3001
1000
0000
0001
0000
1000
0000
0100
0000
0001
0000
0100
0000
,
1000
0000
0000
0000
0001
0000
0010
0000
0100
0000
1000
0100
0000
1000
0100
0000
,
0010
0000
0000
0000
0001
0000
0100
0000
0010
0000
1000
0001
0000
1000
0001
0000
,
0100
0000
0000
0000
0010
0000
1000
0000
0001
0000
0100
0001
0000
2000
0000
0000
,
0001
0000
0000
3001
1000
0000
0001
0000
1000
0000
0010
0000
0001
0000
0010
0000
,
1000
0010
0000
0000
0000
0000
1000
0010
0000
0000
0000
0000
0000
0000
0000
0000
,
0100
0001
0000
0000
0000
0000
0100
0001
0000
0000
0000
0000
0000
0000
0000
0000
,
1000
0100
0000
0000
0000
0000
1000
0100
0000
0000
0000
0000
0000
0000
1000
0000
,
0001
0000
0000
0100
0000
0010
1001
0000
,
0001
0000
0100
0001
0000
1000
0001
0000
1000
0000
0100
1000
0000
0001
1000
0000
,
0001
0000
0100
0000
1000
0000
0100
0000
0000
0010
0100
0010
0100
0010
0100
0000
,
0001
0000
0000
0010
0000
0000
1000
0000
0000
0010
0000
0000
0001
0000
0000
0100
0000
0000
0010
0000
1000
0000
0001
0000
,
1000
0000
0000
0100
0000
0000
0001
0000
0000
0100
0000
0000
1000
0000
0010
0000
0100
0000
0000
0000
1001
0000
0000
0000
,
0001
0010
1000
0010
0001
0100
0010
0010
,
1000
0100
0001
0100
1000
0010
0100
0100
,
0102
0000
0000
0000
1003
0000
0001
0000
0010
0000
0100
0000
1000
0001
1000
0000
,
0001
0100
1010
0000
1000
0100
0011
0000
,
0001
0100
1000
0100
0001
1000
1100
0000
,
1001
0000
0000
0001
0000
0000
0010
0000
0000
1000
0000
0000
0010
0000
0000
0001
0000
0000
0100
0000
0100
0000
0000
0000
,
0001
0100
1000
0100
0001
1000
1100
0101
,
1001
0000
0001
0000
0010
0100
0010
0100
1000
0000
0002
0000
0000
0000
0003
0000
,
0000
0000
0000
1000
0000
0000
0000
0000
0000
1000
0000
0000
0010
0000
0000
0000
0000
0000
0100
0000
0000
0000
0000
0000
0001
0000
0000
0000
0000
0000
1000
0000
0000
0000
0000
0000
0001
0000
0000
0000
0010
0000
0000
0000
0100
0000
0000
0000
,
1000
0100
0001
0100
0110
0000
0010
0001
,
1000
0100
0000
1000
0100
0000
0001
0100
0000
0001
0100
0000
1000
0000
0001
0000
,
0100
0010
0000
0100
0010
0000
1000
0000
0001
0000
0010
0000
0110
0000
0000
0000
,
1000
0100
0010
0001
0101
1100
1002
0000
,
0103
0000
0000
0000
0001
0010
0100
0000
1000
0000
0001
0100
0010
0000
1000
0000
,
0001
0010
1000
1000
0001
0100
1000
1000
,
0012
0000
0000
0000
1003
0000
0001
0000
0100
0010
0100
0010
1000
0000
0001
0000
,
2000
0000
0010
0010
0000
0100
3100
0000
,
1100
0000
0000
0011
0000
0000
0001
0000
1000
0000
0000
0100
0000
0000
0000
0000
,
1000
0000
0001
0000
0100
0010
0000
0010
1000
0000
0001
0000
0010
0100
0000
0100
,
1000
0000
0001
0000
1000
0100
0000
0001
0100
0000
1000
0000
0001
0010
0000
1000
,
0010
0000
0000
0000
0001
0000
0100
0000
0010
0000
1000
0010
0000
1000
0010
0000
,
0100
0000
0000
0000
0001
0000
0010
0000
0100
0000
1000
0100
0000
1000
0100
0000
,
0010
0000
0000
0000
0001
0000
0100
0000
0010
0000
1000
0001
0000
1000
0001
0000
,
1000
0100
1000
0000
0001
0100
0001
0000
1000
0001
0000
0100
0000
0000
0000
0000
,
0001
0000
0010
0100
1000
0000
0001
0000
1000
0000
0001
0100
0010
0000
1000
0000
,
0001
0000
0000
0000
1000
0000
0100
0000
0001
0000
0100
0000
0000
0100
0010
0000
,
0000
0011
1100
0101
,
2020
0000
0000
0030
0001
0000
3001
0000
,
1001
0001
0100
1000
0100
0100
0010
0010
1000
0100
0001
0100
1100
1100
0101
0101
,
1002
0000
0000
0000
0103
0000
0001
0000
0011
0000
0000
1010
0000
0000
1001
0000
0102
0000
0000
1003
0000
0000
0001
1000
0001
0000
0010
0000
0100
0000
1000
0000
,
2100
0000
0000
0000
3001
0000
0000
0000
0102
0000
0000
0000
1003
0000
0000
0000
0001
0000
0000
0001
0010
0000
0100
0000
1100
0000
1100
0000
0101
0000
0101
0000
,
1002
0000
0000
0000
0000
0000
0000
0000
0000
0000
0000
0000
0000
0000
0000
0000
0000
0000
0013
0000
0000
0000
0000
0000
0001
0000
0000
0000
0000
0000
0000
0000
0000
0000
0000
0000
0000
0000
0000
0000
0000
0000
0000
0000
0000
0000
0000
0000
1000
0000
0000
0000
0000
0000
0000
0000
0010
0000
0000
0000
0000
0000
0000
0000
0100
0000
0000
0000
0000
0000
0000
0000
0001
0000
0000
0000
0000
0000
0000
0000
0000
0000
0000
0000
1000
0000
0000
0000
0000
0000
0000
0000
0000
0000
0000
0000
0001
0000
0000
0000
0000
0000
0000
0000
0000
0000
0000
0000
0010
0000
0000
0000
0000
0000
0100
0000
0000
0000
0000
0000
0010
0000
0000
0000
0000
0000
0000
0000
0000
0000
0000
0000
0001
0000
0000
0000
0000
0000
0000
0000
0000
0000
0000
0000
1000
0000
0000
0000
0000
0000
0000
0000
0000
0000
0000
0000
1010
0000
0000
0000
0000
0000
0000
0000
0000
0000
0000
0000
0110
0000
0000
0000
0000
0000
0000
0000
0000
0000
0000
0000
0101
0000
0000
0000
0000
0000
0000
0000
0000
0000
0000
0000
,
0001
0010
0100
1000
1010
0011
2001
0000
,
3010
0000
0000
0000
1000
0100
0010
0000
0001
0000
1000
0010
0100
0000
0001
0000
,
1000
0100
0001
0001
1000
0010
0001
0001
,
2100
0000
0000
0000
3001
0000
1000
0000
0010
0100
0010
0100
0001
0000
1000
0000
,
0002
0000
0100
0100
0000
0010
0013
0000
,
0011
0000
0000
1100
0000
0000
1000
0000
0001
0000
0000
0010
0000
0000
0000
0000
,
0001
0000
1000
0000
0010
0100
0000
0100
0001
0000
1000
0000
0100
0010
0000
0010
,
0001
0000
1000
0000
0001
0010
0000
1000
0010
0000
0001
0000
1000
0100
0000
0001
,
0100
0010
0000
0000
0000
0000
0001
1000
0000
0000
0000
0000
0000
0000
0000
0000
,
0010
0100
0000
0000
0000
0000
0001
1000
0000
0000
0000
0000
0000
0000
0000
0000
,
0001
0010
0000
0000
0000
0000
0100
1000
0000
0000
0000
0000
0000
0002
0000
0000
,
0000
0000
0003
1000
0100
1000
0100
0000
1000
0000
0010
0000
0001
0000
0100
0000
,
2000
0000
0000
0000
,
3000
0000
0000
0000
;

//---------------dance-double - Blank----------------
#NOTEDATA:;
#CHARTNAME:;
#STEPSTYPE:dance-double;
#DESCRIPTION:Blank;
#CHARTSTYLE:;
#DIFFICULTY:Hard;
#METER:9;
#RADARVALUES:0.544,0.939,0.332,0.130,0.361,463.000,46.000,18.000,0.000,0.000,0.000,0.000,0.000,0.544,0.939,0.332,0.130,0.361,463.000,46.000,18.000,0.000,0.000,0.000,0.000,0.000;
#CREDIT:;
#NOTES:
00000000
00000000
00000000
00000000
,
00000000
00000000
00000000
00000000
,
00000000
00000000
00000000
00000000
,
00000000
00000000
00000000
00000000
,
00011000
00000000
00000000
00000000
00010000
00000000
00001000
00000000
01000000
00000000
00010000
00100000
00000000
00100000
00001000
00000000
,
00010000
00000000
00000000
00000000
00000010
00000000
00000100
00000000
00000001
00000000
00001000
00000100
00000000
00000100
00010000
00000000
,
00001000
00000000
00000000
00000000
00010000
00000000
00100000
00000000
10000000
00000000
01000000
00010000
00000000
02000000
00000000
00000000
,
13000000
00000000
00000000
10000000
00100000
00000000
00010000
00000000
00001000
00000000
00000100
00000000
00000001
00000000
00001000
00000000
,
00000001
00000000
00000000
00000000
00001000
00000000
00000010
00000000
00000001
00000000
00000010
00010000
00000000
00010000
00001000
00000000
,
10000000
00000000
00000000
00000000
00010000
00000000
01000000
00000000
10000000
00000000
01000000
00001000
00000000
00001000
00010000
00000000
,
00000100
00000000
00000000
00000000
00001000
00000000
00000010
00000000
00000001
00000000
00001000
00000100
00000000
00000002
00000000
00000000
,
00001003
00000000
00000000
00001000
00000100
00000000
00010000
00000000
00000010
00000000
00000100
00000000
00000001
00000000
00001000
00000000
,
00000100
00010000
00000000
00000000
00000000
00000000
00000100
00010000
00000000
00000000
00000000
00000000
00000000
00000000
00000000
00000000
,
00001000
00100000
00000000
00000000
00000000
00000000
00001000
00100000
00000000
00000000
00000000
00000000
00000000
00000000
00000000
00000000
,
01000000
10000000
00000000
00000000
00000000
00000000
01000000
10000000
00000000
00000000
00000000
00000000
00000000
00000000
00001000
00000000
,
00010000
00000000
00000000
00000100
00000000
00001000
00001001
00000000
,
00000001
00000000
00000100
00000010
00000000
00001000
00000010
00000000
00001000
00000000
00000100
00010000
00000000
00001000
00010000
00000000
,
00001000
00000000
01000000
00000000
10000000
00000000
01000000
00000000
00000000
00100000
10000000
00100000
10000000
00100000
10000000
00000000
,
00010000
00100000
10000000
00100000
00001000
00010000
00000100
00000100
,
00001000
00000010
00000001
00000010
00010000
00001000
00011000
00000000
,
00010000
00100000
10000000
01000000
00010000
01000000
10000000
10000000
,
00010000
01000000
00100000
00010000
00001000
01000000
00010000
00010000
,
10010000
00000000
00000000
00000000
10000000
00000000
01000000
00000000
00010000
00000000
00001000
00000000
00000100
00000010
00000100
00000000
,
00000001
00000000
00000010
00000000
00000100
00001000
00000000
00000000
00000001
00000000
00000100
00000000
00000010
00001000
00000000
00000000
,
00000001
00000100
00001000
00000100
00000010
00010000
00010010
00000000
,
00000100
00000000
00000000
00010000
00000000
00000000
00001000
00000000
00000000
00100000
00000000
00000000
00010000
00000000
00000000
01000000
00000000
00000000
00100000
00000000
00100000
00000000
00000000
00000000
,
10000000
01000000
00010000
01000000
00100000
00001000
00101000
00011000
,
00010100
00000000
00010000
00000000
00000010
00000100
00000010
00000100
00000002
00000000
00001000
00000000
00001003
00000000
00000000
00000000
,
00000000
00000001
00000000
00000001
00000100
00000000
00000010
00000000
00001000
00000000
00000100
00000000
00010000
00001000
00000000
00001000
,
00100000
00010000
01000000
00100000
10100000
00000000
10000000
00010000
,
10000000
01000000
00000000
10000000
01000000
00000000
00010000
01000000
00000000
00010000
01000000
00000000
00100000
00000000
00001000
00000000
,
00010000
00000010
00000000
00010000
00000010
00000000
00000100
00000000
00000001
00000000
00001000
00000000
00001001
00000000
00000000
00000000
,
00000001
00000100
00001000
00010000
00011000
00001100
00000102
00000000
,
00001003
00000000
00000000
00000000
00000001
00000010
00000100
00000000
00001000
00000000
00000010
00010000
00001000
00000000
00100000
00000000
,
00010000
01000000
10000000
10000000
01000000
00001000
00010000
00010000
,
00010200
00000000
00000000
00000000
00000310
00000000
00000001
00000000
00001000
00000001
00001000
00000001
00000100
00000000
00000100
00000000
,
00000020
00000000
00001000
00001000
00000000
00000001
00000031
00000000
,
00000011
00000000
00000000
00001010
00000000
00000000
00001000
00000000
00000100
00000000
00000000
00010000
00000000
00000000
00000000
00000000
,
00001000
00000000
00100000
00000000
00010000
01000000
00000000
01000000
00001000
00000000
00010000
00000000
00000100
00001000
00000000
00001000
,
00000010
00000000
00010000
00000000
00001000
00100000
00000000
00100000
00010000
00000000
01000000
00000000
00100000
10000000
00000000
10000000
,
00010000
01000000
00010000
01000000
00100000
10000000
00100000
10000000
,
00001000
01000000
00001000
01000000
00000100
00010000
00000100
00010000
,
00000001
00000010
00000001
00000010
00000100
00001000
00000100
00001000
,
00000001
00000100
00001000
00010000
01000000
10000000
00010000
00000000
,
10000000
00100000
00010000
00010000
00001000
00000100
00000010
00000010
,
00001000
00000000
00000001
00000010
00001000
00000010
00000100
00000100
,
00001000
00001010
00010010
00010100
,
00021000
00000000
00100000
00130000
,
20010000
00000000
31000000
00000000
10020000
00000000
01030000
00000000
20010000
00000000
30100000
00000000
11000000
11000000
01010000
01010000
,
00021000
00000000
00000000
00000000
00030100
00000000
00000000
00000000
00001010
00000000
00000000
00001010
00000000
00000000
00001010
00000000
00000011
00000000
00000000
00000011
00000000
00000000
00000011
00000000
00000001
00000000
00000100
00000000
00001000
00000000
00000100
00000000
,
00000120
00000000
00000000
00000000
00001030
00000000
00000000
00000000
00000210
00000000
00000000
00000000
00000301
00000000
00000000
00000000
00001000
00000000
00000000
00001000
00000100
00000000
00001000
00000000
00001010
00000000
00001010
00000000
00000011
00000000
00000011
00000000
,
00000001
00000000
00000000
00000001
00001000
00000000
00000000
00000000
00000010
00000100
00000010
00000100
00000001
00000000
00000000
00000000
00001000
00000000
00000100
00000000
00000001
00000000
00000100
00000000
00010000
00000000
00001000
00000000
00100000
00000000
00010000
00000000
,
10000000
00100000
00010000
00001000
00011000
00110000
20100000
00000000
,
30010000
00000000
00000000
00000000
10000000
01000000
00100000
00000000
00010000
00000000
01000000
00001000
00010000
00000000
00000100
00000000
,
00001000
00000010
00000001
00000001
00000010
00010000
00001000
00001000
,
00201000
00000000
00000000
00000000
01300000
00000000
10000000
00000000
00010000
10000000
00010000
10000000
00100000
00000000
00100000
00000000
,
02000000
00000000
00010000
00010000
00000000
10000000
13000000
00000000
,
11000000
00000000
00000000
01010000
00000000
00000000
00010000
00000000
00100000
00000000
00000000
00001000
00000000
00000000
00000000
00000000
,
00010000
00000000
00000100
00000000
00001000
00000010
00000000
00000010
00010000
00000000
00001000
00000000
00100000
00010000
00000000
00010000
,
01000000
00000000
00001000
00000000
00010000
00000100
00000000
00000100
00001000
00000000
00000010
00000000
00000100
00000001
00000000
00000001
,
00001000
00000001
00000000
00000000
00000000
00000000
00001000
00000001
00000000
00000000
00000000
00000000
00000000
00000000
00000000
00000000
,
00010000
00001000
00000000
00000000
00000000
00000000
00010000
00001000
00000000
00000000
00000000
00000000
00000000
00000000
00000000
00000000
,
10000000
00010000
00000000
00000000
00000000
00000000
10000000
00010000
00000000
00000000
00000000
00000000
00000000
00200000
00000000
00000000
,
00000000
00000000
00000000
00310000
00100000
00001000
00010000
00000000
00000100
00000000
00001000
00000000
00000001
00000000
00000100
00000000
,
00000020
00000000
00000000
00000000
,
00000030
00000000
00000000
00000000
;

//---------------dance-single - Blank----------------
#NOTEDATA:;
#CHARTNAME:;
#STEPSTYPE:dance-single;
#DESCRIPTION:Blank;
#CHARTSTYLE:;
#DIFFICULTY:Easy;
#METER:4;
#RADARVALUES:0.244,0.235,0.022,0.029,0.000,230.000,3.000,4.000,0.000,0.000,0.000,0.000,0.000,0.244,0.235,0.022,0.029,0.000,230.000,3.000,4.000,0.000,0.000,0.000,0.000,0.000;
#CREDIT:;
#NOTES:
0000
0000
0000
0000
,
0000
0000
0000
0000
,
0000
0000
0000
0000
,
0000
0000
0000
0000
,
1000
0010
1000
0010
,
0100
0001
0100
0001
,
1000
0100
1000
0100
,
0010
0010
0100
0100
,
1000
0010
1000
0010
,
0100
0001
0100
0001
,
1000
0100
1000
0100
,
0010
0010
0100
0100
,
1000
0000
0000
1000
0000
0000
0000
0000
,
0001
0000
0000
0001
0000
0000
0000
0000
,
0100
0000
0000
0100
0000
0000
0000
0000
,
0010
0000
0000
0010
0000
0000
1001
0000
,
1000
0010
0001
0010
,
0100
0010
1000
0001
,
1000
0100
0001
0100
,
0010
0100
1000
0001
,
1000
0010
0001
0100
,
0001
0010
1000
0001
,
1000
0100
0001
0010
,
0001
0100
1000
0001
,
1000
0010
0001
0100
,
1000
0100
0001
1000
,
0001
0010
1000
0100
,
0001
0100
1000
0100
,
0010
1000
0100
0001
,
0100
0010
0001
0100
,
1000
0100
0010
1000
,
0010
0001
0010
1001
,
1000
0010
0100
0100
,
0001
0010
0100
0100
,
1000
0100
0001
0100
,
1000
0010
0001
0010
,
1000
1000
0010
0010
,
0100
0100
0001
0001
,
1000
0100
0010
0100
,
0001
0100
1000
0001
,
1000
1000
1000
1000
,
0010
0010
0010
0010
,
0100
0100
0100
0100
,
0001
0001
0001
0001
,
1000
0100
0001
0100
,
1000
0010
0001
0010
,
1000
0100
0001
0010
,
2000
3000
0002
0003
,
1000
0000
1000
0000
0010
0000
0100
0100
,
0001
0000
0001
0000
0010
0000
0100
0100
,
1000
0000
1000
0000
0001
0000
0100
0100
,
0001
0000
0001
0000
1000
0000
0010
0010
,
1000
0010
0100
0100
,
0001
0010
0100
0100
,
1000
0100
0001
0100
,
1000
0010
0001
0010
,
1000
1000
0010
0010
,
0100
0100
0001
0001
,
1000
0100
0010
0100
,
0001
0100
1000
0001
,
1000
0000
0000
0010
0000
0000
0000
0000
,
0100
0000
0000
0001
0000
0000
0000
0000
,
1000
0000
0000
0100
0000
0000
0000
0000
,
1000
0010
0100
0001
,
2002
0000
0000
0000
,
3003
0000
0000
0000
;

//---------------dance-single - Blank----------------
#NOTEDATA:;
#CHARTNAME:;
#STEPSTYPE:dance-single;
#DESCRIPTION:Blank;
#CHARTSTYLE:;
#DIFFICULTY:Medium;
#METER:6;
#RADARVALUES:0.396,0.610,0.202,0.173,0.029,332.000,28.000,24.000,0.000,0.000,0.000,0.000,0.000,0.396,0.610,0.202,0.173,0.029,332.000,28.000,24.000,0.000,0.000,0.000,0.000,0.000;
#CREDIT:;
#NOTES:
0000
0000
0000
0000
,
0000
0000
0000
0000
,
0000
0000
0000
0000
,
0000
0000
0000
0000
,
1000
0000
0010
0000
0100
0001
0100
0001
,
1000
0000
0100
0000
0010
0001
0010
0001
,
1000
0000
0001
0000
0100
0010
0100
0010
,
2000
3100
0002
0103
,
1000
0000
0001
0000
1000
0010
0100
0001
,
1000
0000
0001
0000
1000
0100
0010
0001
,
1000
0000
0001
0000
1000
0100
0001
0100
,
0020
0130
2000
3001
,
0101
0000
0000
0101
0000
0000
0000
0000
,
1100
0000
0000
1100
0000
0000
0000
0000
,
0011
0000
0000
0011
0000
0000
0000
0000
,
1010
0000
0000
0011
0000
0000
1001
0000
,
1000
0010
1000
0000
0001
0010
0001
0000
,
1000
0001
1000
0000
0010
0100
0100
0100
,
0001
0100
0001
0000
1000
0100
1000
0000
,
0001
1000
0001
0000
0100
0010
0110
0000
,
0001
0010
0100
0000
1000
1000
1000
0000
,
0001
0100
0010
0000
1000
1000
0001
0001
,
1000
0000
0010
0000
0100
0001
1000
0000
,
0001
0010
0001
0000
1000
0010
1000
0000
,
0001
0000
1000
0000
0010
0100
0001
0000
,
1000
0000
0001
0000
0010
0100
1000
1000
,
0001
0100
1000
0010
,
0001
1000
0001
1000
0010
0100
0010
0000
,
2000
3100
0002
0103
,
1000
0001
1002
0103
,
0001
0010
0001
0010
1000
0010
1000
0010
,
0100
0010
0100
0010
0001
1000
0001
0000
,
1000
0010
0100
0001
0100
0010
2000
0000
,
3001
0000
0010
0000
0100
0100
0100
0000
,
1000
0010
1000
1000
0001
0010
0001
0001
,
2000
0000
3001
0000
0100
0010
0100
0010
,
2000
0100
3001
1001
,
0101
0101
2000
3010
,
1000
0100
1000
0000
0100
0001
0100
0000
,
0001
0010
0001
0000
0010
1000
0010
1000
,
0001
0000
0100
0000
0010
1000
0010
1000
,
0010
0000
0100
0000
0001
0100
0001
0100
,
0010
0000
1000
0000
0001
0010
1000
0010
,
0002
1003
0020
0130
,
0001
0001
0001
0000
1000
1000
1000
0000
,
0010
0100
0101
1100
,
1000
0000
0001
0100
0010
0000
0100
0000
,
2002
0000
0000
3003
,
1000
0000
0010
0000
0001
0000
0010
0000
1000
0000
0001
0000
0100
0100
0100
0000
,
0001
0000
0010
0000
1000
0000
0010
0000
0001
0000
0100
0000
0010
0010
0010
0000
,
2000
0000
3100
0000
0002
0000
0103
0000
1000
0000
0001
0000
0100
0100
0010
0010
,
2000
0000
3010
0000
0002
0000
0013
0000
1000
0100
1000
0100
0010
0001
0010
0001
,
1000
0010
0100
0001
0100
0010
2000
0000
,
3001
0000
0010
0000
0100
0100
0100
0000
,
1000
0010
1000
1000
0001
0010
0001
0001
,
2000
0000
3001
0000
0100
0010
0100
0010
,
2000
0100
3001
1001
,
0101
0101
2000
3010
,
1000
0100
1000
0000
0100
0001
0100
0000
,
0001
0010
0001
0000
0010
1000
0010
1000
,
1001
0000
0000
1001
0000
0000
0000
0000
,
0110
0000
0000
0110
0000
0000
0000
0000
,
1010
0000
0000
0101
0000
0000
0000
0000
,
0011
0000
1100
0000
0001
0100
1000
0010
,
0002
0000
0000
0000
,
0003
0000
0000
0000
;
