#TITLE:꿈사탕;
#SUBTITLE:;
#ARTIST:에이프릴;
#TITLETRANSLIT:Dream Candy;
#SUBTITLETRANSLIT:;
#ARTISTTRANSLIT:APRIL;
#GENRE:;
#CREDIT:;
#BANNER:Dream Candy.png;
#BACKGROUND:Dream Candy-bg.png;
#LYRICSPATH:;
#CDTITLE:;
#MUSIC:Dream Candy.mp3;
#OFFSET:-0.327000;
#SAMPLESTART:31.674999;
#SAMPLELENGTH:15.640000;
#SELECTABLE:YES;
#BPMS:0.000000=130.000000
;
#STOPS:
;
#BGCHANGES:3.250=Dream Candy.avi=1.000=1=0=1===CrossFade==,
99999=-nosongbg-=1.000=0=0=0 // don't automatically add -songbackground-
;
#KEYSOUNDS:;
#ATTACKS:;

//---------------dance-single - Blank----------------
#NOTES:
     dance-single:
     :
     Hard:
     6:
     0.393648,0.425351,0.166442,0.508572,0.027740,298.000000,280.000000,18.000000,55.000000,0.000000,0.000000,0.393648,0.425351,0.166442,0.508572,0.027740,298.000000,280.000000,18.000000,55.000000,0.000000,0.000000:
0000
0000
0000
0000
,
0000
0000
0000
0000
,
0000
0000
0000
0000
,
0000
0000
0000
0000
,
0000
0000
0000
0000
0000
0000
0000
1001
,
0000
0001
0100
0001
1000
0100
1000
0200
,
0000
0310
0001
0010
0001
0100
0010
2000
,
0000
0010
3010
0000
0002
0000
0013
0000
,
2000
0000
3100
0000
0001
0100
1000
0000
,
0001
0000
0100
0010
0000
1000
0000
0010
,
0200
0000
0301
0000
1000
0001
1000
0000
,
0001
0000
0010
0100
0000
1000
0000
0100
,
0020
0000
0031
0000
1000
0010
0100
0000
,
0002
0000
1003
0000
0001
0010
1000
0020
,
0000
0100
0130
0000
1000
0000
0001
1000
,
0002
0000
0010
0010
0000
0100
0103
0000
,
0001
0000
1000
2000
0000
0000
3001
0000
,
0101
0000
1100
0000
0001
0100
1000
0200
,
0000
0010
0310
0000
1000
0000
0001
1000
,
0002
0000
0010
0013
0000
0100
1000
0001
,
2000
0000
3001
0000
0100
0100
0010
0010
,
1000
0100
0001
0100
1000
0000
0001
0100
,
1000
0100
0001
0000
0101
0000
1100
0000
,
0001
0010
1000
0010
0002
0000
1003
0000
,
0001
0000
0100
0010
0000
0100
0010
0000
2000
0000
0000
0000
3001
0000
0000
0000
,
1010
0000
0011
0000
1000
0010
0001
0020
,
0000
0100
0130
0000
0001
0000
1000
0001
,
2000
0000
0100
3100
0000
0010
0001
1000
,
0002
0000
1003
0000
0010
0010
0100
0100
,
0001
0010
1000
0010
0100
0000
1000
0010
,
0001
0010
0100
0000
1010
0000
0011
0000
,
1000
0100
0001
0100
0020
0000
0031
0000
,
1000
0000
0010
0100
0000
0010
0100
0000
0002
0000
0000
0000
1003
0000
1000
0000
,
0100
0000
0010
0001
0010
0100
1000
0200
,
0000
2300
0000
3002
0000
0100
0103
0000
,
0002
0203
2300
3200
,
0320
2030
3002
0203
,
0301
0000
1000
0100
0010
0001
0010
0200
,
0000
2300
0000
3002
0000
0100
0103
0000
,
0002
0000
0023
0000
2030
0000
3010
0001
,
2000
0000
3010
0020
0000
0100
0130
0000
,
0002
0000
0013
0010
2000
0000
3010
0000
,
0002
0000
0103
0100
2000
0000
3100
0000
,
0001
0000
0010
0100
0000
1000
0000
0001
,
0200
0300
0020
0030
,
1010
0000
0011
0000
0000
1001
1001
1002
,
0000
0100
0103
0000
0001
0000
0001
0010
,
0200
0000
1000
1300
0000
0100
1000
0010
,
0002
0000
0013
0000
0100
0100
0001
0001
,
1000
0100
0001
0010
1000
0000
0001
0100
,
1000
0010
0001
0000
0101
0000
1100
0000
,
0001
0010
1000
0100
0002
0000
1003
0000
,
0001
0000
0100
0010
0000
1000
0001
0000
0020
0000
0000
0000
0130
0000
0100
0000
,
2000
0000
3010
0002
0000
0013
0200
0000
,
0001
1300
1100
0101
,
1000
0100
0010
0002
0000
0000
0003
0200
,
0000
0000
0000
0000
,
0000
0000
0300
0000
;

//---------------dance-double - Blank----------------
#NOTES:
     dance-double:
     :
     Hard:
     6:
     0.396290,0.451935,0.184935,0.499325,0.027740,300.000000,280.000000,20.000000,54.000000,0.000000,0.000000,0.396290,0.451935,0.184935,0.499325,0.027740,300.000000,280.000000,20.000000,54.000000,0.000000,0.000000:
// measure 0
00000000
00000000
00000000
00000000
,  // measure 1
00000000
00000000
00000000
00000000
,  // measure 2
00000000
00000000
00000000
00000000
,  // measure 3
00000000
00000000
00000000
00000000
,  // measure 4
00000000
00000000
00000000
00000000
00000000
00000000
00000000
10010000
,  // measure 5
00000000
00010000
01000000
00010000
00100000
01000000
00100000
00020000
,  // measure 6
00000000
00130000
00001000
00010000
00000100
00001000
00000010
00000200
,  // measure 7
00000000
00000001
00000301
00000000
00000200
00000000
00001300
00000000
,  // measure 8
00000200
00000000
00000310
00000000
00001000
00000001
00001000
00000000
,  // measure 9
00000001
00000000
00000010
00001000
00000000
00010000
00000000
00001000
,  // measure 10
00000020
00000000
00000031
00000000
00001000
00000001
00001000
00000000
,  // measure 11
00000001
00000000
00000100
00001000
00000000
00010000
00000000
00001000
,  // measure 12
00000200
00000000
00000310
00000000
00001000
00000100
00010000
00000000
,  // measure 13
00012000
00000000
10003000
00000000
00100000
10000000
00010000
02000000
,  // measure 14
00000000
00100000
03100000
00000000
10000000
00000000
00010000
01000000
,  // measure 15
00200000
00000000
00010000
00010000
00000000
10000000
10300000
00000000
,  // measure 16
02000000
00000000
03010000
00020000
00000000
00000000
00031000
00000000
,  // measure 17
00001010
00000000
00000011
00000000
00000001
00000100
00000010
00002000
,  // measure 18
00000000
00000100
00003100
00000000
00010000
00000000
00001000
00100000
,  // measure 19
02000000
00000000
10000000
13000000
00000000
00100000
01000000
00010000
,  // measure 20
20000000
00000000
30010000
00000000
00100000
00100000
01000000
01000000
,  // measure 21
10000000
00100000
00010000
00001000
00010000
00000000
00100000
10000000
,  // measure 22
01000000
00010000
00001000
00000000
00001010
00000000
00000011
00000000
,  // measure 23
00000001
00000100
00001000
00010000
00002000
00000000
00003100
00000000
,  // measure 24
00000010
00000000
00001000
00000100
00000000
00010000
00001000
00000000
00200000
00000000
00000000
00000000
00310000
00000000
00000000
00000000
,  // measure 25
01010000
00000000
11000000
00000000
10000000
00100000
01000000
00020000
,  // measure 26
00000000
00100000
00130000
00000000
00001000
00000000
00010000
00000100
,  // measure 27
00000020
00000000
00000001
00000031
00000000
00000100
00000010
00001000
,  // measure 28
00000002
00000000
00001003
00000000
00000100
00000100
00000010
00000010
,  // measure 29
00000001
00000100
00001000
00010000
00001000
00000000
00000100
00000001
,  // measure 30
00000010
00001000
00010000
00000000
01010000
00000000
11000000
00000000
,  // measure 31
10000000
00100000
00010000
00001000
00020000
00000000
00130000
00000000
,  // measure 32
01000000
00000000
00010000
00100000
00000000
00001000
00010000
00000000
00000200
00000000
00000000
00000000
00001300
00000000
00001000
00000000
,  // measure 33
00000001
00000000
00000100
00000010
00001000
00000010
00010000
00000020
,  // measure 34
00000000
00000230
00000000
00000302
00000000
00001000
00001003
00000000
,  // measure 35
00000200
00020300
00030020
00002030
,  // measure 36
00003002
00000203
00002300
00023000
,  // measure 37
00130000
00000000
10000000
01000000
00100000
01000000
00001000
02000000
,  // measure 38
00000000
23000000
00000000
30020000
00000000
10000000
10030000
00000000
,  // measure 39
00020000
00000000
00230000
00000000
00302000
00000000
01003000
01000000
,  // measure 40
20000000
00000000
01000000
31000000
00000000
00010000
10000000
00000000
,  // measure 41
00020000
00000000
00130000
00100000
02000000
00000000
03010000
00000000
,  // measure 42
00002000
00000000
00003010
00000010
00000002
00000000
00000103
00000000
,  // measure 43
00000001
00000000
00000100
00001000
00000000
00010000
00000000
00100000
,  // measure 44
00200000
00300000
02000000
03000000
,  // measure 45
10100000
00000000
00110000
00000000
00000000
10010000
10010000
10010000
,  // measure 46
00000000
00010000
01020000
00000000
00130000
00000000
00001000
00010000
,  // measure 47
00000100
00000000
00001000
00000010
00000000
00000001
00000010
00000100
,  // measure 48
00000002
00000000
00001003
00000000
00000001
00000001
00001000
00001000
,  // measure 49
00000001
00000100
00001000
00010000
01000000
00000000
10000000
00100000
,  // measure 50
00010000
00001000
00000010
00000000
00000011
00000000
00001100
00000000
,  // measure 51
00000001
00000100
00001000
00010000
00200000
00000000
10300000
00000000
,  // measure 52
00010000
00000000
10000000
01000000
00000000
00010000
00001000
00000000
00000020
00000000
00000000
00000000
00000031
00000000
00000001
00000000
,  // measure 53
00002000
00000000
00003010
00000020
00000000
00000130
00000200
00000000
,  // measure 54
00001000
00001300
00001100
00011000
,  // measure 55
00010000
00100000
10000000
02000000
00000000
03000000
00000000
00020000
,  // measure 56
00000000
00000000
00000000
00000000
,  // measure 57
00000000
00000000
00030000
00000000
;

//---------------dance-single - Blank----------------
#NOTES:
     dance-single:
     :
     Medium:
     5:
     0.330241,0.372182,0.184935,0.490078,0.000000,250.000000,230.000000,20.000000,53.000000,0.000000,0.000000,0.330241,0.372182,0.184935,0.490078,0.000000,250.000000,230.000000,20.000000,53.000000,0.000000,0.000000:
0000
0000
0000
0000
,
0000
0000
0000
0000
,
0000
0000
0000
0000
,
0000
0000
0000
0000
,
0000
0000
0000
0000
0000
0000
0000
1001
,
0000
0001
0100
0000
0010
0000
1000
0000
,
0001
1000
0001
0000
0010
0000
0100
0000
,
2000
3020
0032
0023
,
2030
0000
3002
0000
0103
0010
0100
0000
,
0001
0010
1000
0010
,
0200
0000
0310
0000
0001
1000
0001
0000
,
1000
0010
0001
0010
,
0200
0000
0310
0000
1000
0001
1000
0000
,
0002
0010
0100
1003
,
2000
0010
0100
3001
,
1000
0010
0001
0010
,
0101
0000
0000
2100
0000
0000
3001
0000
,
1010
0011
0001
1000
,
0010
0100
0002
0000
0010
0000
0103
0000
,
0001
0010
1000
0100
,
0002
0000
1003
0000
0010
0100
0010
0000
,
1000
0100
1000
0100
0000
0000
0010
0001
,
0010
0001
0000
0000
0100
0000
0110
0000
,
0010
1000
0001
0100
0000
0000
0010
0000
,
1000
0100
0001
0100
2000
0000
3001
0000
,
0101
1100
1000
0001
,
0100
0010
2000
0000
0100
0000
3010
0000
,
1000
0100
0001
0010
,
2000
0000
3001
0000
0100
0010
0100
0000
,
0001
0010
0001
0010
0000
0000
0100
1000
,
0100
1000
0000
0000
0010
0000
0110
0000
,
0100
0001
1000
0010
0000
0000
0100
0000
,
0001
0010
1000
0010
0002
0000
1003
0000
,
1001
0000
0001
0000
0100
0000
0010
1000
,
0000
0010
0000
0100
0000
0001
1000
0000
,
0002
0023
0230
2300
,
3020
0032
0023
0230
,
0301
0000
1000
0000
0010
0000
0100
0001
,
0000
0100
0000
0010
0000
1000
0001
0000
,
2000
3200
0320
0032
,
0103
0000
0010
1000
0000
1000
0001
0000
,
2000
3100
0002
0103
,
2000
3010
0002
0013
,
2000
3020
0032
0203
,
2300
3000
0002
0003
,
0101
0000
1100
0000
0000
0001
0001
0001
,
0000
1000
1000
0000
0020
0000
0130
0000
,
0102
0000
1003
0000
0001
0010
0100
1000
,
0002
0103
1010
0011
,
1000
0010
1000
0100
0000
0000
0010
0001
,
0100
0001
0000
0000
0011
0000
1100
0000
,
1000
0010
0100
0001
0000
0000
1000
0000
,
0001
0010
1000
0010
0002
0000
1003
0000
,
0002
0103
0020
1030
,
0002
0013
0200
1300
,
2020
3030
0202
0303
,
2002
0000
0000
0000
,
0000
0000
3003
0000
;

//---------------dance-single - Blank----------------
#NOTES:
     dance-single:
     :
     Easy:
     3:
     0.227206,0.239260,0.000000,0.138701,0.000000,172.000000,172.000000,0.000000,15.000000,0.000000,0.000000,0.227206,0.239260,0.000000,0.138701,0.000000,172.000000,172.000000,0.000000,15.000000,0.000000,0.000000:
0000
0000
0000
0000
,
0000
0000
0000
0000
,
0000
0000
0000
0000
,
0000
0000
0000
0000
,
0000
0000
0000
0000
,
1000
0010
1000
0010
,
0100
0001
0100
0001
,
2000
3000
0002
0003
,
0020
0030
0100
0100
,
1000
0010
0001
0010
,
0200
0300
0010
0010
,
1000
0100
0001
0100
,
0020
0030
0100
0100
,
1000
0010
1000
0010
,
0100
0001
0100
0001
,
1000
0100
0010
0001
,
2000
3000
0002
0003
,
1000
0100
1000
0100
,
0001
0100
0001
0100
,
0010
0100
0010
0100
,
1000
0001
1000
0001
,
0100
0100
0000
0010
,
0010
0000
1000
1000
,
0001
0001
0010
0000
,
0100
1000
0001
0000
,
1000
0010
1000
0010
,
0001
0010
0001
0010
,
0100
0010
0100
0010
,
1000
0001
1000
0001
,
0010
0010
0000
0100
,
0100
0000
1000
1000
,
0001
0100
0010
0000
,
1000
0100
0001
0100
,
1000
0000
0010
0000
,
0100
0000
0001
0000
,
1000
1000
1000
1000
,
0001
0001
0001
0001
,
1000
0000
0100
0000
,
0010
0000
0001
0000
,
0100
0100
0100
0100
,
0010
0010
1000
0001
,
0100
0010
0100
0000
,
0001
1000
0001
0000
,
1000
0100
0010
0001
,
2000
3000
0002
0003
,
0100
0100
0000
0010
,
1000
0001
0000
0010
,
0001
0100
1000
0100
,
0020
0030
0100
0001
,
1000
0100
0100
0001
,
0100
0100
1000
0001
,
1000
0010
0010
0100
,
0001
0010
1000
0010
,
0002
0003
0200
0300
,
0020
0030
2000
3000
,
0001
0010
0100
1000
,
0002
0000
0000
0000
,
0000
0000
0003
0000
;
