#TITLE:Can I fall in love with "U"?;
#SUBTITLE:;
#ARTIST:小坂りゆ with "U";
#TITLETRANSLIT:;
#SUBTITLETRANSLIT:;
#ARTISTTRANSLIT:Riyu Kosaka with "U";
#GENRE:;
#CREDIT:;
#BANNER:Can I fall in love with U.png;
#BACKGROUND:Can I fall in love with U-bg.png;
#LYRICSPATH:;
#CDTITLE:;
#MUSIC:Can I fall in love with U.mp3;
#OFFSET:-0.083000;
#SAMPLESTART:55.075001;
#SAMPLELENGTH:15.660000;
#SELECTABLE:YES;
#BPMS:0.000000=157.000000
;
#STOPS:
;
#BGCHANGES:;
#KEYSOUNDS:;
#ATTACKS:;

//---------------dance-single - Blank----------------
#NOTES:
     dance-single:
     :
     Hard:
     7:
     0.490979,0.576220,0.276091,0.418896,0.009520,361.000000,332.000000,29.000000,44.000000,0.000000,0.000000,0.490979,0.576220,0.276091,0.418896,0.009520,361.000000,332.000000,29.000000,44.000000,0.000000,0.000000:
0000
0000
0000
0000
,
0000
0000
0000
0000
,
0000
0000
0000
0000
,
0000
0000
0000
0000
,
1000
0000
0100
0100
0000
0001
0000
0100
,
0000
0010
0010
0001
0002
0000
1003
0001
,
0010
0001
0100
0010
0000
1000
0001
1000
,
0000
0010
0100
0001
2000
0001
3001
0000
,
1000
0000
0010
0010
0000
0001
0000
0010
,
0000
0100
0100
0001
0002
0000
1003
0010
,
0100
0000
0010
0010
0000
1000
0000
0002
,
0000
0010
0013
0000
2200
0000
3300
0000
,
1000
0000
0010
0100
0001
1000
0000
0002
,
0000
0103
0000
0001
0020
0000
1030
0001
,
0020
0000
1030
0001
0010
0100
0000
2000
,
0000
3100
0100
0010
0002
1000
1003
0000
,
0001
0000
0100
0010
1000
0001
0000
2000
,
0000
3010
0000
1000
0100
0000
0011
0000
,
1010
0000
0001
1000
0100
0000
0010
0002
,
0000
0013
0010
0100
2000
0001
3001
0000
,
1001
0000
1000
0010
0001
0010
0000
0100
,
0000
0010
0010
1000
0002
0000
0103
0001
,
1000
0000
0001
0100
1000
0100
0000
0010
,
0000
0100
0100
0001
2000
0001
3001
0000
,
1001
0000
0001
0010
1000
0010
0000
0100
,
0000
1000
0000
0001
0001
0000
0001
0001
,
1000
0000
0001
0010
0100
0100
0000
1001
,
0000
0000
0000
0010
0100
0000
0101
0000
,
1100
0000
1000
0010
0100
0010
0000
1000
,
0002
0000
0010
0000
0103
0001
0010
0100
,
1000
0000
0010
0001
0000
0010
0000
0100
,
0002
0000
0010
0000
0103
0000
1000
0001
,
2000
3100
0002
0103
,
2000
0000
3001
0000
1000
0010
0100
0000
,
0001
0000
1000
1000
0000
1100
0000
0101
,
0000
0000
0000
0000
,
1001
0000
0001
0100
0000
1000
0000
0100
,
0000
0010
1000
0001
0001
0000
1000
0100
,
0001
0100
0010
0001
0000
1000
0010
0001
,
0000
0001
0010
1000
0002
0100
0103
0000
,
1001
0000
0001
0010
0000
1000
0000
0010
,
0000
0100
1000
0001
0001
0000
1000
0010
,
0200
0000
0310
0020
0000
2030
0000
3002
,
0000
0013
0100
1000
1100
0000
0101
0000
,
1001
0000
1000
0010
0000
0001
0000
0010
,
0000
0100
0001
1000
1000
0000
0001
0010
,
1000
0010
0100
1000
0000
0001
0100
1000
,
0000
1000
0100
0001
2000
0010
3010
0000
,
1001
0000
1000
0100
0000
0001
0000
0100
,
0000
0010
0001
1000
1000
0000
0001
0100
,
0020
0000
0130
0200
0000
0302
0000
2003
,
0000
0000
0100
0000
3100
0000
0000
0000
1000
0000
0001
0000
0001
0000
0100
0010
,
0200
0000
0301
0002
0000
0023
0000
0230
,
0000
1300
0001
1000
2000
0000
3100
0000
,
0000
0000
0000
0000
0000
0000
1000
0010
,
0200
0000
0001
0001
0300
1000
0000
1100
,
0000
0000
0101
0000
0101
0000
0000
0000
0002
0000
0000
0000
1003
0000
0001
0010
,
0100
0000
1000
0010
0000
0001
0000
1000
,
0000
0100
0000
0001
2000
0000
3001
0000
,
1000
0100
0001
0100
0010
0010
0010
0000
,
0001
0100
1000
0100
0010
0010
0010
0000
,
1001
0000
0001
0010
0000
1000
0000
0001
,
0000
0100
0000
1000
0002
0000
0103
0000
,
2010
0000
0001
0001
0000
0100
3100
0000
,
0012
0000
1000
1000
0000
0100
0103
0000
,
1100
0000
0011
0011
0000
0101
0000
1010
,
0000
1001
2002
0000
0000
0000
0000
0000
,
0000
3003
0000
0000
;

//---------------dance-single - ----------------
#NOTES:
     dance-single:
     :
     Easy:
     4:
     0.288331,0.320122,0.047602,0.199928,0.000000,212.000000,207.000000,5.000000,21.000000,0.000000,0.000000,0.288331,0.320122,0.047602,0.199928,0.000000,212.000000,207.000000,5.000000,21.000000,0.000000,0.000000:
0000
0000
0000
0000
,
0000
0000
0000
0000
,
0000
0000
0000
0000
,
0000
0000
0000
0000
,
1000
0000
0100
0000
,
0010
0001
1000
0000
,
0001
0000
0100
0000
,
0010
1000
0001
0000
,
1000
0000
0100
0000
,
0001
0100
1000
0000
,
0001
0100
0010
1000
,
0010
0100
0001
0000
,
1000
0000
0100
0100
,
0200
0300
0010
0000
,
0001
0001
1000
1000
,
0010
0100
0001
0000
,
1000
0000
0010
0010
,
0020
0030
0100
0000
,
0001
0001
1000
1000
,
0100
0010
0001
0000
,
1000
0010
0001
0010
,
0100
0001
1000
0000
,
0001
0010
1000
0010
,
0100
1000
0001
0000
,
1000
0000
0100
0001
,
0010
0000
1000
0000
,
0001
0100
0010
1000
,
1001
0000
0010
0010
,
1000
0100
0010
0001
,
2000
3000
0001
0000
,
1000
0010
0100
0001
,
2000
3000
0001
0001
,
0020
0030
0200
0300
,
2000
3000
0001
0001
,
1000
0010
0001
0100
,
1000
0000
0000
0000
,
0001
0100
0010
1000
,
0010
0100
0002
1003
,
0001
0010
0100
1000
,
0100
0010
0002
1003
,
0001
0100
1000
0100
,
0010
1000
0002
0103
,
0001
0010
1000
0010
,
0100
1000
0001
1001
,
1000
0010
0001
0100
,
0001
0010
2000
3001
,
1000
0100
0001
0010
,
0001
0100
2000
3001
,
1000
0100
0001
0010
,
1000
0001
0200
0301
,
1000
0100
0001
0010
,
1000
0010
0001
0100
,
0001
0010
1000
0100
,
0001
1000
2002
3003
,
0000
0000
0000
1000
,
0100
0001
0010
1000
,
0001
2002
0000
3003
,
1000
0010
0001
0010
,
0100
0001
1000
0000
,
0001
0010
0002
0003
,
1000
0010
2000
3000
,
0001
0100
1000
0100
,
0010
1000
0001
0000
,
1000
0100
1000
1000
,
0001
0100
0001
0001
,
1000
0100
0001
0010
,
1000
2002
0000
0000
,
0000
3003
0000
0000
;

//---------------dance-single - ----------------
#NOTES:
     dance-single:
     :
     Medium:
     4:
     0.443377,0.544208,0.875874,0.447457,0.000000,326.000000,234.000000,92.000000,47.000000,0.000000,0.000000,0.443377,0.544208,0.875874,0.447457,0.000000,326.000000,234.000000,92.000000,47.000000,0.000000,0.000000:
0000
0000
0000
0000
,
0000
0000
0000
0000
,
0000
0000
0000
0000
,
0000
0000
0000
0000
,
1000
0010
0001
0010
,
0100
0001
2001
3100
,
1000
0100
0001
0100
,
1000
0010
1002
0103
,
0001
0010
1000
0100
,
1000
0010
0012
0103
,
0001
0100
1000
0010
,
0001
1002
0200
0303
,
0001
0011
0001
0100
,
0120
1030
0001
0101
,
1000
1100
0001
1000
,
0010
0100
0002
1003
,
0001
0010
1000
0010
,
0200
1300
0001
0101
,
1000
1100
0001
0011
,
1000
0010
0100
1001
,
2100
0100
3100
1000
,
0102
0100
0103
0001
,
2010
0010
3010
1000
,
0012
0010
0013
0001
,
1000
0010
0001
0010
,
0100
0001
1000
1001
,
0001
0000
0010
0000
0100
0100
0000
1001
,
0000
0000
1100
0101
,
1000
0010
0001
0100
,
0001
0010
2001
3100
,
1000
0100
0001
0010
,
0001
0100
1002
0103
,
0002
0013
2000
3010
,
0002
0103
2000
3100
,
0101
1010
0011
1100
,
2002
0000
0000
3003
,
1020
0100
0001
1030
,
1010
0101
2002
3003
,
0001
0010
0100
1000
,
1010
0101
2002
3003
,
0201
0010
1000
0301
,
0101
1010
2002
3003
,
1000
0100
0010
0001
,
0101
1010
2001
3100
,
1010
0101
0011
1100
,
1010
0101
2002
3003
,
0011
1100
0101
1010
,
1001
0110
2002
3003
,
0011
1010
1100
0101
,
1100
1010
0220
0330
,
0101
1010
0011
1100
,
1001
0102
1000
1003
,
0101
1100
0011
1010
,
1100
0101
2002
3003
,
0000
0000
0000
1000
,
1010
0101
0011
1100
,
1001
2002
0000
3003
,
1000
0010
0001
0100
,
0001
0010
0200
1300
,
1020
0100
0130
0010
,
0021
0100
0130
0010
,
1000
0100
0001
0100
,
0110
0011
1002
0103
,
2010
0100
0001
3001
,
0012
0100
1000
1003
,
1010
0101
0011
1100
,
1000
0001
2000
0000
0000
0000
0000
0000
,
0000
3000
0000
0000
;

//---------------dance-double - ----------------
#NOTES:
     dance-double:
     :
     Hard:
     7:
     0.489619,0.542185,0.257050,0.428416,0.009520,360.000000,333.000000,27.000000,45.000000,0.000000,0.000000,0.489619,0.542185,0.257050,0.428416,0.009520,360.000000,333.000000,27.000000,45.000000,0.000000,0.000000:
// measure 0
00000000
00000000
00000000
00000000
,  // measure 1
00000000
00000000
00000000
00000000
,  // measure 2
00000000
00000000
00000000
00000000
,  // measure 3
00000000
00000000
00000000
00000000
,  // measure 4
00002000
00010000
00100000
01003000
,  // measure 5
00001000
00010000
00000100
00001000
00000001
00000000
00001001
00000000
,  // measure 6
00000002
00001000
00000010
00000103
,  // measure 7
00000001
00000010
00001000
00000010
00000100
00000000
00001100
00000000
,  // measure 8
00020000
00001000
00000100
00030010
,  // measure 9
00010000
00001000
00100000
00010000
10000000
00000000
10010000
00000000
,  // measure 10
20000000
00000000
30100000
00200000
00000000
02300000
00000000
03002000
,  // measure 11
00000000
00013000
00010000
00000000
00010200
00000000
00000310
00000000
,  // measure 12
00000001
00000000
00000100
00000000
00001000
00000100
00000000
00000010
,  // measure 13
00000000
00001000
00000000
00000100
00020000
00000000
00031000
00000000
,  // measure 14
00100000
00000000
00010000
00000000
01000000
10000000
00000000
01000000
,  // measure 15
00000000
00100000
00000000
10000000
00001000
00010000
00010000
00000000
,  // measure 16
00000010
00000000
00000100
00000000
00000001
00000010
00000000
00001000
,  // measure 17
00000000
00000010
00000000
00000100
00020000
00000000
00031000
00000000
,  // measure 18
00100000
00000000
00010000
01000000
10000000
00000000
01000000
00100000
,  // measure 19
00000000
00100000
00000000
10000000
00001000
00010000
00011000
00000000
,  // measure 20
00002000
00000000
00013000
00000100
00001000
00001000
00000000
00000020
,  // measure 21
00000000
00000130
00000100
00000200
00000000
00001000
00001300
00000000
,  // measure 22
00020000
00000000
00031000
00100000
00010000
00010000
00000000
02000000
,  // measure 23
00000000
03100000
00100000
00200000
00000000
10000000
10300000
00000000
,  // measure 24
00010000
00000000
10000000
01000000
00010000
00001000
00000000
00020000
,  // measure 25
00000000
01030000
00000000
10000000
00010000
00000000
00011000
00000000
,  // measure 26
00001001
00000000
00000001
00000010
00000100
00000100
00000000
00001001
,  // measure 27
00000000
00000000
00000000
00000100
00010000
00000000
00010100
00000000
,  // measure 28
00102000
00010000
01000000
01003000
,  // measure 29
00001000
01000000
00000000
00100000
20000000
00000000
30010000
00000000
,  // measure 30
00020100
00001000
00000010
00030010
,  // measure 31
00010000
00000010
00000000
00000100
00000002
00000000
00001003
00000000
,  // measure 32
00000002
00000103
00002000
00013000
,  // measure 33
00200000
00000000
10300000
00000000
00010000
10000000
00010000
00000000
,  // measure 34
20000000
00000000
01000000
31000000
00000000
10010000
00000000
00011000
,  // measure 35
00000000
00000000
00000000
00000000
,  // measure 36
00010000
00000100
00001000
00000100
00010000
00001000
00100000
00001000
,  // measure 37
01000000
00100000
10000000
00010000
00020000
00000000
10030000
00000000
,  // measure 38
00010000
00100000
00001000
00010000
00000100
00010000
00001000
00100000
,  // measure 39
00001000
00010000
00000010
00000100
00000002
00001000
00001003
00000000
,  // measure 40
00000001
00000010
00001000
00000010
00000100
00001000
00000010
00010000
,  // measure 41
00001000
00100000
00010000
01000000
00200000
00000000
10300000
10000000
,  // measure 42
00010000
00000000
00100000
00100000
00000000
00001000
00000000
00010000
,  // measure 43
00000000
00000100
00001000
00000010
00000200
00000000
00000301
00000000
,  // measure 44
00001000
00000100
00000001
00000100
00001000
00000010
00010000
00001000
,  // measure 45
00100000
00010000
01000000
10000000
02000000
00000000
03100000
00100000
,  // measure 46
10000000
01000000
00010000
00001000
00010000
01000000
10000000
00100000
,  // measure 47
01000000
00001000
00010000
00000100
00002000
00000001
00003001
00000000
,  // measure 48
00001000
00000010
00000001
00000010
00000100
00000001
00001000
00000100
,  // measure 49
00010000
00000010
00000100
00000001
00002000
00000000
00003100
00000100
,  // measure 50
00010000
00000000
00001000
00001000
00000000
00100000
00000000
00020000
,  // measure 51
00000000
00000000
01000000
00000000
01030000
00000000
00000000
00000000
00200000
00000000
10000000
00000000
10300000
00000000
00010000
10000000
,  // measure 52
00020000
00000000
00130000
00200000
00000000
00301000
00000000
00101000
,  // measure 53
00000000
00010100
00000000
00001010
00002010
00000000
00003001
00000000
,  // measure 54
00000000
00000000
00000000
00000000
00000000
00000000
00000001
00000100
,  // measure 55
00002000
00000000
00010000
00013000
00000000
00011000
00000000
00110000
,  // measure 56
00000000
00000000
10100000
00000000
10100000
00000000
00000000
00000000
20000000
00000000
00000000
00000000
30010000
00000000
01000000
00100000
,  // measure 57
01000000
00000000
00010000
00010000
00000000
00100000
00000000
00001000
,  // measure 58
00000000
00010000
00000000
00000100
00000200
00000000
00001300
00000000
,  // measure 59
00000001
00000100
00001000
00010000
00001000
00001000
00001000
00000000
,  // measure 60
00010000
00100000
10000000
00010000
01000000
01000000
01000000
00000000
,  // measure 61
00100000
00000000
01000000
01000000
00000000
00010000
00000000
00100000
,  // measure 62
00000000
00001000
00000000
00010000
00000200
00000000
00001300
00000000
,  // measure 63
00001020
00000000
00000001
00000001
00000000
00000100
00000130
00000000
,  // measure 64
00001200
00000000
00000001
00000001
00000000
00000010
00000310
00000000
,  // measure 65
00000011
00000000
00001000
00001100
00000000
00010100
00000000
00012000
,  // measure 66
00000000
01000000
02000000
00000000
00000000
00000000
00000000
00000000
,  // measure 67
03003000
00000000
00000000
00000000
;
