#TITLE:챔피언;
#SUBTITLE:;
#ARTIST:싸이;
#TITLETRANSLIT:CHAMPION;
#SUBTITLETRANSLIT:;
#ARTISTTRANSLIT:PSY;
#GENRE:;
#CREDIT:;
#BANNER:CHAMPION.png;
#BACKGROUND:CHAMPION-bg.png;
#LYRICSPATH:;
#CDTITLE:;
#MUSIC:CHAMPION.mp3;
#OFFSET:-0.068394;
#SAMPLESTART:41.414570;
#SAMPLELENGTH:16.280001;
#SELECTABLE:YES;
#BPMS:0.000000=116.000000
;
#STOPS:
;
#BGCHANGES:;
#KEYSOUNDS:;
#ATTACKS:;

//---------------dance-single - ----------------
#NOTES:
     dance-single:
     :
     Hard:
     8:
     0.491994,0.477789,0.300740,0.116416,0.276487,355.000000,324.000000,31.000000,12.000000,0.000000,0.000000,0.491994,0.477789,0.300740,0.116416,0.276487,355.000000,324.000000,31.000000,12.000000,0.000000,0.000000:
0000
0000
0000
0000
,
0000
0000
0000
0000
,
0000
0000
0000
0000
,
0000
0000
0000
0000
0000
0001
0010
0100
,
1000
0000
1100
0000
0000
0000
1000
0000
0010
0100
0010
0000
1000
0000
0001
0000
,
0010
0000
0101
0000
0000
0000
0001
0000
0100
0010
0100
0000
0001
0000
1000
0000
,
0100
0000
1010
0000
0000
0000
1000
0000
0001
0010
0001
0010
0100
0000
1000
0000
,
0001
0010
0001
0001
1000
0010
1000
1000
,
0001
0000
0010
0000
0100
1000
0000
0000
0001
0000
0100
0000
0010
1000
0000
0000
,
0001
0000
0010
0000
1000
0000
0010
0000
0001
0000
0100
0000
0001
1000
0000
0000
,
0001
0000
1100
0000
0000
0000
1000
0000
0010
0000
0010
0000
0100
0000
0000
0001
,
1000
0001
0000
0000
0010
0000
0000
0100
1000
0000
0001
0000
1001
0000
0000
0000
,
2010
0000
0000
0000
0001
0000
0000
3100
0000
0000
1000
0000
0010
0000
0100
0000
,
0102
0000
0000
0000
1003
0000
0000
1020
0000
0000
0130
0000
0001
0000
1000
0000
,
0001
0010
0000
0000
0100
0000
0100
0000
1000
0010
0000
0000
0100
0000
0100
0000
,
0000
0000
0001
0100
0001
0000
1000
0100
1000
0000
0000
1000
0001
0000
0100
0000
,
0102
0000
0000
0000
1000
0000
0000
0013
0000
0000
0001
0000
0100
0000
0010
0000
,
2010
0000
0000
0000
0001
0000
0000
3100
0000
0000
1000
0000
0010
0000
0100
0000
,
0001
0010
0000
0000
0100
0000
0100
0000
1000
0000
0010
0000
0001
0000
0010
0000
,
0000
1000
0100
0001
1000
0010
1001
0000
,
0001
0000
0010
0001
0000
0000
0100
0000
0010
0000
1000
0000
1001
0000
0000
0000
,
1000
0000
0100
1000
0000
0000
0001
0000
0100
0000
0010
0000
1001
0000
0000
0000
,
1000
0000
0100
0010
0000
0000
0001
0000
0010
0000
0100
0000
1001
0000
0000
0000
,
1000
0000
0010
0000
0100
0001
0000
0000
1000
0000
0100
0000
0010
0001
0000
0000
,
1000
0000
0100
0001
0000
0000
0100
0000
1000
0000
0001
0000
1001
0000
0000
0000
,
0001
0000
0100
1000
0000
0000
0100
0000
0001
0000
1000
0000
1001
0000
0000
0000
,
0001
0000
0010
1000
0000
0000
0001
0000
0100
0000
1000
0000
0001
0100
0000
0000
,
0010
1000
0002
0000
0010
0010
0100
0103
,
0001
0010
0000
0010
0000
0000
0000
0000
0000
0000
0100
0000
1000
0000
0001
0000
,
1001
0000
0000
0000
0000
0000
0000
1000
,
0010
0100
0000
0100
0000
0000
0000
0000
0000
0000
0000
0000
0000
0000
0001
0010
,
0001
0000
0100
0000
0100
0000
0010
1000
0000
1000
0001
0000
0010
0000
0100
0000
,
1000
1000
0100
0100
0001
0100
1000
0000
,
1010
0000
0101
0001
1000
1000
1000
0000
,
0011
0000
0001
0100
1000
1000
0100
0000
,
1010
0000
0000
0000
0011
0000
0000
0001
0100
0000
0010
0000
1001
0000
0000
0000
,
1000
0000
0100
1000
0000
0000
0010
0000
0100
0000
0001
0000
1001
0000
0000
0000
,
0001
0000
0010
0001
0000
0000
1000
0000
0010
0000
0100
0000
1001
0000
0000
0000
,
0001
0000
0010
0100
0000
0000
1000
0000
0100
0000
0010
0000
1001
0000
0000
0000
,
0001
0000
0100
0000
0010
1000
0000
0000
0001
0000
0010
0000
0100
1000
0000
0000
,
0001
0000
0010
1000
0000
0000
0010
0000
0001
0000
1000
0000
1001
0000
0000
0000
,
1000
0000
0010
0001
0000
0000
0010
0000
1000
0000
0001
0000
1001
0000
0000
0000
,
1000
0000
0100
0001
0000
0000
1000
0000
0010
0000
0001
0000
1000
0010
0000
0000
,
0100
0001
2000
0000
0100
0000
0010
3000
,
2100
0000
0000
0000
0100
0000
0000
3001
0000
1000
0010
0000
0001
0000
0010
0000
,
0102
0000
0000
0000
0100
0000
0000
1003
0000
0001
0010
0000
1000
0000
0001
0000
,
0100
0000
1000
0000
0010
0000
0100
0001
0000
0001
1000
0000
0100
0000
0020
0000
,
0001
0000
0000
0000
0130
0000
0000
0010
0001
0010
0100
0000
1000
0000
0001
1000
,
0001
0000
0100
0000
1000
0000
0100
0010
0000
0010
1000
0000
0001
0000
1000
0000
,
2002
3003
0000
0000
;

//---------------dance-single - ----------------
#NOTES:
     dance-single:
     :
     Easy:
     3:
     0.246690,0.262784,0.097013,0.242532,0.000000,178.000000,168.000000,10.000000,25.000000,0.000000,0.000000,0.246690,0.262784,0.097013,0.242532,0.000000,178.000000,168.000000,10.000000,25.000000,0.000000,0.000000:
0000
0000
0000
0000
,
0000
0000
0000
0000
,
0000
0000
0000
0000
,
0000
0000
0000
1000
,
0001
0000
0010
0100
,
1000
0000
0010
0100
,
0001
0000
1000
0001
,
0100
0100
0010
0010
,
1000
0100
0001
0100
,
1000
0010
0001
0010
,
1000
1000
0010
0100
,
0001
0001
1000
1001
,
0002
0010
0013
0001
,
2000
3010
0200
0301
,
1000
0100
0001
0100
,
0010
0001
1000
1001
,
0002
0100
0103
0001
,
2000
0100
3100
1000
,
0001
0100
1000
0010
,
0001
1000
0001
1001
,
2000
3010
0100
0100
,
0002
0013
0100
0100
,
2000
3100
0001
0001
,
0100
1100
1000
1001
,
0002
0103
0010
0010
,
2000
3100
0010
0010
,
0002
0013
1000
1000
,
0010
2002
0000
3003
,
1000
1000
0000
0000
,
0010
0000
0000
0000
,
0100
0100
0000
0000
,
0001
0010
0100
1000
,
0001
0100
0001
0001
,
1000
0100
1000
1000
,
0001
0010
1000
1000
,
0010
0001
1000
1000
,
0002
0103
0010
0010
,
2000
3100
0010
0010
,
0002
0013
1000
1000
,
0010
0011
0001
1001
,
2000
3010
0100
0100
,
0002
0013
0100
0100
,
2000
3100
0001
0001
,
0100
2002
0000
3003
,
0002
0010
0103
0001
,
2000
0010
3100
1000
,
0001
0100
1000
0010
,
1000
0100
0001
0010
,
0100
0100
1000
0001
,
2002
3003
0000
0000
;

//---------------dance-single - ----------------
#NOTES:
     dance-single:
     :
     Medium:
     6:
     0.393595,0.382231,0.184325,0.126117,0.087312,284.000000,265.000000,19.000000,13.000000,0.000000,0.000000,0.393595,0.382231,0.184325,0.126117,0.087312,284.000000,265.000000,19.000000,13.000000,0.000000,0.000000:
0000
0000
0000
0000
,
0000
0000
0000
0000
,
0000
0000
0000
0000
,
0000
0000
0000
0000
0000
1000
0010
0100
,
0002
0000
1003
0000
0001
0010
0001
0010
,
0200
0000
1300
0000
0001
0100
0001
0100
,
0020
0000
1030
0000
0001
0001
1000
1000
,
0010
0010
0100
0000
0001
0001
1000
0000
,
0001
0010
1000
0000
1000
0010
0001
0000
,
0001
0100
1000
0100
0010
1000
0001
0000
,
1000
0100
0000
0010
0001
0001
1000
0000
,
1010
0000
0101
0000
1000
0001
1000
0000
,
0002
0000
0000
0000
0010
0000
0000
0013
0000
0000
0100
0000
1000
0000
0000
0000
,
0002
0000
0000
0000
0100
0000
0000
0103
0000
0000
0010
0000
1000
0000
0000
0000
,
1001
0000
0010
0100
1001
0000
0100
0010
,
0000
0001
0100
0010
1000
0000
0001
0001
,
0002
0000
0000
0000
0010
0000
0000
0013
0000
0000
0100
0000
1000
0000
0000
0000
,
0002
0000
0000
0000
0100
0000
0000
0103
0000
0000
0010
0000
1000
0000
0001
0000
,
1000
0100
1000
1000
0001
0100
0001
0001
,
0000
1000
0010
0001
1000
0100
0001
0000
,
0010
0000
0000
0001
0000
0000
0100
0000
0010
0000
1000
0000
0001
0000
0000
0000
,
0100
0000
0000
0010
0000
0000
1000
0000
0001
0000
0010
0000
0100
0000
0000
0000
,
1000
0000
0000
0010
0000
0000
0001
0000
1000
0000
0100
0000
0001
0000
0000
0000
,
0010
0010
1001
0000
0100
0100
1001
0000
,
0100
0000
0000
1000
0000
0000
0010
0000
0100
0000
0001
0000
1000
0000
0000
0000
,
0010
0000
0000
0100
0000
0000
0001
0000
1000
0000
0100
0000
0010
0000
0000
0000
,
0001
0000
0000
0100
0000
0000
1000
0000
0001
0000
0010
0000
1000
0000
0000
0000
,
0100
0100
1001
0000
0010
0010
0100
0100
,
0001
0010
0100
0000
0000
0000
0000
0000
,
1001
0000
0000
0000
,
1000
0010
0100
0000
0000
0000
0000
0000
,
0001
0001
0010
0010
0100
1000
0001
0000
,
1000
1000
0010
0010
0100
0001
1000
0000
,
1001
0000
0001
0010
0100
0100
0100
0000
,
1001
0000
1000
0010
0100
0100
0100
0000
,
0011
0000
1010
0000
0001
1000
1001
0000
,
0010
0000
0000
0001
0000
0000
0100
0000
0010
0000
1000
0000
0001
0000
0000
0000
,
0100
0000
0000
0010
0000
0000
1000
0000
0001
0000
0010
0000
0100
0000
0000
0000
,
1000
0000
0000
0010
0000
0000
0001
0000
1000
0000
0100
0000
0001
0000
0000
0000
,
0010
0010
1001
0000
0100
0100
1001
0000
,
0010
0000
0000
0001
0000
0000
0100
0000
0010
0000
1000
0000
0001
0000
0000
0000
,
0100
0000
0000
0010
0000
0000
1000
0000
0001
0000
0010
0000
0100
0000
0000
0000
,
1000
0000
0000
0010
0000
0000
0001
0000
1000
0000
0100
0000
0001
0000
0000
0000
,
0010
0010
1001
0000
0100
0000
1001
0000
,
2010
0000
0000
0000
0001
0000
0000
3001
0000
0000
1000
0000
0010
0000
0100
0000
,
0002
0000
0000
0000
1000
0000
0000
1003
0000
0000
0001
0000
0010
0000
1000
0000
,
0001
0100
1000
0010
0100
0100
0001
0001
,
2000
3100
0020
0031
,
1000
0010
0100
0010
0001
0010
1000
0001
,
2002
3003
0000
0000
;

//---------------dance-double - ----------------
#NOTES:
     dance-double:
     :
     Hard:
     8:
     0.486451,0.501678,0.320143,0.116416,0.257084,351.000000,318.000000,33.000000,12.000000,0.000000,0.000000,0.486451,0.501678,0.320143,0.116416,0.257084,351.000000,318.000000,33.000000,12.000000,0.000000,0.000000:
// measure 0
00000000
00000000
00000000
00000000
,  // measure 1
00000000
00000000
00000000
00000000
,  // measure 2
00000000
00000000
00000000
00000000
,  // measure 3
00000000
00000000
00000000
00000000
00000000
00000001
00000010
00000100
,  // measure 4
00001000
00001010
00000000
00000010
00000100
00000001
00001000
00000100
,  // measure 5
00010000
00011000
00000000
00100000
00010000
10000000
00010000
01000000
,  // measure 6
00001000
00000000
00101000
00000000
00000000
00000000
00001000
00000000
00010000
00000010
00010000
00000010
00000100
00000000
00000100
00000000
,  // measure 7
00000001
00001000
00000100
00000100
00001000
00000001
00000010
00000010
,  // measure 8
00000001
00000000
00000100
00000000
00001000
00000100
00000000
00000000
00000010
00000000
00010000
00000000
00000100
00001000
00000000
00000000
,  // measure 9
00000001
00000000
00000010
00000000
00001000
00000000
00000010
00000000
00000001
00000000
00000100
00000000
00001000
00010000
00000000
00000000
,  // measure 10
00100000
00000000
11000000
00000000
00000000
00000000
01000000
00000000
00010000
00000000
00010000
00000000
10000000
00000000
00000000
10000000
,  // measure 11
00010000
10000000
00000000
00000000
00100000
00000000
00000000
01000000
00010000
00000000
00100000
00000000
00011000
00000000
00000000
00000000
,  // measure 12
00001020
00000000
00000000
00000000
00000001
00000000
00000000
00001030
00000000
00000000
00000010
00000000
00001000
00000000
00000100
00000000
,  // measure 13
00020100
00000000
00000000
00000000
00031000
00000000
00000000
00102000
00000000
00000000
01003000
00000000
00100000
00000000
00100000
00000000
,  // measure 14
10000000
00100000
00000000
00000000
01000000
00000000
01000000
00000000
00010000
00100000
00000000
00000000
01000000
00000000
01000000
00000000
,  // measure 15
00000000
00000000
10000000
00000000
01000000
00000000
00010000
00000000
00001000
00000000
00000000
00000100
00000001
00000000
00001000
00000000
,  // measure 16
00001200
00000000
00000000
00000000
00000001
00000000
00000000
00001300
00000000
00000000
00000100
00000000
00001000
00000000
00000010
00000000
,  // measure 17
00020010
00000000
00000000
00000000
00001000
00000000
00000000
01030000
00000000
00000000
10000000
00000000
00100000
00000000
01000000
00000000
,  // measure 18
00010000
00100000
00000000
00000000
00001000
00000000
00001000
00000000
00010000
00000000
00000100
00000000
00001000
00000000
00001000
00000000
,  // measure 19
00000000
00000001
00000100
00001000
00010000
01000000
10000000
00000000
,  // measure 20
00010000
00000000
01000000
00100000
00000000
00000000
10000000
00000000
00100000
00000000
01000000
00000000
10010000
00000000
00000000
00000000
,  // measure 21
10000000
00000000
01000000
00100000
00000000
00000000
00001000
00000000
00010000
00000000
00000100
00000000
00001001
00000000
00000000
00000000
,  // measure 22
00000001
00000000
00000100
00000010
00000000
00000000
00001000
00000000
00000010
00000000
00000100
00000000
00001001
00000000
00000000
00000000
,  // measure 23
00000001
00000000
00000010
00000000
00000100
00010000
00000000
00000000
00001000
00000000
00100000
00000000
00010000
10000000
00000000
00000000
,  // measure 24
00010000
00000000
00100000
01000000
00000000
00000000
10000000
00000000
01000000
00000000
00100000
00000000
10010000
00000000
00000000
00000000
,  // measure 25
10000000
00000000
00100000
01000000
00000000
00000000
00001000
00000000
00010000
00000000
00000010
00000000
00001001
00000000
00000000
00000000
,  // measure 26
00000001
00000000
00000010
00000100
00000000
00000000
00001000
00000000
00000100
00000000
00000010
00000000
00000001
00001000
00000000
00000000
,  // measure 27
00000001
00000100
00000020
00000000
00010000
00000000
00001030
00000000
,  // measure 28
00000001
00001000
00000000
00001000
00000000
00000000
00000000
00000000
00000000
00000000
00000010
00000000
00010000
00000000
00001000
00000000
,  // measure 29
00011000
00000000
00000000
00000000
00000000
00000000
00000000
00100000
,  // measure 30
00010000
10000000
00000000
10000000
00000000
00000000
00000000
00000000
00000000
00000000
00000000
00000000
00000000
00000000
00100000
01000000
,  // measure 31
00100000
00000000
10000000
00000000
10000000
00000000
01000000
00100000
00000000
00100000
00001000
00000000
00010000
00000000
00000100
00000000
,  // measure 32
00001000
00001000
00000010
00000010
00000001
00000010
00010000
00000000
,  // measure 33
00010100
00000000
00010000
00001000
00100000
00100000
00010000
00000000
,  // measure 34
10100000
00000000
00010000
01000000
00000100
00000100
00001000
00000000
,  // measure 35
00001010
00000000
00000000
00000000
00000011
00000000
00000000
00000001
00000010
00000000
00000100
00000000
00001001
00000000
00000000
00000000
,  // measure 36
00001000
00000000
00000010
00000100
00000000
00000000
00000001
00000000
00000100
00000000
00000010
00000000
00001001
00000000
00000000
00000000
,  // measure 37
00000001
00000000
00000010
00000100
00000000
00000000
00010000
00000000
00001000
00000000
00100000
00000000
10010000
00000000
00000000
00000000
,  // measure 38
10000000
00000000
00100000
01000000
00000000
00000000
00010000
00000000
01000000
00000000
00100000
00000000
10010000
00000000
00000000
00000000
,  // measure 39
10000000
00000000
01000000
00000000
00100000
00001000
00000000
00000000
00010000
00000000
00000100
00000000
00001000
00000001
00000000
00000000
,  // measure 40
00001000
00000000
00000100
00000010
00000000
00000000
00000001
00000000
00000010
00000000
00000100
00000000
00001001
00000000
00000000
00000000
,  // measure 41
00000001
00000000
00000100
00000010
00000000
00000000
00010000
00000000
00001000
00000000
01000000
00000000
10010000
00000000
00000000
00000000
,  // measure 42
10000000
00000000
01000000
00100000
00000000
00000000
00010000
00000000
00100000
00000000
01000000
00000000
10000000
00010000
00000000
00000000
,  // measure 43
10000000
00100000
02000000
00000000
00001000
00000000
03010000
00000000
,  // measure 44
10100000
00000000
00000000
00000000
01010000
00000000
00000000
10010000
00000000
10000000
01000000
00000000
00010000
00000000
00001000
00000000
,  // measure 45
00001010
00000000
00000000
00000000
00000110
00000000
00000000
00001001
00000000
00000001
00000100
00000000
00000010
00000000
00001000
00000000
,  // measure 46
00000001
00000000
00000010
00000000
00001000
00000000
00010000
00001000
00000000
00001000
00000010
00000000
00000001
00000000
00020000
00000000
,  // measure 47
00001000
00000000
00000000
00000000
01030000
00000000
00000000
10000000
00010000
10000000
00010000
00000000
01000000
00000000
00100000
10000000
,  // measure 48
00020000
00000000
00130000
00000000
20000000
00000000
30100000
00001000
00000000
00001000
00010000
00000000
00000100
00000000
00001000
00000000
,  // measure 49
00002002
00003003
00000000
00000000
;
