#VERSION:0.83;
#TITLE:Breakin' Out;
#SUBTITLE:;
#ARTIST:あき;
#TITLETRANSLIT:;
#SUBTITLETRANSLIT:;
#ARTISTTRANSLIT:Aki;
#GENRE:;
#ORIGIN:;
#CREDIT:;
#BANNER:Breakin' Out.png;
#BACKGROUND:Breakin' Out-bg.png;
#PREVIEWVID:;
#JACKET:Breakin' Out-jacket.png;
#CDIMAGE:;
#DISCIMAGE:;
#LYRICSPATH:;
#CDTITLE:;
#MUSIC:Breakin' Out.mp3;
#OFFSET:-0.060000;
#SAMPLESTART:59.294998;
#SAMPLELENGTH:12.000000;
#SELECTABLE:YES;
#BPMS:0.000=162.000;
#STOPS:;
#DELAYS:;
#WARPS:;
#TIMESIGNATURES:0.000=4=4;
#TICKCOUNTS:0.000=4;
#COMBOS:0.000=1;
#SPEEDS:0.000=1.000=0.000=0;
#SCROLLS:0.000=1.000;
#FAKES:;
#LABELS:0.000=Song Start;
#BGCHANGES:;
#KEYSOUNDS:;
#ATTACKS:
;

//---------------dance-single - Blank----------------
#NOTEDATA:;
#CHARTNAME:;
#STEPSTYPE:dance-single;
#DESCRIPTION:Blank;
#CHARTSTYLE:;
#DIFFICULTY:Hard;
#METER:9;
#RADARVALUES:0.662139,0.734824,0.486386,0.333794,0.476849,486.000000,435.000000,51.000000,35.000000,0.000000,0.000000,0.000000,0.000000,0.000000,0.662139,0.734824,0.486386,0.333794,0.476849,486.000000,435.000000,51.000000,35.000000,0.000000,0.000000,0.000000,0.000000,0.000000;
#CREDIT:;
#NOTES:
0000
0000
0000
0000
,
0000
0000
0000
0000
,
0000
0000
0000
0000
,
0000
0000
0000
0000
,
1000
0000
0000
0100
0000
0000
0001
0000
0000
0100
0000
0000
1000
0000
1000
0000
,
0001
0000
0000
0100
0000
0000
1000
0000
1100
0000
0000
0000
0101
0000
0000
0000
,
0001
0000
0000
0010
0000
0000
1000
0000
0000
0010
0000
0000
0001
0000
1000
0000
,
2002
0000
0000
3003
,
1100
0000
0101
0000
1000
1000
1000
0000
,
0001
0100
1000
0100
0001
1000
0001
0000
,
1000
0010
0001
0010
0200
0000
0310
0000
,
1000
0000
0100
0000
0010
0000
0001
0000
1000
0000
0000
1000
0000
0000
1000
0000
,
0011
0000
1010
0000
0001
0001
0001
0000
,
1000
0010
0001
0010
1000
0001
1000
0000
,
0001
0100
1000
0100
0020
0000
0130
0000
,
0001
0010
0000
0001
0010
0000
0100
1000
0000
0100
1000
0000
0001
0000
0000
0000
,
0101
0000
0000
0000
1100
0000
0000
0000
1000
0000
0000
1000
0010
0000
0100
0000
,
0001
0000
0000
0001
0100
0000
0010
0000
2000
0000
0000
0000
3001
0000
0000
0000
,
1010
0000
0000
0000
0011
0000
0000
0000
0001
0000
0000
0001
0100
0000
0010
0000
,
1000
0000
0000
1000
0010
0000
0100
0000
0002
0000
0000
0000
1003
0000
0001
0000
,
0011
0000
0000
0000
1100
0000
0000
0000
1000
0000
0000
1000
0010
0000
0100
0000
,
0001
0000
0000
0001
0010
0000
0100
0000
2000
0000
0000
0000
3001
0000
0000
0000
,
1100
0000
0000
0000
0011
0000
0000
0000
0001
0000
0000
0001
0100
0000
0010
0000
,
1000
0100
0100
0001
0020
0000
1030
0000
,
1100
0000
0000
0000
0011
0000
0000
0000
0001
0000
0000
0001
0100
0000
1000
0000
,
0100
0000
0000
0100
0010
0000
1000
0000
0002
0000
0000
0000
1003
0000
0000
0000
,
0011
0000
0000
0000
1100
0000
0000
0000
1000
0000
0000
1000
0010
0000
0001
0000
,
0010
0000
0000
0010
0100
0000
0001
0000
2000
0000
0000
0000
3001
0000
0100
0000
,
2010
0000
0000
0000
3001
0000
0000
0000
0012
0000
0000
1003
0001
0000
1000
0000
,
2100
0000
0000
3001
1000
0000
0001
0000
0102
0000
0000
0000
1003
0000
0000
0000
,
0001
0100
0010
0100
1000
0100
0001
2000
,
0000
0000
0100
0000
3100
0000
0000
0000
0011
0000
0000
1010
0000
0000
1001
0000
,
1000
0000
0000
0000
0102
0000
0000
0000
1003
0000
0000
1000
0000
0000
0200
0000
,
0000
0000
0010
0000
0010
0000
0310
0000
0001
0100
0001
0000
1000
0100
2000
0000
,
0000
3010
0001
1000
0100
0100
0000
0002
,
0000
0010
0013
0000
1200
0000
0310
0000
,
0001
0000
0000
0000
2010
0000
0000
0000
3001
0000
0000
0001
0000
0000
0020
0000
,
0000
0100
0100
0130
0000
1100
0000
0101
,
0001
0000
0010
0100
0010
0000
0001
0000
1000
0000
0100
0000
0001
0000
0100
0000
,
1000
0000
0000
1000
0000
0000
1000
0000
0001
0100
0010
1000
0010
0100
0001
1000
,
0001
0000
0000
0010
0000
0000
0120
0000
0000
0000
0031
0000
0100
0000
0010
0000
,
1000
0000
0000
0100
0000
0000
0120
0000
0000
0000
0130
0000
1000
0000
0001
0000
,
2000
0100
3100
0000
0002
0100
0103
0000
,
2000
0000
0001
0000
3001
0000
0000
0000
0101
0000
0000
1100
0000
0000
1001
0000
,
0001
0000
0000
0100
0000
0000
2010
0000
0000
0000
3100
0000
0010
0000
0001
0000
,
0010
0000
0000
0100
0000
0000
2000
0000
0001
0000
3000
0000
1000
0000
0010
0000
,
0100
0000
0001
0010
0001
0000
0100
0001
0100
0000
0010
0100
0010
0000
1000
0000
,
0001
0010
1000
0010
0110
0000
1001
0000
,
0001
0100
0000
0001
0100
0000
0010
0100
0000
0000
0010
0000
1000
0000
0001
0000
,
1000
0100
0000
1000
0100
0000
0010
0100
0000
0000
1000
0000
0001
0000
1000
0000
,
0020
0100
0130
0010
2000
0001
3001
1000
,
0002
0000
0010
0000
0103
0000
0000
0000
0101
0000
0000
1100
0000
0000
1001
0000
,
1000
0010
0000
0100
0010
0000
0100
0001
0000
0000
1000
0000
0001
0000
1000
0000
,
0001
0010
0000
0100
0010
0000
0001
0000
1000
0000
0000
0000
0001
0000
0100
0000
,
0001
0000
0010
0000
0100
0010
0000
0100
1000
0000
0001
1000
0000
0000
1001
0000
,
0001
0000
0100
0000
0010
0100
0000
0010
1000
0000
0001
1000
0000
0000
0001
0100
,
0001
0000
0100
0000
1000
0000
0100
0000
0101
0000
0000
1100
0000
0000
1002
0000
,
0010
0000
0000
0000
0100
0000
0103
0000
0001
0010
0100
1000
0001
0000
0100
0010
,
1000
0010
0000
0100
0000
0010
1000
0000
0001
0000
1000
0000
1001
0000
0000
0000
,
0001
0010
0000
0100
0000
0010
0001
0000
1000
0000
0001
0000
1001
0000
0000
0000
,
1000
0010
0000
0100
0000
0100
0001
0000
1000
0100
0000
0010
0000
0010
0001
0000
,
1000
0010
0000
0001
0000
0001
0010
0000
0100
0000
0001
1000
0000
0001
1000
0000
,
0001
0100
0000
0010
0000
1000
0010
0000
0100
0000
0001
0000
1001
0000
0000
0000
,
1000
0100
0000
0010
0000
0001
0010
0000
0100
0000
1000
0000
1001
0000
0000
0000
,
1000
0010
0000
0100
0000
0001
1000
0000
0001
0010
0000
0100
0000
1000
0001
0000
,
1000
0010
0000
0100
0010
0000
0001
0010
0000
0100
0010
1000
0001
0100
0000
0000
,
2020
0000
0000
0000
,
3030
0000
0000
0000
;

//---------------dance-double - ----------------
#NOTEDATA:;
#CHARTNAME:;
#STEPSTYPE:dance-double;
#DESCRIPTION:;
#CHARTSTYLE:;
#DIFFICULTY:Hard;
#METER:8;
#RADARVALUES:0.559957,0.638978,0.381479,0.162129,0.271804,411.000000,371.000000,40.000000,17.000000,0.000000,0.000000,0.000000,0.000000,0.000000,0.559957,0.638978,0.381479,0.162129,0.271804,411.000000,371.000000,40.000000,17.000000,0.000000,0.000000,0.000000,0.000000,0.000000;
#CREDIT:;
#NOTES:
00000000
00000000
00000000
00000000
,
00000000
00000000
00000000
00000000
,
00000000
00000000
00000000
00000000
,
00000000
00000000
00000000
00000000
,
00011000
00000000
00010000
00010100
00000000
00000100
00010000
00001000
,
00011000
00000000
00001000
01001000
01000000
00010000
00010000
00000000
,
10010000
00000000
00010000
01010000
00000000
01000000
00100000
10000000
,
02000000
00000000
03100000
10010000
,
10000000
01000000
00100000
00010000
00100000
01000000
10000000
00000000
,
00100000
00000000
00000000
00100000
01000000
00000000
00000000
01000000
00001000
00000000
00010000
00000000
00001000
00000000
00000000
00000000
,
00010000
00010000
00001000
00001000
00100000
00000000
00001000
00010000
,
00000000
00000000
00000100
00000000
00000000
00000010
00000000
00000000
00000001
00001000
00000000
00000001
00000000
00000000
00000000
00000000
,
00001000
00000100
00000001
00000100
00000010
00000001
00001000
00000000
,
00000010
00000000
00000000
00000010
00000100
00000000
00000000
00000100
00000010
00000000
00010000
00000000
00000010
00000000
00000000
00000000
,
00000100
00000100
00000001
00000001
00001000
00000000
00000010
00010000
,
00010010
00000000
00000000
00010000
00000000
00000000
00001000
00000000
00101000
00000000
00000000
00100000
00000000
00000000
01000000
00000000
,
10000000
00000000
11000000
00000000
20000000
00000000
30100000
01000000
,
00010000
00000000
00000000
00100000
00000000
00000000
01000000
00000000
10000000
00000000
00000000
00000000
00010000
00000000
00000000
00000000
,
01000000
00000000
01100000
00000000
02000000
00000000
03001000
00010000
,
00000010
00000000
00000000
00000100
00000000
00000000
00000001
00000000
00001000
00000000
00000000
00000000
00000010
00000000
00000100
00000000
,
00000002
00000100
00002003
00000100
,
00003020
00000000
00010030
00001000
00100000
00000000
00000000
00000000
,
01000000
11000000
01000000
01000000
,
00010000
00000100
00000010
00000001
00001000
00000100
00000010
00000000
,
00000001
00000000
00000011
00000000
00000002
00000000
00000103
00000010
,
00001000
00000000
00000000
00000010
00000000
00000000
00000001
00000000
00000010
00000000
00000000
00000000
00001000
00000000
00000000
00000000
,
00000100
00000000
00000110
00000000
00000020
00000000
00000031
00001000
,
00000010
00000000
00000000
00010000
00000000
00000000
00001000
00000000
00100000
00000000
00000000
00000000
01000000
00000000
10000000
00000000
,
00200000
10000000
02300000
00100000
,
03002000
00000000
00013000
00000100
00000010
00000000
00000001
00000000
,
00002000
00000000
00000010
00000000
00003001
00000000
00001000
00000100
,
00000000
00000010
00000001
00000100
00000010
00001000
00010000
00000000
,
10000000
00000000
00000000
00000000
00100000
00000000
00000000
00000000
00010000
00000000
00000000
00100000
00000000
00000000
10000000
00000000
,
00000000
01000000
00100000
00010000
00000000
00010000
01000000
00100000
,
10000000
01000000
00100000
00010000
00100000
00001000
00000100
00000010
,
00001000
00000100
00000100
00000000
00000110
00000000
00000000
00000000
,
00000001
00000100
00000001
00000000
00000010
00000001
00000010
00000000
,
00000100
00001000
00000010
00001000
00000000
00000110
00000000
00021000
,
00000000
00000100
00000000
00030010
00010000
00100000
10000000
01000000
,
01100000
00000000
00000000
10010000
00000000
00000000
01100000
00000000
10000000
00000000
00010000
00000000
10000000
00010000
10000000
00000000
,
10000000
01000000
00000000
00100000
00000000
00000000
00010000
00000000
00000000
00000000
00000000
00000000
01000000
00000000
00000000
00000000
,
00010000
01000000
00000000
00100000
00000000
00000000
10000000
00000000
00000000
00000000
10000000
00000000
01000000
00000000
00100000
00000000
,
00110000
00011000
00001100
00000110
,
00000010
00000000
00000001
00000000
00000010
00000000
00000100
00000000
00001000
00000001
00000000
00001000
00000000
00000000
00000001
00000000
,
00001000
00000100
00000000
00000010
00000000
00000000
00000001
00000000
00000000
00000000
00000000
00000000
00000010
00000000
00000000
00000000
,
00000001
00000010
00000000
00000100
00000000
00000000
00001000
00000000
00000000
00000000
00000010
00000000
00000100
00000000
00000001
00000000
,
00000101
00000000
00000000
00000100
00000010
00000000
00000000
00000000
00010010
00000000
00000000
00010000
00000000
00000000
00001000
00000000
,
00100000
00010000
00000000
00100000
00000000
00000000
01000000
00000000
00100000
00000000
00001000
01000000
00001000
00000000
00010000
00000000
,
00000100
00001000
00000000
00000001
00000000
00000000
00001001
00000000
00000000
00000000
00000100
00000000
00000100
00000000
00000000
00000000
,
00000001
00000010
00000000
00000001
00000000
00001000
00000010
00000000
00000100
00000000
00000001
00000000
00000100
00000000
00000010
00000000
,
00001010
00011000
00110000
11000000
,
10020000
00000000
00000000
00000000
01030000
00000000
00000000
00000000
00100000
00000000
00000000
10000000
00000000
00000000
00010000
00000000
,
00100000
00000000
00000000
00010000
00000000
00000000
10010000
00000000
00000000
00000000
01000000
00000000
01000000
00000000
00000000
00000000
,
00100000
00000000
00000000
10000000
00000000
00000000
01000000
00000000
10000000
00000000
00000000
00000000
01000000
00000000
00100000
00000000
,
00010000
00000000
00010000
00000000
01000000
00002000
00000000
00000000
00013000
00000000
00000000
00000100
00000000
00000000
00000010
00000000
,
00000001
00000000
00000001
00000000
00000100
00000010
00000000
00000000
00000100
00000000
00000000
00001000
00000000
00000000
00010000
00000000
,
00011000
00000000
00000000
00010000
00000100
00000000
00010000
00000000
00011000
00000000
00000000
00001000
00000000
00000000
01000000
00000000
,
00010000
10000000
00010000
10000000
00100000
01000000
00010000
00000000
,
10000000
00000000
00000000
10000000
00000000
00000000
10000000
00000000
00100000
00000000
00010000
00000000
00100000
00000000
01000000
00000000
,
00010000
00000000
00000000
00010000
00000000
00000000
00010000
00000000
10000000
00000000
01000000
00000000
00100000
00000000
00010000
00000000
,
01000000
00000000
00000000
01000000
00000000
00000000
01000000
00000000
00100000
00000000
00000000
00100000
00000000
00000000
00100000
00000000
,
10000000
00000000
00000000
01000000
00000000
00000000
00010000
00000000
01000000
00000000
00000000
00100000
00000000
00000000
00010000
00000000
,
10000000
00000000
00000000
10000000
00000000
00000000
10000000
00000000
01000000
00000000
00100000
00000000
00001000
00000000
00010000
00000000
,
00000010
00000000
00000000
00000010
00000000
00000000
00000010
00000000
00001000
00000000
00000100
00000000
00010000
00000000
00000100
00000000
,
00001000
00000000
00000000
00001000
00000000
00000000
00001000
00000000
00000001
00000000
00000000
00000001
00000000
00000000
00000001
00000000
,
00001000
00000000
00000000
00010010
00000000
00000000
00011000
00000000
00001000
00000000
00000000
01001000
00000000
00000000
00101000
00000000
,
00022000
00000000
00000000
00000000
,
00033000
00000000
00000000
00000000
;

//---------------dance-single - ----------------
#NOTEDATA:;
#CHARTNAME:;
#STEPSTYPE:dance-single;
#DESCRIPTION:;
#CHARTSTYLE:;
#DIFFICULTY:Easy;
#METER:4;
#RADARVALUES:0.326982,0.351438,0.104907,0.066759,0.000000,240.000000,229.000000,11.000000,7.000000,0.000000,0.000000,0.000000,0.000000,0.000000,0.326982,0.351438,0.104907,0.066759,0.000000,240.000000,229.000000,11.000000,7.000000,0.000000,0.000000,0.000000,0.000000,0.000000;
#CREDIT:;
#NOTES:
0000
0000
0000
0000
,
0000
0000
0000
0000
,
0000
0000
0000
0000
,
0000
0000
0000
0000
,
1000
0010
1000
0010
,
0100
0001
1000
1000
,
0001
0010
0001
0010
,
1100
0000
0000
0000
,
1000
0010
1000
1000
,
0001
0010
0001
0001
,
1000
0001
1000
0001
,
0100
0010
0100
0010
,
1000
0100
1000
1000
,
0001
0100
0001
0001
,
1000
0001
1000
0001
,
1000
0010
0100
1001
,
0001
0010
0100
1000
,
0100
0010
0001
0000
,
1000
0010
0100
0001
,
0100
0010
1000
0000
,
0001
0001
0010
0010
,
0100
1000
0001
0000
,
1000
1000
0010
0010
,
0100
0001
1000
0000
,
0001
0010
1000
0010
,
0100
1000
0001
0000
,
1000
0010
0001
0010
,
0100
0001
1000
0000
,
0001
0010
1000
0010
,
0001
0100
1000
0100
,
0001
0010
1000
0100
,
0001
1000
0001
0000
,
1000
0100
0001
0100
,
1000
1000
0001
0000
,
1000
0010
0001
0010
,
1000
1000
0001
0000
,
1000
0100
0001
0100
,
1000
0010
0001
0010
,
2000
3000
0002
0003
,
0010
0010
0100
0100
,
1000
1000
1000
0010
,
0100
0100
0100
0001
,
2000
3000
0002
0003
,
0010
0100
1000
1001
,
0001
0001
0001
0010
,
0100
0100
0100
1000
,
0001
0001
1000
1000
,
0010
0100
0001
1001
,
1000
1000
1000
0100
,
0001
0001
0001
0100
,
2000
3000
0002
0003
,
0100
0010
1000
1001
,
0001
0001
0001
0010
,
1000
1000
1000
0010
,
0001
0100
1010
0000
,
1000
0100
0011
0000
,
1000
0010
0001
0010
,
0100
0100
0010
0010
,
1000
0100
1000
1001
,
0001
0100
0001
1001
,
1000
1000
0010
0010
,
0100
0100
0001
0001
,
1000
0010
1000
1001
,
0001
0010
0001
1001
,
0001
0001
1000
1000
,
0001
0100
1000
0010
,
0002
0000
0000
0000
,
0003
0000
0000
0000
;

//---------------dance-single - ----------------
#NOTEDATA:;
#CHARTNAME:;
#STEPSTYPE:dance-single;
#DESCRIPTION:;
#CHARTSTYLE:;
#DIFFICULTY:Medium;
#METER:6;
#RADARVALUES:0.444151,0.511182,0.314720,0.391016,0.109675,326.000000,293.000000,33.000000,41.000000,0.000000,0.000000,0.000000,0.000000,0.000000,0.444151,0.511182,0.314720,0.391016,0.109675,326.000000,293.000000,33.000000,41.000000,0.000000,0.000000,0.000000,0.000000,0.000000;
#CREDIT:;
#NOTES:
// measure 0
0000
0000
0000
0000
,  // measure 1
0000
0000
0000
0000
,  // measure 2
0000
0000
0000
0000
,  // measure 3
0000
0000
0000
0000
,  // measure 4
1000
0000
0010
0000
0100
0000
0001
1000
,  // measure 5
0001
0010
0200
1300
,  // measure 6
0001
0000
0100
0000
0010
0000
1000
0100
,  // measure 7
0020
0000
0001
1030
,  // measure 8
1010
0000
0011
0000
0001
1000
0001
0000
,  // measure 9
0100
0000
0010
0000
1000
0001
1000
0000
,  // measure 10
0002
0010
0103
0001
,  // measure 11
1000
0010
0100
0001
2000
0000
3001
0000
,  // measure 12
0101
0000
1100
0000
1000
0001
1000
0000
,  // measure 13
0010
0000
0100
0000
0001
1000
0001
0000
,  // measure 14
2000
0100
3010
1000
,  // measure 15
0001
0000
0000
0001
0000
0000
1000
0000
0000
1000
0000
0000
0010
0000
0000
0000
,  // measure 16
1000
0000
0100
0000
0010
0000
0001
0010
,  // measure 17
0001
0010
0200
1300
,  // measure 18
0001
0000
0100
0000
0010
0000
1000
0010
,  // measure 19
1000
0010
0200
0301
,  // measure 20
1000
0000
0100
0000
0001
0000
0100
0010
,  // measure 21
0100
0010
0002
1003
,  // measure 22
0001
0000
0100
0000
1000
0000
0100
0010
,  // measure 23
0100
0010
2000
3001
,  // measure 24
1000
0000
0100
0000
0001
0000
1000
0010
,  // measure 25
0001
0100
0020
1030
,  // measure 26
0001
0000
0010
0000
1000
0000
0001
0100
,  // measure 27
1000
0010
0200
0310
,  // measure 28
2010
3001
0012
1003
,  // measure 29
2100
3001
0102
1003
,  // measure 30
1010
0000
0101
0000
0011
0000
0001
0010
,  // measure 31
0000
0100
1000
0000
0002
0000
1003
0000
,  // measure 32
0010
0102
0100
1003
,  // measure 33
0001
0010
0100
0010
0002
0000
1003
0000
,  // measure 34
0010
0100
0010
0000
1000
0001
1000
0000
,  // measure 35
0100
0010
0100
0000
1000
0001
1000
0000
,  // measure 36
0010
0102
0010
1003
,  // measure 37
0001
0010
0100
0000
1000
0000
0001
0000
,  // measure 38
0200
0310
2000
3001
,  // measure 39
2002
0000
0000
3003
,  // measure 40
1000
0000
0000
1000
0000
0000
1000
0000
0000
0000
0010
0000
0010
0000
0000
0000
,  // measure 41
0100
0000
0000
0100
0000
0000
0100
0000
0000
0000
0001
0000
0001
0000
0000
0000
,  // measure 42
2000
3100
0002
0103
,  // measure 43
1000
0010
0100
0000
1001
0000
1001
0000
,  // measure 44
0001
0000
0000
0001
0000
0000
0001
0000
0000
0000
0010
0000
0010
0000
0000
0000
,  // measure 45
0100
0000
0000
0100
0000
0000
0100
0000
2000
0000
0000
0000
3001
0000
0000
0000
,  // measure 46
2010
3001
0012
1003
,  // measure 47
0001
0010
0100
0000
1100
0000
0101
0000
,  // measure 48
0001
0000
0000
0001
0000
0000
0001
0000
0000
0000
0100
0000
0100
0000
0000
0000
,  // measure 49
0010
0000
0000
0010
0000
0000
0010
0000
0000
0000
1000
0000
1000
0000
0000
0000
,  // measure 50
0002
0013
2000
3010
,  // measure 51
0001
0100
0010
0000
1001
0000
1001
0000
,  // measure 52
1000
0000
0000
1000
0000
0000
1000
0000
0000
0000
0100
0000
0100
0000
0000
0000
,  // measure 53
0010
0000
0000
0010
0000
0000
0010
0000
0002
0000
0000
0000
1003
0000
0000
0000
,  // measure 54
0102
1003
2100
3001
,  // measure 55
0012
1003
2010
3001
,  // measure 56
1010
1010
0101
0101
,  // measure 57
2002
3003
0220
0330
,  // measure 58
1000
0000
0000
1000
0000
0000
1000
0000
0010
0000
0100
0000
0001
0000
0000
0000
,  // measure 59
1000
0000
0000
1000
0000
0000
1000
0000
0100
0000
0010
0000
0001
0000
0000
0000
,  // measure 60
1000
0000
0000
1000
0000
0000
1000
0000
0100
0000
0000
0100
0000
0000
0100
0000
,  // measure 61
0001
0000
0000
0001
0000
0000
0001
0000
0010
0000
0000
0010
0000
0000
0010
0000
,  // measure 62
1000
0000
0000
0010
0000
0000
0100
0000
0001
0000
0100
0000
0010
0000
0000
0000
,  // measure 63
1000
0000
0000
0100
0000
0000
0010
0000
0001
0000
0010
0000
0100
0000
0000
0000
,  // measure 64
1000
0000
0000
1000
0000
0000
1000
0000
0001
0000
0000
0001
0000
0000
0001
0000
,  // measure 65
0100
0000
0000
0100
0000
0000
0010
0000
0000
0010
0000
0000
1000
0001
0000
0000
,  // measure 66
2002
0000
0000
0000
,  // measure 67
3003
0000
0000
0000
;
