#TITLE:Brand New World;
#SUBTITLE:;
#ARTIST:VENUS;
#TITLETRANSLIT:;
#SUBTITLETRANSLIT:;
#ARTISTTRANSLIT:;
#GENRE:;
#CREDIT:;
#BANNER:Brand New World.png;
#BACKGROUND:Brand New World-bg.png;
#LYRICSPATH:;
#CDTITLE:;
#MUSIC:Brand New World.mp3;
#OFFSET:-1.033000;
#SAMPLESTART:40.740002;
#SAMPLELENGTH:17.379999;
#SELECTABLE:YES;
#BPMS:0.000000=157.000000
;
#STOPS:
;
#BGCHANGES:;
#KEYSOUNDS:;
#ATTACKS:;

//---------------dance-single - ----------------
#NOTES:
     dance-single:
     :
     Hard:
     8:
     0.567686,0.665633,0.698783,0.294667,0.273620,472.000000,389.000000,83.000000,35.000000,0.000000,0.000000,0.567686,0.665633,0.698783,0.294667,0.273620,472.000000,389.000000,83.000000,35.000000,0.000000,0.000000:
0000
0000
0000
0000
,
0000
0000
0000
0000
,
0000
0000
0000
0000
,
0000
0000
0000
0000
,
1000
0100
0000
0000
1100
0000
0000
0000
0001
0100
0000
0000
0101
0000
0000
0000
,
1000
0010
0000
0000
1010
0000
0000
0000
0001
0000
0010
0000
0100
0000
1000
0000
,
0001
0100
0000
0000
1010
0000
0000
0000
1000
0100
0000
0000
0011
0000
0000
0000
,
0000
0110
0000
0110
0000
0000
0000
1001
0000
1001
0000
0000
0000
0100
0010
0000
,
1000
0000
0100
0000
0010
0000
0001
0000
0010
0000
0000
0100
0000
0000
1000
0000
,
0002
0000
0103
0100
2000
0000
3100
0000
,
1001
0000
0000
0000
0001
0000
0010
0000
1000
0000
0000
0010
0000
0000
0002
0000
,
0000
1000
1003
0000
1010
0000
0011
0000
,
0001
0100
0010
1000
0010
0100
0001
1000
,
0001
0000
0000
0010
0000
0000
1000
0000
0020
0000
0000
0000
0031
0000
0000
0000
,
1100
0000
0000
0000
0101
0000
0000
0000
1000
0000
0000
0010
0000
0000
0200
0000
,
0000
0010
0310
0000
1100
0000
0101
0000
,
1000
0000
0000
0100
0000
0000
0020
0000
0000
0000
0031
0000
1000
0000
0100
0000
,
1000
0000
0000
0010
0000
0000
0100
0000
0002
0000
0000
0000
1003
0000
0000
0000
,
0001
0000
0000
0010
0000
0000
0200
0000
0000
0000
1300
0000
0001
0000
0100
0000
,
0001
0000
0000
0010
0000
0000
0100
0000
2000
0000
0000
0000
3001
0000
0000
0000
,
1000
0000
0000
0010
0000
0000
0002
0000
0000
0000
0013
0000
1000
0000
0001
0000
,
0100
0000
0000
0010
0000
0000
1000
0000
0002
0000
0000
0000
1003
0000
0001
0000
,
1000
1100
0000
0000
0001
0101
0000
1001
,
0000
0000
0001
0000
1000
0000
0100
0000
0110
0000
0000
1001
0000
0000
0000
0000
,
1000
0000
1000
0000
0001
0000
0001
0000
0101
0000
0000
1100
0000
0000
0000
0000
,
1000
0000
1000
0000
0001
0000
0001
0000
0011
0000
0000
1010
0000
0000
0000
0000
,
1002
0000
0103
2000
0000
3100
0000
0101
,
0000
1100
0000
2001
0000
0100
3100
0000
,
2000
0000
3010
0002
0000
0013
0000
1010
,
0000
1000
0100
0010
0002
0000
1003
0000
,
2001
0000
3100
0002
0000
0103
0000
1100
,
0000
0101
0000
1002
0000
0100
0103
0000
,
1100
0000
0000
0011
0000
0000
1001
0000
0000
0000
0001
0000
0100
0000
0010
0000
,
1000
0000
0100
0000
0001
0100
0000
0000
1100
0000
0000
0101
0000
0000
1001
0000
,
0001
0100
0010
1000
0010
0100
0001
1000
,
0001
0010
0100
1000
0100
0010
0010
0000
,
0001
0100
0010
1000
0010
0100
0001
1000
,
0001
0010
0100
1000
0002
0000
1003
0000
,
0001
0100
1000
0100
0010
1000
0001
0100
,
0001
0010
1000
0010
0100
1000
1000
0000
,
0101
0000
0000
1100
0000
0000
1001
0000
0000
0000
1000
0000
0010
0000
0110
0000
,
0000
0000
0101
0000
0000
0101
0000
0000
1100
0000
0000
1100
0000
0000
0110
0000
,
1002
0000
0000
0000
0103
0000
0010
0000
1000
0000
0000
0100
0000
0000
0010
0000
,
0001
0000
0000
0100
0000
0000
0020
0000
0000
0000
1000
0000
1030
0000
0000
0000
,
0102
0000
0000
0000
1003
0000
0001
0010
0100
0000
0000
0000
1000
0000
0000
0000
,
1010
0000
0000
0110
0000
0000
0102
0000
0000
0000
0000
0000
1003
0000
0000
0000
,
2100
0000
0000
0000
3001
0000
1000
0010
0100
0000
0000
0001
0000
0000
1000
0000
,
0100
0000
0000
0010
0000
0000
0001
0000
1000
0000
0000
0000
0001
0100
0010
1000
,
0001
0000
0000
0000
0000
0000
1000
0100
1000
0000
0000
0000
0010
0000
0000
0000
,
1010
0000
0000
0110
0000
0000
1001
0000
0000
0000
0000
0000
0110
0000
0000
0000
,
1001
0000
0000
0000
,
0000
0000
0000
0000
,
0000
0000
0000
0000
,
0000
0000
1000
0001
0000
1000
0001
0000
0100
0010
0100
0010
0100
0000
0001
1000
,
0001
0100
1000
0100
0010
1000
0100
0001
,
0200
0000
0310
0001
1000
1000
0001
0001
,
1000
0010
0001
0010
0100
1000
0100
0002
,
0000
0023
0000
0230
0000
1000
1300
0000
,
0001
0100
1000
0100
0010
0001
0010
1000
,
0200
0320
0032
2003
,
3001
0100
0001
0000
0100
0000
1000
0000
0100
0000
0010
0000
1000
0000
1100
0000
,
0000
0000
0011
0000
0000
0000
0101
0000
0000
1000
0010
0000
0100
0000
0001
0000
,
2000
0000
0000
0000
,
3000
0000
1100
0000
0000
0110
0000
0000
0011
0000
0000
0101
0000
0000
0110
0000
,
1000
0010
0000
0000
1010
0000
0000
0000
0001
0010
0000
0000
0011
0000
0000
0000
,
1000
0100
0000
0000
1100
0000
0000
0000
0001
0000
0100
0000
0010
0000
1000
0000
,
0001
0100
0000
0000
0101
0000
0000
0000
1000
0100
0000
0000
1100
0000
0000
0000
,
0001
0010
0000
0000
0011
0000
0000
0000
1000
0000
0010
0000
0100
0000
0001
0000
,
1000
0100
0000
0000
0011
0000
0000
0000
0001
0100
0000
0000
1010
0000
0000
0000
,
0010
0100
0000
0000
1001
0000
0000
0000
1000
0000
0100
0000
0001
0000
0100
0000
,
1000
0010
0000
0000
0101
0000
0000
0000
0001
0010
0000
0000
1100
0000
0000
0000
,
0000
0110
0000
0110
0000
0000
0000
1001
0000
1001
0000
0000
0000
0010
0100
0000
;

//---------------dance-single - Blank----------------
#NOTES:
     dance-single:
     :
     Medium:
     6:
     0.441400,0.484938,0.362020,0.286248,0.021048,367.000000,324.000000,43.000000,34.000000,0.000000,0.000000,0.441400,0.484938,0.362020,0.286248,0.021048,367.000000,324.000000,43.000000,34.000000,0.000000,0.000000:
0000
0000
0000
0000
,
0000
0000
0000
0000
,
0000
0000
0000
0000
,
0000
0000
0000
0000
,
2100
3001
0102
1003
,
2001
0000
3100
0000
1000
0010
0100
0000
,
0012
1003
2010
3001
,
1001
0000
0110
0000
0001
0010
0100
1000
,
0001
0000
0100
0000
0010
0000
1000
0001
,
1000
0000
0010
0100
0020
0000
1030
0000
,
0001
0000
0010
0100
1000
0000
0001
0000
,
0010
0010
0010
0000
1100
0000
0101
0000
,
1000
0000
0010
0000
0100
0000
0001
1000
,
0001
0000
0100
0010
0200
0000
0301
0000
,
1000
0000
0100
0000
0010
0001
1000
0000
,
0100
0100
0100
0000
0011
0000
1010
0000
,
0001
0000
0010
0000
0100
0000
1000
0100
,
0001
0000
0001
0100
2000
0000
3001
0000
,
1000
0000
0010
0000
0100
0000
0001
0010
,
1000
0000
1000
0010
0002
0000
1003
0000
,
0001
0000
0100
0000
0010
0000
1000
0100
,
0001
0000
1000
0010
0002
0000
1003
0000
,
0001
0100
0010
0000
1000
0010
0100
0000
,
0001
0000
0010
0000
0100
0000
1000
0000
0001
0000
0000
1001
0000
0000
0000
0000
,
1000
0010
0202
0303
,
0001
0000
0010
0000
0100
1000
1001
0000
,
2000
3010
0002
0013
,
0200
0000
0310
0000
1000
0001
1000
0000
,
0002
0013
2000
3010
,
0001
1000
0001
1000
0020
0000
0130
0000
,
0002
0103
2000
3100
,
0002
0000
1003
0000
0010
0100
0010
0000
,
2000
3100
0002
0103
,
1000
0010
0100
0001
1000
0000
1001
0000
,
0001
0100
0001
0000
0100
1000
0100
0000
,
1000
0010
1000
0000
0010
0000
0011
0000
,
1000
0100
1000
0000
0100
0001
0100
0000
,
0001
0010
0001
0000
0010
0000
1010
0000
,
1000
0100
0010
0000
0010
1000
0001
0000
,
0001
0100
1000
0000
0001
0000
1001
0000
,
1000
0010
0001
0000
0010
0001
1000
0000
,
0100
0001
0010
0100
1000
0010
0100
0001
,
1000
0001
0101
1100
,
0001
0000
1000
0000
0010
0100
0010
0000
,
1000
0001
0011
1010
,
0001
0000
0000
0001
0000
0000
0001
0000
0000
0000
0000
0000
1100
0000
0000
0000
,
0001
1000
1010
0011
,
1000
0000
0001
0000
0100
0010
0100
0000
,
0001
1000
1100
0101
,
1000
0000
0000
1000
0000
0000
1000
0000
0000
0000
0000
0000
0011
0000
0000
0000
,
1001
0000
0000
0000
,
0000
0000
0000
0000
,
0000
0000
0000
0000
,
0000
0000
0000
0000
,
1000
0100
1000
0000
0100
0001
0100
0000
,
0001
0010
0001
0000
0010
1000
0010
0000
,
1000
0010
1000
0000
0010
0001
0010
0000
,
0001
0100
0001
0000
0100
1000
0100
0000
,
1000
0010
0001
0000
0010
0001
0100
0000
,
0001
0100
1000
0000
0100
1000
0010
0000
,
1000
0010
0001
0000
1000
0100
0001
0000
,
1000
0100
0010
0001
1000
0010
0100
0001
,
0000
0000
0000
0000
,
0000
0000
1000
0000
0000
0100
0000
0000
0010
0000
0000
0001
0000
0000
1000
0000
,
2100
3001
0102
1003
,
2001
0000
3100
0000
1000
0010
0100
0000
,
0012
1003
2010
3001
,
1002
0000
0103
0000
0001
0010
0100
1000
,
2010
3100
0012
0103
,
2001
0000
3100
0000
1000
0010
0100
0001
,
0102
0013
2100
3010
,
1001
0000
0110
0000
1000
0100
0010
0001
,
1001
0000
0000
0000
;

//---------------dance-single - ----------------
#NOTES:
     dance-single:
     :
     Easy:
     4:
     0.292262,0.333395,0.092610,0.050514,0.000000,243.000000,232.000000,11.000000,6.000000,0.000000,0.000000,0.292262,0.333395,0.092610,0.050514,0.000000,243.000000,232.000000,11.000000,6.000000,0.000000,0.000000:
0000
0000
0000
0000
,
0000
0000
0000
0000
,
0000
0000
0000
0000
,
0000
0000
0000
0000
,
1000
1000
0010
0010
,
0100
0100
0001
1000
,
0001
0001
0010
0010
,
0100
0100
1000
0001
,
1000
0010
0100
0001
,
0100
0010
1000
0000
,
0001
0010
1000
0010
,
0002
0003
1001
1001
,
1000
0100
0010
0001
,
0010
0100
1000
0000
,
0001
0100
1000
0100
,
0002
0003
1001
1001
,
0001
0010
1000
0010
,
0100
1000
0001
0000
,
1000
0010
0001
0010
,
0100
0001
1000
0000
,
0001
0100
1000
0100
,
0010
1000
0001
0000
,
1000
0100
0001
0100
,
1000
0001
1000
1000
,
0001
0100
0202
0303
,
1000
0100
2200
3300
,
1000
0010
0100
0001
,
0100
0010
1000
1000
,
0001
0010
0100
1000
,
0100
0010
1001
0000
,
0001
0100
0010
1000
,
0010
0100
0001
0001
,
1000
0100
0010
0001
,
0010
0100
1001
0000
,
0001
0100
1000
0100
,
0010
1000
0001
0001
,
1000
0100
0001
0100
,
0010
0001
1001
0000
,
0001
0010
1000
0010
,
0100
1000
0001
0001
,
1000
0010
0001
0010
,
1000
0100
0001
0100
,
1000
0000
0010
0100
,
0001
0001
1000
1000
,
0001
0000
0010
0100
,
1000
1000
1000
0000
,
0001
0000
1000
0010
,
0100
0100
0001
0001
,
1000
0000
0001
0010
,
0100
0100
1000
0000
,
1001
0000
0000
0000
,
0000
0000
0000
0000
,
0000
0000
0000
0000
,
0000
0000
0000
0000
,
1000
0010
1000
0010
,
0100
0001
0100
0001
,
1000
0100
1000
0100
,
0010
0001
0010
0001
,
1000
0010
0001
0010
,
1000
0100
0001
0100
,
1000
0010
0001
0100
,
0001
0010
1000
0001
,
0000
0000
0000
0000
,
0000
0000
0000
0000
,
1000
1000
0010
0010
,
0100
0100
0001
1000
,
0001
0001
0010
0010
,
0100
0100
1000
0001
,
1000
1000
0010
0010
,
0001
0001
1000
0100
,
0001
0001
0010
0010
,
1000
1000
0001
0100
,
1001
0000
0000
0000
;

//---------------dance-double - ----------------
#NOTES:
     dance-double:
     :
     Hard:
     8:
     0.562875,0.605120,0.606173,0.277829,0.252572,468.000000,396.000000,72.000000,33.000000,0.000000,0.000000,0.562875,0.605120,0.606173,0.277829,0.252572,468.000000,396.000000,72.000000,33.000000,0.000000,0.000000:
// measure 0
00000000
00000000
00000000
00000000
,  // measure 1
00000000
00000000
00000000
00000000
,  // measure 2
00000000
00000000
00000000
00000000
,  // measure 3
00000000
00000000
00000000
00000000
,  // measure 4
10000000
00100000
00000000
00000000
10100000
00000000
00000000
00000000
01000000
00010000
00000000
00000000
01010000
00000000
00000000
00000000
,  // measure 5
00100000
00001000
00000000
00000000
00101000
00000000
00000000
00000000
00010000
00000000
00000100
00000000
00001000
00000000
00000010
00000000
,  // measure 6
00000100
00000001
00000000
00000000
00000101
00000000
00000000
00000000
00001000
00000010
00000000
00000000
00001010
00000000
00000000
00000000
,  // measure 7
00000000
00010100
00000000
00010100
00000000
00000000
00000000
00101000
00000000
00101000
00000000
00000000
00000000
00010000
10000000
00000000
,  // measure 8
00010000
00000000
01000000
00000000
10000000
00000000
01000000
00000000
00100000
00000000
00000000
00100000
00000000
00000000
10000000
00000000
,  // measure 9
00020000
00000000
00130000
00100000
00002000
00000000
00013000
00000000
,  // measure 10
00010100
00000000
00000000
00000000
00000100
00000000
00000010
00000000
00000001
00000000
00000000
00000001
00000000
00000000
00002000
00000000
,  // measure 11
00000000
00000010
00003010
00000000
00010010
00000000
01001000
00000000
,  // measure 12
00010000
00100000
10000000
00100000
00010000
01000000
10000000
01000000
,  // measure 13
00001000
00000000
00000000
00010000
00000000
00000000
00000100
00000000
00002000
00000000
00000000
00000000
00003001
00000000
00000000
00000000
,  // measure 14
00000101
00000000
00000000
00000000
00001100
00000000
00000000
00000000
00000010
00000000
00000000
00010000
00000000
00000000
00000200
00000000
,  // measure 15
00000000
00001000
00001300
00000000
00000011
00000000
00010100
00000000
,  // measure 16
00001000
00000000
00000000
00000010
00000000
00000000
00000002
00000000
00000000
00000000
00000103
00000000
00001000
00000000
00000100
00000000
,  // measure 17
00000010
00000000
00000000
00010000
00000000
00000000
00001000
00000000
00200000
00000000
00000000
00000000
00310000
00000000
00000000
00000000
,  // measure 18
10000000
00000000
00000000
01000000
00000000
00000000
00020000
00000000
00000000
00000000
00031000
00000000
00000010
00000000
00000100
00000000
,  // measure 19
00001000
00000010
00010000
00001000
00100000
00000000
10010000
00000000
,  // measure 20
10000000
00000000
00000000
01000000
00000000
00000000
00020000
00000000
00000000
00000000
00031000
00000000
00010000
00000000
01000000
00000000
,  // measure 21
10000000
00000000
00000000
00100000
00000000
00000000
00010000
00000000
00002000
00000000
00000000
00000000
00003100
00000000
00000010
00000000
,  // measure 22
00001010
00001010
00000000
00000000
00000101
00000101
00000000
00001002
,  // measure 23
00000000
00000000
00000013
00000000
00000100
00000000
00001000
00000000
00001010
00000000
00000000
00010010
00000000
00000000
00000000
00000000
,  // measure 24
00001000
00000000
00001000
00000000
00100000
00000000
00100000
00000000
01001000
00000000
00000000
01001000
00000000
00000000
00000000
00000000
,  // measure 25
01000000
00000000
01000000
00000000
00100000
00000000
00100000
00000000
10000000
00100000
01000000
00010000
10000000
00000000
00000000
00000000
,  // measure 26
00020000
00000000
00100000
00100000
00000000
01030000
00000000
01010000
,  // measure 27
00000000
01100000
00000000
20100000
00000000
00010000
30010000
00000000
,  // measure 28
00200000
00000000
01000000
01300000
00000000
01100000
00000000
00101000
,  // measure 29
00000000
00001000
00010000
00000010
00000200
00000000
00000310
00000000
,  // measure 30
00002000
00000000
00000100
00000100
00000000
00003010
00000000
00001010
,  // measure 31
00000000
00000110
00000000
00000102
00000000
00001000
00001003
00000000
,  // measure 32
00000101
00000000
00000000
00001100
00000000
00000000
00011000
00000000
00000000
00000000
00010000
00000000
00100000
00000000
10000000
00000000
,  // measure 33
00000000
10000000
01000000
00010000
02000000
00000000
03100000
00000000
,  // measure 34
00010000
01000000
10000000
01000000
00100000
10000000
00001000
00010000
,  // measure 35
00000100
00001000
00000010
00000001
00000020
00000100
00000130
00000010
,  // measure 36
00001000
00000010
00000001
00000010
00000100
00000001
00010000
00001000
,  // measure 37
00100000
00010000
01000000
10000000
02000000
00000000
03100000
00000000
,  // measure 38
10000000
01000000
00010000
00001000
00000100
00000001
00001000
00001000
,  // measure 39
00000001
00000010
00001000
00010000
00100000
10000000
10000000
00000000
,  // measure 40
00010000
00100000
10000000
00100000
00001000
00010000
00000010
00001000
,  // measure 41
00000001
00000010
00000100
00002000
00000000
00000001
00000001
00003001
,  // measure 42
00000102
00000000
00000000
00000000
00001003
00000000
00000010
00000000
00000100
00000000
00000000
00000100
00000000
00000000
00001000
00000000
,  // measure 43
00010000
00000000
00000000
00010000
00000000
00000000
00000020
00000000
00000000
00000000
00000100
00000000
00000130
00000000
00000000
00000000
,  // measure 44
00000012
00000000
00000000
00000000
00001003
00000000
00000001
00000010
00000100
00000000
00000000
00000000
00001000
00000000
00000000
00000000
,  // measure 45
00001010
00000000
00000000
00010100
00000000
00000000
00201000
00000000
00000000
00000000
00000000
00000000
00310000
00000000
00000000
00000000
,  // measure 46
20100000
00000000
00000000
00000000
30010000
00000000
10000000
01000000
00100000
00000000
00000000
00010000
00000000
00000000
01000000
00000000
,  // measure 47
00001000
00000000
00000000
00001000
00000000
00000000
00100000
00000000
01000000
00000000
00000000
00000000
10000000
00100000
01000000
00010000
,  // measure 48
20000000
00000000
00000000
00000000
30010000
00000000
10000000
01000000
00100000
00000000
00000000
00000000
00010000
00000000
00000000
00000000
,  // measure 49
01010000
00000000
00000000
00101000
00000000
00000000
00010200
00000000
00000000
00000000
00000000
00000000
00000310
00000000
00000000
00000000
,  // measure 50
00001001
00000000
00000000
00000000
,  // measure 51
00000000
00000000
00000000
00000000
,  // measure 52
00000000
00000000
00000000
00000000
,  // measure 53
00000000
00000000
00000001
00000010
00000000
00000100
00001000
00000000
00000001
00000100
00000010
00001000
00000001
00000000
00001000
00000001
,  // measure 54
00001000
00000010
00010000
00000100
00001000
00000010
00000001
00000010
,  // measure 55
00002000
00000000
00003100
00010000
00001000
00001000
00100000
00100000
,  // measure 56
00010000
01000000
00001000
00100000
00010000
01000000
10000000
02000000
,  // measure 57
00000000
03020000
00000000
00230000
00000000
00001000
00301000
00000000
,  // measure 58
00010000
00000010
00001000
00000100
00010000
00000010
00000001
00000010
,  // measure 59
00002000
00003001
00000101
00001100
,  // measure 60
00000001
00000010
00000001
00000000
00000010
00000000
00001000
00000000
00010000
00000000
01000000
00000000
10000000
00000000
10100000
00000000
,  // measure 61
00000000
00000000
01010000
00000000
00000000
00000000
10010000
00000000
00000000
10000000
01000000
00000000
00100000
00000000
00010000
00000000
,  // measure 62
00000000
00000000
00000000
00000000
,  // measure 63
00000000
00000000
10100000
00000000
00000000
01010000
00000000
00000000
00110000
00000000
00000000
00011000
00000000
00000000
00010100
00000000
,  // measure 64
00001000
00000010
00000000
00000000
00001010
00000000
00000000
00000000
00000100
00000001
00000000
00000000
00000101
00000000
00000000
00000000
,  // measure 65
00010000
00000100
00000000
00000000
00010100
00000000
00000000
00000000
00001000
00000000
00100000
00000000
00010000
00000000
10000000
00000000
,  // measure 66
00010000
01000000
00000000
00000000
01010000
00000000
00000000
00000000
00100000
10000000
00000000
00000000
10100000
00000000
00000000
00000000
,  // measure 67
01000000
00010000
00000000
00000000
01010000
00000000
00000000
00000000
00001000
00000000
00000010
00000000
00000001
00000000
00001000
00000000
,  // measure 68
00000001
00000100
00000000
00000000
00001010
00000000
00000000
00000000
00001000
00000100
00000000
00000000
00000011
00000000
00000000
00000000
,  // measure 69
00000001
00001000
00000000
00000000
00000110
00000000
00000000
00000000
00000001
00000000
00000100
00000000
00001000
00000000
00010000
00000000
,  // measure 70
01000000
10000000
00000000
00000000
10100000
00000000
00000000
00000000
01000000
00010000
00000000
00000000
00110000
00000000
00000000
00000000
,  // measure 71
00000000
10100000
00000000
01010000
00000000
00000000
00000000
00101000
00000000
00010100
00000000
00000000
00000000
00001000
00000010
00000000
;
