#TITLE:アンパンマンのマーチ;
#SUBTITLE:;
#ARTIST:ドリーミング;
#TITLETRANSLIT:Anpanman no march;
#SUBTITLETRANSLIT:;
#ARTISTTRANSLIT:Dreaming;
#GENRE:;
#CREDIT:;
#BANNER:Anpanman no march.png;
#BACKGROUND:Anpanman no march-bg.png;
#LYRICSPATH:;
#CDTITLE:;
#MUSIC:Anpanman no march.mp3;
#OFFSET:-0.113;
#SAMPLESTART:42.675;
#SAMPLELENGTH:17.020;
#SELECTABLE:YES;
#BPMS:0.000=95.820
;
#STOPS:
;
#BGCHANGES:;
#KEYSOUNDS:;
#ATTACKS:;

//---------------dance-single - Blank----------------
#NOTES:
     dance-single:
     :
     Hard:
     5:
     0.404,0.315,0.135,0.108,0.005,287.000,15.000,12.000,0.000,0.000,0.000,0.404,0.315,0.135,0.108,0.005,287.000,15.000,12.000,0.000,0.000,0.000:
0000
0000
0000
0000
,
1000
1000
0100
0000
1000
0010
0100
0001
,
2000
0000
3001
0010
0100
0100
0100
0000
,
0010
0010
0001
0000
1000
0010
0100
0001
,
0020
0000
0130
1000
0001
0001
1000
0000
,
0001
0001
0100
0100
0010
1000
0001
0000
,
1000
0100
1000
1000
0001
0100
0001
0001
,
1000
1000
0010
0010
0100
0001
1000
0000
,
0001
0010
0100
1000
0100
0010
0001
1000
,
0001
0100
0010
0100
0001
1000
0001
0000
,
1000
0100
0010
0100
1000
0001
1000
0000
,
0001
0010
0100
0010
0001
1000
0001
0000
,
1000
0010
0100
0010
1000
0001
1000
0000
,
0001
0001
1000
1000
0010
0100
0010
0000
,
1000
1000
0001
0001
0010
0100
0010
0000
,
0001
0001
1000
1000
0001
0100
0010
1000
,
0010
0100
0001
1000
0001
0001
1000
1000
,
0001
0001
0010
0000
0001
0100
0010
1000
,
0002
0000
1003
0100
0010
0010
0010
0000
,
0100
0100
1000
0000
0001
0100
0010
1000
,
0200
0000
0310
0001
1000
1000
0001
0000
,
0101
0000
1100
0000
0001
0010
0100
1000
,
0020
0000
0130
0001
1000
1000
1000
0000
,
0011
0000
1010
0000
0001
0010
0100
1000
,
0020
0000
0130
0001
1000
0001
1001
0000
,
1000
0100
0010
0001
0010
0100
1000
1000
,
0001
0100
1000
0100
0010
1000
0001
0000
,
1000
0010
0100
0001
0100
0010
1000
0001
,
1000
0010
0001
0010
1000
0001
1000
0000
,
0001
0001
1000
1000
0010
0100
0010
0000
,
1000
1000
0001
0001
0010
0100
0010
0000
,
0001
0001
1000
1000
0001
0100
0010
1000
,
0010
0100
0001
1000
0001
0001
1000
1000
,
0001
0001
0010
0000
0001
0100
0010
1000
,
0002
0000
1003
0100
0010
0010
0010
0000
,
0100
0100
1000
0000
0001
0100
0010
1000
,
0200
0000
0310
0001
1000
1000
0001
0000
,
0101
0000
1100
0000
0001
0010
0100
1000
,
0020
0000
0130
0001
1000
1000
1000
0000
,
0011
0000
1010
0000
0001
0010
0100
1000
,
0020
0000
0130
0001
1000
0001
1001
0000
,
1000
1000
0100
0100
0010
0010
0001
1000
,
0000
1100
0000
0101
0000
2002
0000
0000
,
0000
0000
0000
0000
0000
0000
3003
0000
0110
0000
0000
0110
0000
0000
0000
0000
;

//---------------dance-single - Blank----------------
#NOTES:
     dance-single:
     :
     Medium:
     4:
     0.260,0.217,0.063,0.027,0.005,192.000,7.000,3.000,0.000,0.000,0.000,0.260,0.217,0.063,0.027,0.005,192.000,7.000,3.000,0.000,0.000,0.000:
0000
0000
0000
0000
,
1000
0010
0100
0001
,
0100
0000
0010
0000
1000
0001
1000
0000
,
0001
0010
0100
1000
,
0100
0000
0010
0000
0001
1000
0001
0000
,
1000
0000
0010
0000
0100
0100
0100
0000
,
0001
1000
0001
1000
,
0001
0000
0010
0000
0100
0100
0100
0000
,
1000
0001
1000
0001
,
1000
0010
0001
0001
,
1000
0100
0001
0001
,
1000
0100
0001
0001
,
1000
0010
0001
0001
,
1000
0000
0010
0000
0100
0100
0100
0000
,
0001
0000
0010
0000
0100
0100
0100
0000
,
1000
0010
0100
0001
,
1000
0001
1000
0000
0020
0000
0130
0000
,
0001
0001
0001
0000
0010
0000
0100
0000
,
1000
0000
0001
0000
0100
0100
0100
0000
,
0010
0010
0010
0000
1000
0000
0100
0000
,
0010
0001
0101
1100
,
1000
0000
0001
0000
0100
0100
0100
0000
,
0001
0010
0100
1000
,
0001
0000
1000
0000
0010
0010
0010
0000
,
1000
0100
0010
1001
,
0001
0000
0100
0000
1000
1000
1000
0000
,
0100
0001
0010
0100
,
1000
0000
0010
0000
0001
0001
0001
0000
,
0010
1000
0100
1001
,
0001
0000
0100
0000
0010
0010
0010
0000
,
1000
0000
0100
0000
0010
0010
0010
0000
,
0001
0100
0010
1000
,
0001
1000
0001
0000
0200
0000
0310
0000
,
1000
1000
1000
0000
0100
0000
0010
0000
,
0001
0000
1000
0000
0010
0010
0010
0000
,
0100
0100
0100
0000
0001
0000
0010
0000
,
0100
1000
1010
0011
,
0001
0000
1000
0000
0010
0010
0010
0000
,
1000
0100
0010
0001
,
1000
0000
0001
0000
0100
0100
0100
0000
,
0001
0010
0100
1001
,
0001
0001
0100
0000
1000
1000
0100
0000
,
0001
2000
0000
0000
0000
0000
0000
0000
,
0000
0000
0000
0000
0000
0000
0000
0000
3010
0000
0000
0010
0000
0000
0000
0000
;

//---------------dance-single - Blank----------------
#NOTES:
     dance-single:
     :
     Easy:
     2:
     0.144,0.138,0.000,0.009,0.000,111.000,0.000,1.000,0.000,0.000,0.000,0.144,0.138,0.000,0.009,0.000,111.000,0.000,1.000,0.000,0.000,0.000:
0000
0000
0000
0000
,
1000
0000
0010
0000
,
0100
0001
1000
0000
,
0001
0000
0010
0000
,
0100
1000
0001
0000
,
1000
0000
1000
0000
,
0010
0000
0010
0000
,
0100
0000
0100
0000
,
0001
0000
0001
0000
,
1000
1000
1000
0000
,
0100
0100
0100
0000
,
0010
0010
0010
0000
,
0001
0001
0001
0000
,
1000
0001
1000
0000
,
0010
0100
0010
0000
,
1000
0001
1000
0000
,
0100
0010
0100
0000
,
1000
0000
0010
0000
,
0100
0001
1000
0000
,
0001
0000
0010
0000
,
0100
1000
0001
0000
,
1000
0000
0010
0000
,
0100
0001
0010
0000
,
0100
0000
1000
0000
,
0010
1000
0001
0000
,
1000
0000
0100
0000
,
0010
0010
0010
0000
,
0001
0000
0100
0000
,
0010
0010
0010
0000
,
0001
1000
0001
0000
,
0100
0010
0100
0000
,
0001
1000
0001
0000
,
0010
0100
0010
0000
,
0001
0000
0100
0000
,
0010
1000
0001
0000
,
1000
0000
0100
0000
,
0010
0001
1000
0000
,
0001
0000
0100
0000
,
0010
1000
0100
0000
,
0010
0000
0001
0000
,
0100
0001
1000
0000
,
0001
0001
1000
1000
,
0020
0000
0000
0000
,
0000
0000
0130
0100
;

//---------------dance-double - Blank----------------
#NOTES:
     dance-double:
     :
     Hard:
     8:
     0.558,0.551,0.315,0.171,0.293,379.000,35.000,19.000,0.000,0.000,0.000,0.558,0.551,0.315,0.171,0.293,379.000,35.000,19.000,0.000,0.000,0.000: // measure 0
00000000
00000000
00000000
00000000
,  // measure 1
10000000
00000000
00100000
01000000
00100000
00000000
01000000
00000000
00010000
00000000
00100000
00000000
00000000
00000000
00100000
00000000
,  // measure 2
00001000
00010000
00000100
00001000
00000001
00000100
00000010
00001000
,  // measure 3
00000001
00000000
00000010
00000100
00000010
00000000
00000100
00000000
00001000
00000000
00000010
00000000
00000000
00000000
00000010
00000000
,  // measure 4
00001000
00000100
00010000
00001000
00011000
00011000
00022000
00033000
,  // measure 5
00010000
00000000
00010000
00000000
00100000
00000000
00100000
00000000
10000000
01000000
10000000
01000000
00010000
00000000
00010000
00000000
,  // measure 6
00001000
00000000
00000010
00000001
00000010
00000000
00000100
00000000
00001000
00000000
00000001
00000100
00000001
00001000
00000100
00001000
,  // measure 7
00000001
00000000
00000001
00000000
00000100
00000000
00000100
00000000
00001000
00010000
00001000
00010000
00200000
00000000
10300000
00000000
,  // measure 8
00010000
00000000
10000000
00100000
10000000
00000000
00010000
01000000
00010000
00000000
00100000
00001000
00200000
00000000
00310000
00000000
,  // measure 9
10000000
00000000
00100000
01000000
00010000
00000000
00100000
00000000
00001000
00000000
00001000
00000000
00010000
00000000
00000000
00000000
,  // measure 10
00000100
00000000
00001000
00000010
00000100
00000000
00000001
00000000
00001000
00000000
00001000
00000000
00000100
00000000
00000000
00000000
,  // measure 11
00010000
00000000
00001000
00100000
00010000
00000000
10000000
00000000
00100000
00000000
00100000
00000000
01000000
00000000
00000000
00000000
,  // measure 12
00010000
00000000
00100000
00001000
00010000
00000000
00000100
00000000
00001000
00000000
00001000
00000000
00002002
00000000
00003003
00000000
,  // measure 13
00000001
00000100
00000001
00000000
00000100
00001000
00000100
00000000
00001000
00000000
00010000
00000000
00012000
00000000
00013000
00000000
,  // measure 14
00100000
10000000
00100000
00000000
10000000
01000000
10000000
00000000
01000000
00000000
00010000
00000000
00021000
00000000
00031000
00000000
,  // measure 15
00000010
00000001
00000010
00000000
00000001
00000100
00000001
00000000
00000100
00000000
00001000
00000000
00010000
00000000
00100000
00000000
,  // measure 16
10000000
00000000
01000000
00000000
00100000
00000000
00000000
00100000
00010000
00000000
00110000
00000000
00101000
00000000
00001000
00010000
,  // measure 17
00001000
00000000
00100000
00010000
00100000
00000000
00001000
00000000
00010000
00000000
00000100
00000000
00000000
00000000
00000100
00000000
,  // measure 18
00001000
00000010
00000001
00000010
00001000
00000100
00000001
00000100
,  // measure 19
00001000
00000000
00000100
00010000
00001000
00000000
00100000
00000000
00010000
00000000
10000000
00000000
00000000
00000000
10000000
00000000
,  // measure 20
00010000
01000000
10000000
01000000
01010000
01100000
20100000
30010000
,  // measure 21
11000000
00000000
01000000
00010000
00001000
00000000
00000010
00000000
00000001
00000000
00001000
00000000
00000000
00000000
00001000
00000000
,  // measure 22
00000001
00000100
00001000
00000010
00001000
00000100
00000001
00001000
,  // measure 23
00000001
00000000
00000010
00001000
00010000
00000000
01000000
00000000
10000000
00000000
00010000
00000000
00000000
00000000
00010000
00000000
,  // measure 24
10000000
00100000
00010000
00100000
11000000
01010000
20020000
30030000
,  // measure 25
10000000
01000000
10000000
01000000
00100000
00000000
00010000
00000000
01000000
00000000
00001000
00100000
00001000
00000000
00010000
00000000
,  // measure 26
00000100
00000000
00001000
00000010
00001000
00000000
00000010
00000000
00000100
00000001
00000100
00000001
00002000
00000000
00003000
00000000
,  // measure 27
00000001
00000010
00000001
00000010
00000100
00000000
00001000
00000000
00000010
00000000
00010000
00000100
00010000
00000000
00001000
00000000
,  // measure 28
00100000
00000000
00010000
01000000
00010000
00000000
01000000
00000000
00100000
00000000
00000000
10000000
00020000
00000000
00030000
00000000
,  // measure 29
10000000
00100000
00010000
00000000
00010000
00100000
10000000
00000000
11000000
00000000
01010000
00000000
00012000
00000000
00013000
00000000
,  // measure 30
00001000
00000010
00000001
00000000
00000001
00000100
00001000
00000000
00001100
00000000
00000101
00000000
00001002
00000000
00001003
00000000
,  // measure 31
00000001
00000100
00001000
00000000
00001000
00000100
00000001
00000000
00000010
00000000
00000100
00000000
00001000
00000000
00000001
00000000
,  // measure 32
00000101
00000000
00001100
00000000
00011000
00000000
00000000
00010000
00100000
00000000
11000000
00000000
01010000
00000000
10000000
00010000
,  // measure 33
10000000
00000000
00100000
00010000
00001000
00000000
00000100
00000000
00000001
00000000
00001000
00000000
00000000
00000000
00001000
00000000
,  // measure 34
00000001
00000010
00001000
00000100
00001000
00000010
00000001
00001000
,  // measure 35
00000001
00000000
00000100
00001000
00010000
00000000
00100000
00000000
10000000
00000000
00010000
00000000
00000000
00000000
00010000
00000000
,  // measure 36
10000000
01000000
00010000
01000000
10100000
00110000
20010000
31000000
,  // measure 37
10000000
00000000
01000000
00010000
00001000
00000000
00000010
00000000
00000001
00000000
00001000
00000000
00000000
00000000
00001000
00000000
,  // measure 38
00000001
00000100
00001000
00000010
00001000
00000100
00000001
00001000
,  // measure 39
00000001
00000000
00000010
00001000
00010000
00000000
01000000
00000000
10000000
00000000
00010000
00000000
00000000
00000000
00010000
00000000
,  // measure 40
10000000
00100000
00010000
00100000
11000000
01010000
20010000
30100000
,  // measure 41
10000000
00000000
00000000
00100000
00000000
00000000
01000000
00000000
00000000
00010000
00000000
00000000
00100000
00000000
00000000
00001000
00000000
00000000
00010000
00000000
00000000
00000100
00000000
00000000
00001000
00000000
00000000
00000010
00000000
00000000
00000100
00000000
00000000
00000001
00000000
00000000
00001000
00000000
00000100
00000000
00001000
00000000
00000100
00000000
00000000
00000000
00000000
00000000
,  // measure 42
00001000
00000000
00000000
00000010
00000100
00000001
00001000
00000000
00000000
00000001
00000010
00000100
00001000
00000000
00000000
00002002
00000000
00000000
00000000
00000000
00000000
00000000
00000000
00000000
,  // measure 43
00000000
00000000
00000000
00000000
00000000
00000000
00003003
00000000
00011000
00000000
00000000
00011000
00000000
00000000
00000000
00000000
;
