#VERSION:0.83;
#TITLE:アルストロメリア;
#SUBTITLE:;
#ARTIST:TAG;
#TITLETRANSLIT:Alstroemeria;
#SUBTITLETRANSLIT:;
#ARTISTTRANSLIT:;
#GENRE:;
#ORIGIN:;
#CREDIT:;
#BANNER:Alstroemeria.png;
#BACKGROUND:Alstroemeria-bg.png;
#PREVIEWVID:;
#JACKET:Alstroemeria-jacket.png;
#CDIMAGE:;
#DISCIMAGE:;
#LYRICSPATH:;
#CDTITLE:;
#MUSIC:Alstroemeria.mp3;
#OFFSET:-0.092000;
#SAMPLESTART:50.055000;
#SAMPLELENGTH:12.000000;
#SELECTABLE:YES;
#BPMS:0.000=144.000;
#STOPS:;
#DELAYS:;
#WARPS:;
#TIMESIGNATURES:0.000=4=4;
#TICKCOUNTS:0.000=4;
#COMBOS:0.000=1;
#SPEEDS:0.000=1.000=0.000=0;
#SCROLLS:0.000=1.000;
#FAKES:;
#LABELS:0.000=Song Start;
#BGCHANGES:;
#KEYSOUNDS:;
#ATTACKS:
;

//---------------dance-single - Blank----------------
#NOTEDATA:;
#CHARTNAME:;
#STEPSTYPE:dance-single;
#DESCRIPTION:Blank;
#CHARTSTYLE:;
#DIFFICULTY:Hard;
#METER:8;
#RADARVALUES:0.585275,0.617899,0.211769,0.317654,0.533496,503.000000,477.000000,26.000000,39.000000,0.000000,0.000000,0.000000,0.000000,0.000000,0.585275,0.617899,0.211769,0.317654,0.533496,503.000000,477.000000,26.000000,39.000000,0.000000,0.000000,0.000000,0.000000,0.000000;
#CREDIT:;
#NOTES:
0000
0000
0000
0000
,
0000
0000
0000
0000
,
0000
0000
0000
0000
,
0000
0000
0000
0000
,
1001
0000
0001
0000
0100
0000
0010
0000
1000
0000
0010
0000
0100
0001
0000
1001
,
0000
0000
0001
0000
0010
0000
0100
0000
1000
0000
0100
0000
0010
0001
0000
1001
,
0000
0000
0001
0000
0100
0000
1000
0000
0001
0000
0010
0000
1000
0000
0001
2000
,
0000
3100
1000
1000
0010
0010
0100
0100
,
0001
0000
0000
0010
0000
0000
0100
0000
2000
0000
0000
0000
3001
1000
0000
1001
,
0000
0000
0001
0000
0000
0100
0000
0000
1000
0000
0000
0200
0000
0010
0000
0310
,
1000
0000
0000
0100
0000
0000
0010
0000
0011
0000
0000
0000
1000
0000
0000
1010
,
0000
0000
0001
0000
0000
0001
0000
0000
1000
0100
0000
1000
0100
0000
0010
0000
,
0001
0000
0000
0100
0000
0000
0020
0000
0000
0000
1030
0000
0010
0000
0100
0000
,
0001
0000
0010
0100
0000
1000
0000
0001
0000
0000
0000
0000
0000
0000
0100
0010
,
0100
0000
0000
0001
0000
0000
0010
0000
0100
0000
0000
1000
0000
0000
0000
0001
,
0000
0000
0101
0000
0000
1100
0000
0000
1001
0000
1000
0000
0010
0000
0100
0000
,
0001
0000
0000
0010
0000
0000
1000
0000
0000
0000
0000
0000
0000
0000
0010
0100
,
0000
0000
0000
1000
0010
0001
1000
0100
,
0001
0000
0000
0010
0000
0000
0100
0000
0000
0000
0000
0000
0000
0000
1000
0001
,
1000
0000
1100
0000
0000
0101
0000
0000
1001
0000
0001
0000
0100
0000
0010
0000
,
2010
0000
0000
0000
3001
0000
1000
0000
0001
0000
0010
0000
0100
0000
0010
0001
,
0020
0000
0000
0000
0130
0000
0000
0000
2000
0000
0000
0000
3001
0000
0000
0001
,
0200
0000
0310
1000
0001
0100
1000
0100
,
0010
0000
0000
0010
0000
0000
1000
0001
1000
0000
0100
0000
0010
0000
0001
0000
,
0102
0000
0000
0000
1003
0000
0001
0000
1000
0000
0010
0000
0100
0000
0010
1000
,
0020
0000
0000
0000
0130
0000
0000
0000
0002
0000
0000
0000
1003
0000
0000
1000
,
0200
0000
0310
0001
1000
0010
0001
0010
,
1000
0000
0000
1000
0000
0000
0001
0100
0002
0000
0000
0000
1003
0000
0001
0010
,
0001
0000
0000
0001
0000
0000
1000
0100
2000
0000
0000
0000
3001
0000
0000
2002
,
0000
0000
3003
0110
,
1000
0000
0010
0100
0000
0010
0100
0000
0001
0100
0000
0001
1000
0000
0001
0000
,
1000
0000
0100
0010
0000
0100
0010
0000
0001
0010
0000
0001
1000
0000
0001
0000
,
1000
0000
0001
0100
0000
0010
1000
0000
0001
0010
0000
0100
1000
0000
0001
0000
,
2000
0000
3010
0200
0001
0300
0010
0100
,
0001
0000
0100
0010
0000
0100
0010
0000
1000
0010
0000
1000
0001
0000
1000
0000
,
0001
0000
0010
0100
0000
0010
0100
0000
1000
0100
0000
1000
0001
0000
1000
0000
,
0001
0000
1000
0010
0000
0100
0001
0000
1000
0100
0000
0010
0001
0000
1000
0000
,
0010
0000
0100
0001
0000
1000
0100
0000
0020
0000
0000
0000
0031
0000
0000
0000
,
2000
0000
0000
0010
0000
0000
3010
0000
0200
0000
0000
0001
0000
0000
0301
0000
,
2000
0000
0000
0100
0000
0000
3100
0000
0020
0000
0000
0001
0000
0000
0031
0000
,
2000
0000
0000
0010
0000
0000
3010
0000
0002
0000
0000
0010
0000
0000
0013
0000
,
2000
0000
0000
0100
0000
0000
3100
0000
0002
0000
0000
0100
0000
0000
0103
0000
,
1000
0000
0000
1000
0010
0000
1000
0000
0001
0000
0000
0001
0010
0000
0001
0000
,
1000
0000
0000
1000
0100
0000
1000
0000
0001
0000
0000
0001
0100
0000
0001
0000
,
1000
0000
0000
1000
0010
0000
0100
0000
0001
0000
0000
0001
0010
0000
0100
0000
,
1000
0000
0000
1000
0100
0000
0010
0000
0001
0000
0000
0001
0100
0000
0010
0000
,
2000
0000
0000
3100
0000
0000
0002
0000
0000
0000
0103
0000
1000
0001
0000
1001
,
0000
0000
0000
0000
0000
0000
0010
0000
0000
0000
0000
0000
0000
0000
0000
0010
0000
0000
0000
0000
0000
0000
0000
0000
1000
0000
0000
0000
0100
0000
0000
0000
1000
0000
0000
0000
0001
0000
0000
0000
0100
0000
0000
0000
0001
0000
0000
0000
,
2000
0000
0000
0010
0000
0000
3100
0000
,
0002
0000
0000
0010
0000
0000
0103
0000
,
2000
0000
0000
0100
0000
0000
3010
0000
,
0002
0000
0000
0100
0000
0000
0013
0000
,
0001
0000
0100
0000
0010
1000
0001
0100
,
0001
0000
0010
0000
0100
1000
0001
1000
,
0010
0000
0100
0000
0001
0010
1000
0010
,
0001
0000
0000
0001
0000
0000
0100
0010
0200
0000
0000
0000
0301
0000
0000
0000
,
1000
0000
0010
0100
0000
0010
0100
0000
0001
0100
0000
0001
1000
0000
0001
0000
,
1000
0000
0100
0010
0000
0100
0010
0000
0001
0010
0000
0001
1000
0000
0001
0000
,
1000
0000
0001
0100
0000
0010
1000
0000
0001
0010
0000
0100
1000
0000
0001
0000
,
2000
0000
3010
0200
0001
0300
0010
0100
,
0001
0000
0100
0010
0000
0100
0010
0000
1000
0010
0000
1000
0001
0000
1000
0000
,
0001
0000
0010
0100
0000
0010
0100
0000
1000
0100
0000
1000
0001
0000
1000
0000
,
0001
0000
1000
0010
0000
0100
0001
0000
1000
0100
0000
0010
0001
0000
1000
0000
,
0010
0000
0100
0001
0000
1000
0100
0000
0010
0000
0000
0000
0110
0000
0000
0000
,
1001
0000
0001
0000
0100
0000
0010
0000
1000
0000
0010
0000
0100
0001
0000
1001
,
0000
0000
0001
0000
0010
0000
0100
0000
1000
0000
0100
0000
0010
0001
0000
1001
,
0000
0000
0001
0000
0100
0000
1000
0000
0001
0000
0010
0000
1000
0000
0001
2000
,
0000
3001
0100
0010
1010
0000
0011
0000
,
1001
0000
1000
0000
0010
0000
0100
0000
0001
0000
0100
0000
0010
1000
0000
1001
,
0000
0000
1000
0000
0100
0000
0010
0000
0001
0000
0010
0000
0100
1000
0000
1001
,
0000
0000
1000
0000
0010
0000
0001
0000
1000
0000
0100
0000
0001
0000
2000
0002
,
0000
0000
0000
0000
,
3000
0003
0000
0000
;

//---------------dance-single - ----------------
#NOTEDATA:;
#CHARTNAME:;
#STEPSTYPE:dance-single;
#DESCRIPTION:;
#CHARTSTYLE:;
#DIFFICULTY:Easy;
#METER:3;
#RADARVALUES:0.272275,0.293219,0.040725,0.236204,0.000000,234.000000,229.000000,5.000000,29.000000,0.000000,0.000000,0.000000,0.000000,0.000000,0.272275,0.293219,0.040725,0.236204,0.000000,234.000000,229.000000,5.000000,29.000000,0.000000,0.000000,0.000000,0.000000,0.000000;
#CREDIT:;
#NOTES:
0000
0000
0000
0000
,
0000
0000
0000
0000
,
0000
0000
0000
0000
,
0000
0000
0000
0000
,
1000
0100
0010
0001
,
1000
0010
0100
0001
,
1000
0100
0001
0100
,
1000
1000
0001
0001
,
0100
0100
0200
0300
,
0010
1000
0001
0001
,
0010
0010
0020
0030
,
0100
1000
0001
0001
,
1000
1000
1000
0010
,
0001
0010
0100
0000
,
0001
0010
1000
0010
,
0002
0003
0100
0010
,
1000
0001
0100
0000
,
0010
0000
1000
0001
,
0010
1000
0010
0000
,
0100
0000
1000
0001
,
0100
0100
0010
1000
,
0002
0003
1000
0000
,
0001
0010
1000
0010
,
0100
0100
1000
0000
,
0002
0003
0100
0010
,
2000
3000
0001
0000
,
0020
0030
0100
1000
,
0001
0001
0001
0000
,
1000
1000
1000
0000
,
2002
0000
0000
3003
,
1000
0010
1000
0010
,
0100
0001
0100
0001
,
1000
0100
0010
0001
,
2000
3000
0002
0003
,
1000
0010
1000
0010
,
0100
0001
0100
0001
,
1000
0010
0001
0010
,
1000
0001
1001
0000
,
0001
0001
0010
0010
,
0100
0100
1000
1000
,
0001
0001
0100
0100
,
0010
0010
1000
1000
,
0001
0001
0010
0010
,
1000
1000
0010
0010
,
0001
0001
0100
0100
,
1000
1000
0100
0100
,
0001
0001
1000
1000
,
0010
0010
0100
0100
,
0002
0003
0020
0030
,
0200
0300
2000
3000
,
0002
0003
0200
0300
,
0020
0030
2000
3000
,
0002
0003
0020
0030
,
2000
3000
0020
0030
,
0002
0003
0200
0300
,
1000
1000
0100
0000
,
0001
0010
0100
0010
,
1000
0010
0100
1000
,
0001
0100
1000
0100
,
0002
0003
2000
3000
,
0001
0100
0010
0100
,
1000
0100
0001
1000
,
0001
0010
0100
0010
,
1000
0010
0001
1001
,
1000
1000
1000
0010
,
0001
0001
0001
0010
,
1000
1000
1000
0100
,
0001
0100
1000
1001
,
0001
0001
0001
0100
,
1000
1000
1000
0100
,
0001
0010
1000
0001
,
2002
0000
0000
0000
,
3003
0000
0000
0000
;

//---------------dance-single - ----------------
#NOTEDATA:;
#CHARTNAME:;
#STEPSTYPE:dance-single;
#DESCRIPTION:;
#CHARTSTYLE:;
#DIFFICULTY:Medium;
#METER:5;
#RADARVALUES:0.375833,0.410507,0.171045,0.423539,0.069232,323.000000,302.000000,21.000000,52.000000,0.000000,0.000000,0.000000,0.000000,0.000000,0.375833,0.410507,0.171045,0.423539,0.069232,323.000000,302.000000,21.000000,52.000000,0.000000,0.000000,0.000000,0.000000,0.000000;
#CREDIT:;
#NOTES:
0000
0000
0000
0000
,
0000
0000
0000
0000
,
0000
0000
0000
0000
,
0000
0000
0000
0000
,
1000
0000
0010
0000
0100
0000
0001
1000
,
0001
0000
0010
0000
0100
0000
1000
0001
,
2000
3010
0002
0013
,
1000
0100
1000
0100
0010
0001
0010
0001
,
1000
0010
0200
0310
,
1000
0001
0101
1100
,
0001
0010
0200
0310
,
0001
1000
1010
0011
,
0001
0100
2000
3100
,
0010
0100
0010
0100
0002
0000
1003
0000
,
0012
1003
2010
3001
,
1002
0000
0103
0000
0001
0010
0100
1000
,
0001
0000
0010
0000
2000
0000
3010
0001
,
0200
0000
0310
0000
1000
0001
1000
0001
,
0100
0000
0010
0000
1000
0000
0001
0010
,
2000
0000
3010
0000
0001
0100
0010
1000
,
0002
0103
2000
3100
,
0020
1000
0031
0011
,
0020
1030
0200
0301
,
0100
0000
1000
0010
0100
0000
1001
0000
,
2000
3010
0002
0013
,
0200
0001
1300
1100
,
0200
0301
0020
1030
,
0010
0000
0001
0100
0010
0000
1001
0000
,
1000
0000
0001
0010
0100
0000
1100
0000
,
2002
0000
3003
0110
,
0010
0000
1000
0000
0100
0000
0010
0001
,
0010
0000
0001
0000
0100
0000
0010
1000
,
0010
0000
0100
0000
0001
0000
1000
0100
,
0002
0103
2000
3001
,
0100
0000
0001
0000
0010
0000
0100
1000
,
0100
0000
1000
0000
0010
0000
0100
0001
,
0100
0000
0010
0000
1000
0000
0001
0010
,
2000
3010
0002
1003
,
0001
0000
0000
0001
0000
0000
0000
0000
0010
0000
0000
0010
0000
0000
0000
0000
,
0100
0000
0000
0100
0000
0000
0000
0000
1000
0000
0000
1000
0000
0000
0000
0000
,
0010
0000
0000
0010
0000
0000
0000
0000
0100
0000
0000
0100
0000
0000
0000
0000
,
0001
0000
0000
0001
0000
0000
0000
0000
1000
0000
0000
1000
0000
0000
0000
0000
,
0001
0000
0000
0010
0000
0000
0000
0000
0100
0000
0000
1000
0000
0000
0000
0000
,
0001
0000
0000
0100
0000
0000
0000
0000
0010
0000
0000
1000
0000
0000
0000
0000
,
0001
0000
0000
0001
0000
0000
0001
0000
0010
0000
0000
0010
0000
0000
0010
0000
,
0100
0000
0000
0100
0000
0000
0100
0000
1000
0000
0000
1000
0000
0000
1000
0000
,
0002
0103
2000
3100
,
0002
0023
0230
2300
,
3002
0000
0010
1003
,
2000
0000
0010
3001
,
0002
0000
0100
1003
,
2000
0000
0100
3001
,
1000
0010
0001
0010
,
1000
0100
0001
0100
,
1000
0010
0001
0100
,
1000
0001
0102
1003
,
0001
0000
0010
0000
0100
0000
1000
0010
,
0001
0000
0010
0000
0100
0000
0001
0100
,
1000
0000
0100
0000
0010
0000
1000
0100
,
0002
0103
2000
3001
,
1000
0000
0010
0000
0001
0000
0100
0001
,
0010
0000
1000
0000
0100
0000
0001
0100
,
1000
0000
0010
0000
0001
0000
0100
1000
,
0001
0100
0010
1001
,
2100
0000
0100
0000
3010
0000
1000
0010
,
0002
0000
0010
0000
0013
0000
0001
0010
,
2000
3100
0002
0103
,
2000
3001
0101
1100
,
0012
0000
0010
0000
0103
0000
0001
0100
,
2000
0000
0100
0000
3100
0000
1000
0100
,
0002
0000
0000
0000
0013
0000
0000
0000
2000
0000
0000
0000
3010
0000
0000
2002
,
0000
0000
0000
0000
,
3003
0000
0000
0000
;

//---------------dance-double - ----------------
#NOTEDATA:;
#CHARTNAME:;
#STEPSTYPE:dance-double;
#DESCRIPTION:;
#CHARTSTYLE:;
#DIFFICULTY:Hard;
#METER:8;
#RADARVALUES:0.564331,0.647322,0.203625,0.399104,0.549786,485.000000,460.000000,25.000000,49.000000,0.000000,0.000000,0.000000,0.000000,0.000000,0.564331,0.647322,0.203625,0.399104,0.549786,485.000000,460.000000,25.000000,49.000000,0.000000,0.000000,0.000000,0.000000,0.000000;
#CREDIT:;
#NOTES:
// measure 0
00000000
00000000
00000000
00000000
,  // measure 1
00000000
00000000
00000000
00000000
,  // measure 2
00000000
00000000
00000000
00000000
,  // measure 3
00000000
00000000
00000000
00000000
,  // measure 4
00010200
00000000
00000000
00000000
00100000
00000000
00000000
00000000
00001300
00000000
00000000
00000000
00000100
00010000
00000000
00102000
,  // measure 5
00000000
00000000
00000000
00000000
00010000
00000000
00000000
00000000
01003000
00000000
00000000
00000000
00001000
01000000
00000000
20100000
,  // measure 6
00000000
00000000
00000000
00000000
30010000
00000000
00000000
00000000
00120000
00000000
00000000
00000000
10030000
00000000
00000000
10020000
,  // measure 7
00000000
01030000
00100000
00100000
10000000
01000000
00010000
01000000
,  // measure 8
10000000
00000000
00000000
00100000
00000000
00000000
00020000
00000000
00000000
00000000
00000000
00000000
00000000
00001000
00000000
00031000
,  // measure 9
00000000
00000000
00000010
00000000
00000000
00000001
00000000
00000000
00000100
00000000
00000000
00000020
00000000
00001000
00000000
00001030
,  // measure 10
00000001
00000000
00000000
00000100
00000000
00000000
00001000
00000000
00011000
00000000
00000000
00000000
00000000
00000000
00000000
01010000
,  // measure 11
00000000
00000000
01000000
00000000
00000000
01000000
00000000
00000000
10000000
00010000
00000000
10000000
00010000
00000000
01000000
00100000
,  // measure 12
10000000
00000000
00000000
01000000
00000000
00000000
00020000
00000000
00000000
00000000
00001000
00000000
00001000
00000000
00031000
00000000
,  // measure 13
00000010
00000000
00000001
00000100
00000000
00000010
00000000
00001000
00000000
00000000
00000000
00000000
00000000
00000000
00000001
00001000
,  // measure 14
00000001
00000000
00000000
00001000
00000000
00000000
00000100
00000000
00010000
00000000
00000000
00000000
00001000
00000000
00000000
02000000
,  // measure 15
00000000
00000000
00100000
00000000
00000000
03100000
00000000
00000000
10000000
00000000
01000000
00000000
00010000
00000000
00001000
00000000
,  // measure 16
00010000
00000000
00000000
01000000
00000000
00000000
00200000
00000000
00000000
00000000
00300000
00000000
00000000
00000000
00001000
00020000
,  // measure 17
00000000
00030000
00000000
00000100
00001000
00001000
00000001
00000001
,  // measure 18
00000100
00000000
00000000
00001000
00000000
00000000
00020000
00000000
00000000
00000000
00000000
00000000
00030000
00000000
00000010
00000100
,  // measure 19
00000020
00000000
00001000
00000000
00000000
00001030
00000000
00000000
00000001
00000000
00000010
00000000
00001000
00000000
00000010
00000000
,  // measure 20
00000012
00000000
00000000
00000000
00000103
00000000
00000001
00000000
00000100
00000000
00001000
00000000
00010000
00000000
00000100
00001000
,  // measure 21
00000200
00000000
00000000
00000000
00000010
00000000
00000000
00000000
00000301
00000000
00000000
00000000
00000100
00000000
00000000
00000100
,  // measure 22
00002000
00000000
00003010
00010000
00001000
00100000
00010000
01000000
,  // measure 23
00100000
00000000
00000000
00100000
00000000
00000000
10000000
00010000
10000000
00000000
01000000
00000000
00010000
00000000
01000000
00000000
,  // measure 24
21000000
00000000
00000000
00000000
30100000
00000000
10000000
00000000
00100000
00000000
00010000
00000000
00001000
00000000
00100000
00010000
,  // measure 25
00200000
00000000
00000000
00000000
01000000
00000000
00000000
00000000
10300000
00000000
00000000
00000000
00100000
00000000
00000000
00100000
,  // measure 26
00020000
00000000
01030000
00001000
00010000
00000100
00001000
00000010
,  // measure 27
00000100
00000000
00000000
00000100
00000000
00000000
00000001
00001000
00000002
00000000
00000000
00000000
00000103
00000000
00000010
00001000
,  // measure 28
00000100
00000000
00000000
00000100
00000000
00000000
00010000
00001000
00200000
00000000
00000000
00000000
00310000
00000000
00000000
20020000
,  // measure 29
00000000
00000000
00000000
30030000
,  // measure 30
10000000
00000000
10000000
00100000
00000000
00100000
01000000
00000000
01000000
00010000
00000000
00010000
01000000
00000000
00100000
00000000
,  // measure 31
10000000
00000000
10000000
01000000
00000000
01000000
00100000
00000000
00100000
00001000
00000000
00001000
00010000
00000000
00000100
00000000
,  // measure 32
00001000
00000000
00001000
00000010
00000000
00000010
00000100
00000000
00000100
00000001
00000000
00000001
00001000
00000000
00000100
00000000
,  // measure 33
00000020
00000000
00000130
00000100
00002000
00000000
00003001
00001000
,  // measure 34
00000001
00000000
00000001
00000100
00000000
00000100
00000010
00000000
00000010
00001000
00000000
00001000
00000010
00000000
00000100
00000000
,  // measure 35
00000001
00000000
00000001
00000010
00000000
00000010
00000100
00000000
00000100
00010000
00000000
00010000
00001000
00000000
00100000
00000000
,  // measure 36
00010000
00000000
00010000
01000000
00000000
01000000
00100000
00000000
00100000
10000000
00000000
10000000
00010000
00000000
00100000
00000000
,  // measure 37
01000000
00000000
01000000
00100000
00000000
00100000
00010000
00000000
10000000
00020000
00000000
00000000
01030000
00000000
00100000
10000000
,  // measure 38
00020000
00000000
00000000
00100000
00000000
00000000
00130000
00000000
02000000
00000000
00000000
10000000
00000000
00000000
13000000
00000000
,  // measure 39
00200000
00000000
00000000
01000000
00000000
00000000
01300000
00000000
00002000
00000000
00000000
00010000
00000000
00000000
00013000
00000000
,  // measure 40
00000200
00000000
00000000
00001000
00000000
00000000
00001300
00000000
00000002
00000000
00000000
00000010
00000000
00000000
00000013
00000000
,  // measure 41
00000002
00000000
00000000
00001000
00000000
00000000
00001003
00000000
00000010
00000000
00000000
00000110
00000000
00000000
00000100
00000001
,  // measure 42
00001000
00000000
00000000
00001000
00000100
00000000
00001000
00000000
00000010
00000000
00000000
00000010
00010000
00000000
00001000
00000000
,  // measure 43
00100000
00000000
00000000
00100000
00010000
00000000
01000000
00000000
00100000
00000000
00000000
00100000
10000000
00000000
00010000
00000000
,  // measure 44
10000000
00000000
00000000
01000000
00100000
00000000
00010000
00000000
10000000
00000000
00000000
00100000
01000000
00000000
00010000
00000000
,  // measure 45
00100000
00000000
00000000
00001000
00010000
00000000
00000100
00000000
00001000
00000000
00000000
00000010
00000100
00000000
00000001
00000000
,  // measure 46
00002000
00000000
00000000
00003100
00000000
00000000
00000002
00000000
00000000
00000000
00000103
00000000
00001000
00000001
00000000
00000001
,  // measure 47
00000000
00000000
00000000
00000000
00000000
00000000
00000101
00000000
00000000
00000000
00000000
00000000
00000000
00000000
00000000
00001100
00000000
00000000
00000000
00000000
00000000
00000000
00000000
00000000
00000001
00000000
00000000
00000000
00000100
00000000
00000000
00000000
00000010
00000000
00000000
00000000
00001000
00000000
00000000
00000000
00000100
00000000
00000000
00000000
00010000
00000000
00000000
00000000
,  // measure 48
00002000
00000000
00000000
00100000
00000000
00000000
00013000
00000000
,  // measure 49
02000000
00000000
00000000
10000000
00000000
00000000
03100000
00000000
,  // measure 50
00020000
00000000
00000000
00100000
00000000
00000000
00031000
00000000
,  // measure 51
00000200
00000000
00000000
00000010
00000000
00000300
00001001
00000000
,  // measure 52
00000001
00000000
00000100
00000000
00000010
00001000
00010000
00001000
,  // measure 53
00000010
00000000
00001000
00000000
00000100
00010000
00100000
00010000
,  // measure 54
00000100
00000000
00001000
00000000
00010000
01000000
10000000
00100000
,  // measure 55
01000000
00000000
00000000
01000000
00000000
00000000
00100000
10000000
00020000
00000000
00000000
00000000
01030000
00000000
00010000
00100000
,  // measure 56
01000000
00000000
10000000
00100000
00000000
10000000
00100000
00000000
01000000
00010000
00000000
01000000
00010000
00000000
00100000
00000000
,  // measure 57
00001000
00000000
00010000
00000100
00000000
00010000
00000100
00000000
00001000
00000010
00000000
00001000
00000010
00000000
00000100
00000000
,  // measure 58
00000001
00000000
00000010
00000100
00000000
00000010
00000100
00000000
00001000
00000001
00000000
00001000
00000001
00000000
00000100
00000000
,  // measure 59
00000020
00000000
00010030
00010000
00002000
00000000
00103000
00010000
,  // measure 60
10000000
00000000
00010000
01000000
00000000
00100000
10000000
00000000
01000000
00100000
00000000
00001000
00010000
00000000
00000100
00000000
,  // measure 61
00000010
00000000
00000001
00000100
00000000
00000010
00001000
00000000
00000100
00010000
00000000
00001000
00100000
00000000
00010000
00000000
,  // measure 62
10000000
00000000
00100000
00010000
00000000
00100000
10000000
00000000
01000000
00010000
00000000
00001000
00000100
00000000
00000001
00000000
,  // measure 63
00000010
00000000
00001000
00010000
00000000
00100000
10000000
00000000
00010000
00000000
00000000
00000000
10010000
00000000
00000000
00000000
,  // measure 64
00010200
00000000
00000000
00000000
00100000
00000000
00000000
00000000
00001300
00000000
00000000
00000000
00000100
00010000
00000000
00102000
,  // measure 65
00000000
00000000
00000000
00000000
00010000
00000000
00000000
00000000
01003000
00000000
00000000
00000000
00001000
01000000
00000000
20100000
,  // measure 66
00000000
00000000
00000000
00000000
30010000
00000000
00000000
00000000
00120000
00000000
00000000
00000000
10030000
00000000
00000000
10020000
,  // measure 67
00000000
01030000
00100000
10000000
11000000
00000000
01010000
00000000
,  // measure 68
10010000
00000000
10000000
00000000
01000000
00000000
00010000
00000000
01000000
00000000
00100000
00000000
00001000
00010000
00000000
00010100
,  // measure 69
00000000
00000000
00000100
00000000
00001000
00000000
00000010
00000000
00000001
00000000
00000010
00000000
00010000
00000100
00000000
00010100
,  // measure 70
00000000
00000000
00010000
00000000
00001000
00000000
00100000
00000000
00010000
00000000
01000000
00000000
10000000
00000000
02000000
00200000
,  // measure 71
00000000
00000000
00000000
00000000
,  // measure 72
00300000
03000000
00000000
00000000
;
