#TITLE:ALBA -黎明-;
#SUBTITLE:;
#ARTIST:SOUND HOLIC feat. Nana Takahashi;
#TITLETRANSLIT:ALBA -reimei-;
#SUBTITLETRANSLIT:;
#ARTISTTRANSLIT:;
#GENRE:;
#CREDIT:;
#BANNER:ALBA -reimei-.png;
#BACKGROUND:ALBA -reimei--bg.png;
#LYRICSPATH:;
#CDTITLE:;
#MUSIC:ALBA -reimei-.mp3;
#OFFSET:-0.631000;
#SAMPLESTART:58.035000;
#SAMPLELENGTH:14.920000;
#SELECTABLE:YES;
#BPMS:0.000000=165.000000
,229.500000=41.240002
,230.000000=82.500000
,237.000000=165.001007
;
#STOPS:236.750000=0.727000
;
#BGCHANGES:;
#KEYSOUNDS:;
#ATTACKS:;

//---------------dance-single - Blank----------------
#NOTES:
     dance-single:
     :
     Hard:
     10:
     0.880477,1.083803,0.491103,0.450178,0.793950,753.000000,693.000000,60.000000,55.000000,0.000000,0.000000,0.880477,1.083803,0.491103,0.450178,0.793950,753.000000,693.000000,60.000000,55.000000,0.000000,0.000000:
0000
0000
0000
0000
,
0000
0000
0000
0000
,
0000
0000
0000
0000
,
0000
0000
0000
0000
,
2000
0000
3100
0000
0002
0000
0103
0000
1000
0000
0010
0100
0000
0100
0010
0000
,
1000
0000
0100
0010
0000
0001
0000
0010
0000
0010
0100
0000
2000
0000
3001
0000
,
2000
0000
3010
0000
0002
0000
0013
0000
1000
0000
0100
0010
0000
0001
0000
0020
,
0000
0130
1000
0000
0001
0100
0001
0000
1000
0100
1000
0000
1000
0010
1000
0000
,
0002
0000
0013
0000
2000
0000
3010
0000
0001
0000
0100
0010
0000
0010
0100
0000
,
0001
0000
0010
0100
0000
1000
0000
0100
0000
0100
0010
0000
0002
0000
1003
0000
,
0002
0000
0103
0000
2000
0000
3100
0000
0001
0000
0010
0100
0000
1000
0000
0200
,
0000
0310
0001
0000
1000
0010
1000
0000
0001
0010
0100
1000
0002
0000
0003
0000
,
1000
0010
1000
0010
0001
0010
0001
0010
,
0100
0010
0100
0010
1000
0001
1000
0000
,
0001
0010
0001
0010
1000
0010
1000
0010
,
0100
0010
0100
0010
0001
1000
0001
0000
,
0001
0100
1000
0100
0020
0130
0001
1000
,
0001
0010
1000
0010
0200
0310
0001
0000
,
1000
0010
0001
0010
2000
3100
0001
0100
,
1000
1000
1000
1000
0001
0001
0001
0001
,
1000
0000
0010
0100
0000
0010
0001
0000
0010
0100
0000
0010
1000
0000
0000
0000
,
0001
0000
0010
0100
0000
0010
1000
0000
0010
0100
0000
0010
0001
0000
0000
0000
,
1000
0000
0100
0010
0000
0100
0001
0000
0100
0010
0000
0100
1000
0000
0000
0000
,
1010
0000
0000
0101
0000
0000
0011
0000
1100
0000
1000
0001
1000
0001
0100
0010
,
0100
0000
0010
1000
0010
0000
0100
0000
0001
0000
1000
0100
1000
0000
0001
0000
,
0010
0000
0001
0100
0001
0000
0100
0000
0020
0000
1000
0000
1030
0000
0000
0000
,
0001
0000
1000
0100
1000
0000
0010
0000
0100
0000
0001
0100
0001
0000
0022
0000
,
0033
1001
1001
1001
0000
1000
0010
0100
,
0001
0000
0010
0100
2000
0000
0000
0000
3001
0000
0001
0000
0100
0000
0010
0000
,
1000
0000
0100
0010
0002
0000
0000
0000
1003
0000
0001
0000
0100
0000
0010
0000
,
1000
0100
0010
0100
0001
0100
0010
0100
,
1000
0010
0100
0001
0100
0010
1000
0001
0100
0010
0100
0010
0100
0010
0100
0010
,
1000
0100
0011
0000
0110
0000
1100
1000
,
0010
1010
0000
0110
0000
0101
0101
0001
,
1000
1010
0000
0110
0000
0101
0001
0010
,
0110
0000
1100
0000
1001
1001
0001
0100
,
0010
1000
1100
0000
0101
0000
0110
0010
,
0001
0101
0000
1100
0000
0100
0010
2000
,
0000
0000
3100
0000
0001
0100
0002
0000
0000
0000
0103
0000
1000
0001
1000
0000
,
1001
0000
1001
0000
1001
0000
0000
0000
1000
0000
0010
0000
0100
0001
2000
0000
,
0001
0000
3001
0000
0010
0100
0010
0000
0001
0000
0010
0000
0100
1000
0002
0000
,
1000
0000
1003
0000
0001
0100
0010
0000
1000
0000
0001
0000
0100
0000
0101
0000
,
0001
0100
0000
0001
1000
0000
1100
0000
1000
0100
0000
1000
0001
0000
0011
0000
,
0001
0010
0000
0001
1000
0000
1010
0000
1000
0001
0000
0010
0001
0000
2000
0000
,
0010
0000
3010
0000
0100
0001
0020
0000
0100
0000
0130
0000
0010
0001
2000
0000
,
3100
0000
0002
0000
0103
0000
2000
0000
3010
0000
0002
0000
0013
0000
1000
0010
,
1000
0010
1000
0010
1000
0010
0100
0001
0100
0001
0100
0001
0100
0001
1000
0100
,
1000
0100
1000
0100
1000
0100
0010
0001
0010
0001
1000
0001
1000
0000
1010
0000
,
1010
0110
0101
0000
1100
0000
2002
0000
,
0000
0000
0000
0000
0000
0000
3003
1000
,
0010
0000
0100
0000
0001
0000
0100
0010
0100
0010
1000
0010
1000
0010
1000
0000
,
0100
0000
0010
0000
0001
0000
0010
0100
0010
0100
1000
0100
1000
0100
1000
0000
,
0010
0000
0001
0000
0010
0000
0100
0010
0100
0010
1000
0001
1000
0001
1000
0000
,
0100
0000
0001
0000
0100
0000
0010
0100
0010
0100
1000
0001
1000
0001
1000
0000
,
0000
0001
0000
0101
0000
0001
0100
1000
,
0010
0001
0000
2001
0000
3100
0000
1000
,
1000
0000
0010
0000
0010
0000
0100
0000
0100
0000
0001
0000
0001
0000
1000
0100
,
0010
0000
0001
0000
0010
0000
0100
0000
1000
0000
0001
0000
2000
0000
3000
0000
0001
0000
0000
0001
0000
0000
0001
0000
0100
0000
0000
0100
0000
0000
0100
0000
,
0010
0000
0000
0010
0000
0000
0010
0000
1000
0000
0000
1000
0000
0000
1000
0000
0002
0000
0000
0000
0000
0000
0000
0000
0000
0000
1000
0000
1003
0000
2000
0000
,
0000
0000
0000
0000
0000
3000
0000
0000
0002
0000
0000
0000
1000
0000
0000
0000
1003
0000
0000
0000
0100
0000
0010
0000
0100
0000
0000
0000
1000
0000
0000
0000
,
0100
0000
0010
0001
2000
0000
0001
0000
3001
0000
1000
0010
0100
0000
0001
0000
,
1000
0000
0010
0000
1010
0000
1000
0010
0000
1000
0001
0000
0011
0000
0001
0010
,
0000
0001
1000
0000
1100
0000
1000
0100
0000
1000
0001
0000
0101
0000
0001
1000
,
0000
0100
1000
0000
0002
0000
0100
0000
0103
0000
0010
1000
0200
0000
0010
0000
,
0310
0000
0100
1000
0002
0000
0013
0000
2000
0000
3010
0000
0002
0000
0103
0000
,
2000
0000
3100
0000
0001
0100
0001
0100
0001
0100
0001
0100
0010
1000
0010
1000
,
0010
1000
0010
1000
0002
0000
0000
0000
0010
0000
0000
0000
0100
0000
0000
0000
,
1003
0000
0000
0000
1001
0000
0001
0100
0000
0010
1000
0000
1001
0000
1000
0100
,
0000
0010
0001
0000
0011
0000
0001
0100
0000
0010
1000
0000
1100
0000
1000
0100
,
0000
0010
0001
0000
1001
0000
0001
0100
0000
1000
0100
0000
1001
0000
1000
0100
,
0000
0001
0100
0000
1000
0000
0010
0100
0010
0100
0001
0000
1000
0100
1000
0100
,
0001
0100
0001
0100
1000
0000
0010
0001
0000
0010
0100
0000
1001
0000
0001
0010
,
0000
1000
0010
0000
1001
0000
0001
0100
0000
1000
0100
0000
1001
0000
1000
0100
,
0000
0001
0100
0000
1010
0000
0100
0001
0000
1000
0100
0000
0011
0000
1000
0010
,
0000
0100
0001
0000
1000
0000
0100
0010
0100
0010
0001
0000
1000
0010
0100
0001
,
1000
0100
0010
0001
2000
0000
3100
0000
0002
0000
0103
0000
1000
0000
0010
0100
,
0000
0100
0010
0000
1000
0000
0100
0010
0000
0001
0000
0010
0000
0010
0100
0000
,
2000
0000
3001
0000
2000
0000
3010
0000
0002
0000
0013
0000
1000
0000
0100
0010
,
0000
0001
0000
0020
0000
0130
1000
0000
0001
0100
0001
0000
1000
0100
0010
0001
,
2000
0000
3000
0000
0001
0100
1000
0100
0000
0010
0000
1010
0000
0011
0000
2002
,
0000
3003
0000
0000
;

//---------------dance-single - Blank----------------
#NOTES:
     dance-single:
     :
     Easy:
     5:
     0.408083,0.459795,0.376512,0.237366,0.020463,349.000000,303.000000,46.000000,29.000000,0.000000,0.000000,0.408083,0.459795,0.376512,0.237366,0.020463,349.000000,303.000000,46.000000,29.000000,0.000000,0.000000:
0000
0000
0000
0000
,
0000
0000
0000
0000
,
0000
0000
0000
0000
,
0000
0000
0000
0000
,
1001
0001
0100
1000
,
0100
0010
1000
1000
,
0001
0010
1000
0010
,
0100
0000
1000
0000
0001
1000
0001
1000
,
0001
1000
0010
0001
,
0010
0100
0001
0001
,
1000
0100
0001
0100
,
0010
0000
0001
0000
1000
0001
1001
0000
,
1000
0010
0001
0010
,
0100
0001
1000
0000
,
0001
0010
1000
0010
,
0100
1000
0001
0000
,
1000
0010
0001
0100
,
1000
0001
1000
0000
,
0001
0100
1000
0010
,
0001
0010
1000
0100
,
0010
0010
0010
1001
,
0100
0100
0100
1001
,
0010
0010
0010
0101
,
0010
0100
1001
0000
,
1000
0100
0010
0001
,
0010
0000
0100
0000
1000
0001
1000
0000
,
0001
0000
0100
0000
0010
0000
1000
0010
,
0000
0100
0000
0001
0000
1000
1000
0000
,
0002
0010
0103
0001
,
2000
0010
3100
1000
,
0001
0100
0001
0000
1000
0100
1000
0000
,
0001
1000
2002
3003
,
1000
1010
0101
1100
,
0000
0011
0000
1100
0000
1000
0001
0000
,
0000
1010
0000
0101
0000
1001
0000
0000
,
0011
0000
1100
0000
1000
0001
0000
0000
,
0000
1010
0011
0110
,
0000
1100
0000
0101
0000
0100
0010
0002
,
0000
0103
0000
2000
0000
3100
0000
0001
,
1000
0001
1000
0000
0000
0000
0000
0010
,
0000
0100
0000
0002
0000
0103
0000
0010
,
0000
1000
0000
0200
0000
0310
0000
0100
,
1000
0100
0000
1000
0000
0010
0000
0100
,
0001
0100
0000
0001
0000
1000
0000
0002
,
0000
0013
0000
2000
0000
3010
0000
0011
,
0000
0011
0000
1100
0000
1100
0000
2000
,
0000
0010
0000
3100
0000
1000
0000
0002
,
0000
0010
0000
0103
0000
0001
0000
1000
,
0100
1000
0100
0000
0010
0000
0002
0000
,
0000
0000
0000
0000
0000
0003
0000
2000
,
0000
3000
0000
0020
0000
0030
0000
0200
,
0000
0300
0000
0002
0000
0003
0000
0020
,
0000
0030
0000
0200
0000
0300
0000
2000
,
0000
3000
0000
0020
0000
0030
0000
0100
,
0000
0001
0000
0100
0000
0010
0000
1000
,
0000
0100
0000
1000
0000
0010
0000
1000
,
0000
0100
0000
0001
0000
0100
0000
1000
,
0000
0001
0000
1001
0001
0000
0100
0000
,
0010
1000
0001
0010
,
1000
0100
0010
2000
,
3010
0100
0001
0020
,
0130
0000
0010
0001
0010
0000
0001
0000
,
0100
0000
0010
1000
0010
0000
1000
0000
,
0001
2000
3100
0002
,
0103
1100
1100
0011
,
0011
0002
0100
0013
,
0001
2000
0100
3010
,
1000
0001
0011
0001
,
0011
1000
1010
1000
,
1010
0001
0101
0001
,
0101
0001
0010
1000
,
0010
0001
0101
0001
,
0101
1000
1100
1000
,
1100
0001
1001
1000
,
1001
2000
0100
0010
,
3001
1001
0001
0100
,
1000
0100
0010
1000
,
1000
0001
0010
1000
,
0010
0000
0100
0000
1000
0000
0001
1000
,
1001
0000
0000
0000
0110
0000
0000
0010
0000
1000
0000
0010
0000
0100
0000
0002
,
0000
0003
0000
0000
;

//---------------dance-single - ----------------
#NOTES:
     dance-single:
     :
     Medium:
     8:
     0.535536,0.590244,0.401067,0.392882,0.171886,458.000000,409.000000,49.000000,48.000000,0.000000,0.000000,0.535536,0.590244,0.401067,0.392882,0.171886,458.000000,409.000000,49.000000,48.000000,0.000000,0.000000:
// measure 0
0000
0000
0000
0000
,  // measure 1
0000
0000
0000
0000
,  // measure 2
0000
0000
0000
0000
,  // measure 3
0000
0000
0000
0000
,  // measure 4
1100
0000
0000
0000
0101
0000
0000
0000
1000
0000
0000
0010
0000
0000
0100
0000
,  // measure 5
0002
0000
1003
0000
0001
0010
0100
0000
,  // measure 6
1010
0000
0000
0000
0011
0000
0000
0000
1000
0000
0000
0010
0000
0100
0000
0010
,  // measure 7
0000
1000
0100
0001
0100
1000
0001
1000
,  // measure 8
0101
0000
0000
0000
1100
0000
0000
0000
0001
0000
0000
0010
0000
0000
0100
0000
,  // measure 9
2000
0000
3001
0000
1000
0010
0100
0000
,  // measure 10
0011
0000
0000
0000
1010
0000
0000
0000
0001
0000
0000
0010
0000
0100
0000
0010
,  // measure 11
0000
0001
0100
1000
0100
0001
1000
0000
,  // measure 12
0202
0303
0200
0300
,  // measure 13
0020
0030
2000
3000
,  // measure 14
0002
0003
0020
0030
,  // measure 15
0200
0300
2000
3000
,  // measure 16
0001
0100
2010
3001
,  // measure 17
1000
0000
0100
0000
0012
0000
2003
3000
,  // measure 18
0001
0010
2100
3001
,  // measure 19
1000
0010
1000
0010
0100
0001
0100
0001
,  // measure 20
1000
0000
0000
0100
0000
0000
0001
0000
0000
0100
0000
0000
1000
0000
0000
0000
,  // measure 21
0001
0000
0000
0100
0000
0000
1000
0000
0000
0100
0000
0000
0001
0000
0000
0000
,  // measure 22
1000
0000
0000
0010
0000
0000
0002
0003
0000
0010
0000
0000
1000
0000
0000
0000
,  // measure 23
0001
0000
0000
0010
0000
0000
0100
0000
1000
0000
0001
0000
0001
0000
0001
0000
,  // measure 24
1000
0010
1000
0000
0001
0010
0001
0000
,  // measure 25
1000
0010
0100
0001
0100
0010
1000
0000
,  // measure 26
0001
0100
0001
0000
1000
0100
0010
0002
,  // measure 27
0000
1000
1000
1003
0000
0001
0100
1000
,  // measure 28
0100
0001
2000
0000
3001
1000
0100
0001
,  // measure 29
0100
1000
0002
0000
1003
0001
0100
0010
,  // measure 30
1000
1000
0100
0100
0010
0010
0001
0001
,  // measure 31
1000
0010
0001
0010
2000
0000
3001
0000
,  // measure 32
0010
0011
0110
1100
,  // measure 33
0000
1010
0000
0110
0000
0100
0001
0000
,  // measure 34
0000
0101
0000
1100
0000
1001
0000
0000
,  // measure 35
1010
0000
0011
0000
0001
1000
0001
1000
,  // measure 36
0100
0011
1100
1001
,  // measure 37
0000
1010
0000
0101
0000
0001
1000
0002
,  // measure 38
0000
0013
0000
0200
0000
1300
0000
0001
,  // measure 39
1000
0001
1001
0000
0000
0000
0000
1000
,  // measure 40
0010
1000
0010
0200
0000
0301
0000
1000
,  // measure 41
0100
1000
0100
0020
0000
0031
0000
1000
,  // measure 42
0000
1000
0000
0000
0010
0000
0001
0000
0000
0001
0000
0000
0010
0000
0100
0000
,  // measure 43
0000
0100
0000
0000
0001
0000
1000
0000
0100
0000
0010
0000
0001
0000
1000
0000
,  // measure 44
1000
1000
0010
0001
0001
0001
0010
1000
,  // measure 45
0100
0010
0100
0001
0100
1000
0001
0010
,  // measure 46
0010
0100
0100
1000
1000
0001
0001
0200
,  // measure 47
0000
0320
0000
2030
0000
3002
0000
0013
,  // measure 48
0010
0010
0010
0000
1100
0000
0202
0000
,  // measure 49
0000
0000
0000
0000
0000
0303
0000
0002
,  // measure 50
0000
0003
0000
0020
0000
0030
0000
0200
,  // measure 51
0000
0300
0000
2000
0000
3000
0000
0002
,  // measure 52
0000
0003
0000
0200
0000
0300
0000
0020
,  // measure 53
0000
0030
0000
2000
0000
3000
0000
0001
,  // measure 54
0000
0010
0000
1100
0000
0010
0000
0001
,  // measure 55
0000
0100
0000
1010
0000
0010
0000
0100
,  // measure 56
0001
0100
0001
1000
0100
1000
0100
1000
,  // measure 57
0010
0100
0001
1000
0001
0000
0010
0000
,  // measure 58
0100
1000
0002
0000
,  // measure 59
2000
0000
0000
3003
0001
0000
0100
0000
0001
0000
0100
0000
0020
0000
0000
0000
,  // measure 60
1030
0000
0001
0010
0001
0010
0200
0000
,  // measure 61
1300
0000
0000
0000
0001
0000
0000
0001
0000
0000
0100
0000
1000
0000
0000
1000
,  // measure 62
0000
0000
0100
0000
0010
0000
0000
0010
0000
0000
1000
0000
0001
0000
0010
0000
,  // measure 63
0100
1000
0001
0001
0001
0100
1000
1000
,  // measure 64
1000
0100
0001
0010
0100
0010
1000
0010
,  // measure 65
0001
1000
0100
0100
0010
0010
0001
0001
,  // measure 66
1000
1000
0020
0000
0230
0000
0302
0000
,  // measure 67
2003
0000
0000
0000
3100
0000
0000
0100
0000
0000
1100
0000
1000
0000
0000
1000
,  // measure 68
0000
0000
1010
0000
0010
0000
0000
0010
0000
0000
0110
0000
0100
0000
0000
0100
,  // measure 69
0000
0000
0101
0000
0001
0000
0000
0001
0000
0000
0011
0000
0010
0000
0000
0010
,  // measure 70
0000
0110
0100
1000
0001
0100
0001
1000
,  // measure 71
0010
0000
1000
0000
0001
0000
0000
0010
0000
0000
1100
0000
1000
0000
0000
0010
,  // measure 72
0000
0000
0101
0000
0001
0000
0000
0010
0000
0000
1100
0000
1000
0000
0000
0010
,  // measure 73
0000
0000
0101
0000
0001
0000
0000
1000
0000
0000
0110
0000
1000
0000
0000
0001
,  // measure 74
0000
0110
0001
0010
0001
0010
1000
0010
,  // measure 75
0001
0000
1000
0000
1010
0000
0000
0000
0011
0000
0000
0000
1000
0000
0000
0100
,  // measure 76
0000
0010
0002
0000
1003
0000
0001
0100
,  // measure 77
0010
0000
0000
0000
1100
0000
0000
0000
0101
0000
0000
0000
1000
0000
0000
0100
,  // measure 78
0000
0010
0000
0100
0000
0000
1000
0000
0010
0000
0001
0000
0010
0000
1000
0000
,  // measure 79
0001
0000
0000
0000
1001
0000
0000
0001
0000
0100
0000
1000
0000
0100
0000
0002
,  // measure 80
0000
0003
0000
0000
0000
0000
0000
0000
;
