#VERSION:0.83;
#TITLE:7 Colors;
#SUBTITLE:;
#ARTIST:kors k feat. 吉河順央;
#TITLETRANSLIT:;
#SUBTITLETRANSLIT:;
#ARTISTTRANSLIT:kors k feat. Sunao Yoshikawa;
#GENRE:;
#ORIGIN:;
#CREDIT:;
#BANNER:7 Colors.png;
#BACKGROUND:7 Colors-bg.png;
#PREVIEWVID:;
#JACKET:7 Colors-jacket.png;
#CDIMAGE:;
#DISCIMAGE:;
#LYRICSPATH:;
#CDTITLE:;
#MUSIC:7 Colors.mp3;
#OFFSET:-1.731000;
#SAMPLESTART:52.000000;
#SAMPLELENGTH:12.000000;
#SELECTABLE:YES;
#BPMS:0.000=156.000;
#STOPS:;
#DELAYS:;
#WARPS:;
#TIMESIGNATURES:0.000=4=4;
#TICKCOUNTS:0.000=4;
#COMBOS:0.000=1;
#SPEEDS:0.000=1.000=0.000=0;
#SCROLLS:0.000=1.000;
#FAKES:;
#LABELS:0.000=Song Start;
#BGCHANGES:;
#KEYSOUNDS:;
#ATTACKS:
;

//---------------dance-single - ----------------
#NOTEDATA:;
#CHARTNAME:;
#STEPSTYPE:dance-single;
#DESCRIPTION:;
#CHARTSTYLE:;
#DIFFICULTY:Medium;
#METER:7;
#RADARVALUES:0.473653,0.558358,0.172898,0.050852,0.116960,326.000000,309.000000,17.000000,5.000000,0.000000,0.000000,0.000000,0.000000,0.000000,0.473653,0.558358,0.172898,0.050852,0.116960,326.000000,309.000000,17.000000,5.000000,0.000000,0.000000,0.000000,0.000000,0.000000;
#CREDIT:;
#NOTES:
0001
1000
0100
0010
0000
0000
0000
0100
,
1000
0010
0100
0001
,
0011
0000
0000
0000
,
0100
0010
0001
1000
0010
0100
0001
0010
,
0110
0000
0000
0000
,
1001
0000
0000
0000
0000
0000
0010
0100
,
1001
0001
0010
0100
1000
0001
0010
0100
,
1000
0000
0000
0001
0000
0000
1000
0000
0000
0000
0000
0000
0020
0000
0000
0000
,
0130
0000
0000
0001
0000
0000
0100
0000
0000
0001
0000
0000
0100
0000
0001
0000
,
1000
0000
0000
0000
0100
0000
0000
0000
0010
0000
0000
0100
0000
0000
1000
0000
,
0010
0000
0000
0100
0000
0000
0001
0000
0000
1000
0000
0000
0100
0000
1000
0000
,
0010
0000
0100
0001
0010
0000
0100
0010
,
0001
0000
0000
0001
0000
0000
1000
0000
0000
1000
0000
0000
0010
0000
1000
0000
,
0100
0000
1000
0000
0010
0000
0100
0000
0001
0000
0000
0001
0000
0000
1000
0000
,
0100
0000
0000
1000
0000
0000
0010
0000
0000
0100
0000
0000
0010
0000
1000
0000
,
0001
0010
1000
0010
0001
0010
1000
0010
,
0001
0100
0010
1000
,
0010
0000
0000
0000
0100
0000
0000
0000
0001
0000
0000
1000
0000
0000
0001
0000
,
0100
0001
0010
0001
,
1000
0000
0010
0100
0001
0000
0000
0000
,
1000
0100
1000
0010
,
0100
0001
0100
0000
0010
0000
1000
0000
,
0010
0100
0001
0010
0100
0010
0001
1000
,
0000
0000
0001
0001
,
0100
0000
0001
0010
0000
0100
0000
1000
,
0000
0000
0000
0100
1000
0000
0010
0000
,
0100
0000
0010
1000
0000
0001
0000
0010
,
0000
0100
0010
0001
0000
0000
0000
1000
,
0001
0000
0110
0000
0100
0001
1000
0000
,
0100
0000
0110
0000
0100
0010
0001
0000
,
1000
0101
0001
1100
,
0100
0010
0001
1000
0010
1000
0001
0010
,
0100
0000
0000
0000
0000
0000
0010
0001
,
1001
0001
1000
0010
,
1000
0010
1000
0010
1000
0000
0010
0000
,
0101
0001
0010
0100
,
1000
0100
0010
0001
1000
0000
0001
0100
,
0001
0100
0010
1000
,
0100
0000
1000
0010
0100
0000
0010
0000
,
2000
0000
3001
0000
0100
0000
0001
0010
,
0100
0000
0000
0010
0000
0000
0100
0000
0000
0000
0000
0000
0010
0000
0001
0000
,
1001
0001
1000
0010
,
1000
0010
0100
0001
0010
0000
0000
0000
,
0100
0010
0001
1000
,
0100
1000
0010
0001
0010
0000
0100
0001
,
1000
0001
0100
0001
,
0010
0100
1000
0100
0010
0000
0100
0000
,
2000
0000
0000
3000
,
0001
0100
0000
1010
0000
0010
0100
0001
,
1001
0110
1001
0110
,
0001
1000
0001
1000
0010
0100
1001
0000
,
0001
0000
0000
0100
0000
0000
0001
0000
0000
0100
0000
0000
0010
0000
1000
0000
,
0100
0000
0000
0000
1000
0000
0000
0000
0010
0000
0000
0100
0000
0000
0001
0000
,
1000
0000
0000
0100
0000
0000
1000
0000
0000
0010
0000
0000
0100
0000
0001
0000
,
0010
0100
0010
0001
1000
0000
0001
0100
,
0010
0000
0000
0010
0000
0000
0100
0000
0000
0100
0000
0000
0001
0000
1000
0000
,
0100
0000
1000
0000
0010
0000
0100
0000
0001
0000
0000
0001
0000
0000
1000
0000
,
0100
0000
0000
1000
0000
0000
0010
0000
0000
0100
0000
0000
0001
0000
0010
0000
,
0100
0001
0100
1000
0100
0001
0100
1000
,
0020
0000
0000
0030
,
0100
0001
0100
0001
0100
0001
0020
0000
,
0030
0000
0000
0000
;

//---------------dance-single - ----------------
#NOTEDATA:;
#CHARTNAME:;
#STEPSTYPE:dance-single;
#DESCRIPTION:;
#CHARTSTYLE:;
#DIFFICULTY:Easy;
#METER:4;
#RADARVALUES:0.278961,0.341219,0.081364,0.091534,0.000000,192.000000,184.000000,8.000000,9.000000,0.000000,0.000000,0.000000,0.000000,0.000000,0.278961,0.341219,0.081364,0.091534,0.000000,192.000000,184.000000,8.000000,9.000000,0.000000,0.000000,0.000000,0.000000,0.000000;
#CREDIT:;
#NOTES:
1001
0000
0000
0000
,
0001
0000
0100
0000
,
0010
0000
0000
0000
,
0100
0000
0001
0000
,
1001
0000
0000
0000
,
1010
0000
0000
0100
,
0101
0000
0000
0000
,
1001
0000
0000
0002
,
0013
0001
0100
0001
,
1000
0100
1000
0001
,
1000
0010
0100
0001
,
0010
0010
0010
0100
,
0010
0001
1000
0100
,
1000
0010
0100
0010
,
1000
0001
0010
0001
,
1000
0100
1000
0100
,
1000
0010
0100
0000
,
0010
1000
0001
0000
,
1000
0100
1000
0010
,
0100
0100
0100
0000
,
0001
1000
0010
0000
,
1000
0001
0100
0000
,
0001
1000
0100
1000
,
0010
0000
0100
0001
,
1000
0100
0010
0001
,
0010
0000
0001
0000
,
0100
0001
1000
0100
,
1000
0010
0000
0000
,
0100
0000
0000
0000
,
0010
0000
0000
0000
,
1000
0000
0001
0000
,
0200
0000
0000
0000
,
0300
0000
0000
0010
,
1000
0010
0100
0001
,
1000
1000
1000
0000
,
0001
1000
0010
0100
,
0001
0010
0001
0000
,
1000
0100
1000
0010
,
0100
0100
0100
0001
,
0200
0000
0300
0010
,
1000
0001
1000
0100
,
1000
0010
0100
0001
,
0010
0010
0010
0000
,
0001
1000
0010
1000
,
0100
0100
0100
1000
,
0010
0100
0001
1000
,
0010
0100
0001
0020
,
0200
0000
0000
0330
,
0100
0000
0000
0010
0000
0000
0001
0000
,
1000
0001
1000
0001
,
1001
1001
2002
3003
,
0001
0100
0001
0100
,
0010
1000
0010
0010
,
1000
0100
0001
0100
,
0010
0001
1000
0001
,
0100
0100
0001
0001
,
1000
0001
0100
0100
,
0001
0010
0100
0010
,
0001
0010
0001
1000
,
0020
0000
0000
0000
,
0000
0000
0000
0200
,
0330
0000
0000
0000
;

//---------------dance-single - ----------------
#NOTEDATA:;
#CHARTNAME:;
#STEPSTYPE:dance-single;
#DESCRIPTION:;
#CHARTSTYLE:;
#DIFFICULTY:Hard;
#METER:8;
#RADARVALUES:0.623304,0.651418,0.345796,0.294943,0.300028,429.000000,395.000000,34.000000,29.000000,0.000000,0.000000,0.000000,0.000000,0.000000,0.623304,0.651418,0.345796,0.294943,0.300028,429.000000,395.000000,34.000000,29.000000,0.000000,0.000000,0.000000,0.000000,0.000000;
#CREDIT:;
#NOTES:
0000
0000
0000
0000
,
0000
0000
0000
0000
,
0000
0000
0000
0000
,
0000
0000
0000
0000
,
2100
0010
0001
3100
,
0102
0000
0000
0000
0010
0000
0000
0000
1003
0000
0000
0000
0100
0001
1000
0001
,
0020
0100
1000
0031
,
1010
0000
0000
0011
0000
0000
1001
0000
0000
0000
0000
0000
0120
0000
0000
0000
,
1030
0000
0000
1100
0000
0000
0001
0000
0000
0101
0000
0000
1000
0000
0001
0000
,
1000
0010
1000
0000
0010
0000
0100
0000
0001
0000
0000
0001
0000
0000
0001
0000
,
1000
0000
0000
1010
0000
0000
0001
0000
0000
0011
0000
0000
0001
0000
1000
0000
,
0001
0100
0001
0000
0100
0000
0010
0000
2000
0000
0000
0000
3100
0000
0010
0000
,
0001
0000
0000
0011
0000
0000
1000
0000
0000
1010
0000
0000
0001
0000
1000
0000
,
0001
0100
0001
0000
0100
0000
0010
0000
1000
0000
0000
1000
0000
0000
1000
0000
,
0001
0000
0000
0101
0000
0000
1000
0000
0000
1100
0000
0000
1000
0000
0001
0000
,
1000
0010
1000
0010
1000
0000
0001
0010
0001
0010
0001
0000
1000
0000
0001
0000
,
1000
0100
0001
0100
2000
0000
3001
1000
,
0001
0000
0010
0000
1000
0000
0010
0000
0001
0000
1000
0100
0000
1000
0100
0000
,
1000
0010
0100
1000
0100
0010
1000
0002
,
0000
0010
0010
0013
0100
1000
0001
0000
,
1000
0010
0001
0010
2000
0000
3001
1000
,
0001
0100
0001
0100
0001
0000
0010
0000
0200
0000
0000
0000
1300
0000
0001
0000
,
1000
0010
0001
0010
1000
0100
0001
0100
,
0020
0000
0130
0000
1000
0010
0100
0001
,
1000
0000
0100
0001
0000
1000
0000
0010
,
0002
0000
1003
0010
0100
0100
0001
0000
,
2000
0000
3010
0020
0000
0230
0000
0302
,
0000
0010
0013
0010
0200
0000
1300
0001
,
1000
0010
0001
0010
0200
0000
0301
1000
,
0001
0010
1000
0010
0200
0000
1300
0001
,
1000
0010
0100
0001
1000
0100
0010
0001
,
1000
0000
0010
0000
0001
0000
0010
0000
0100
0000
0001
0000
1000
0001
1000
0001
,
0020
0000
0000
0000
0030
0000
0100
1000
,
1001
0000
0000
0000
0001
0000
1000
0010
1000
0000
0010
0000
0100
0000
0001
0000
,
1000
0100
0001
0100
2000
0000
3001
1000
,
1010
0000
0000
0000
1000
0000
0001
0010
0001
0000
0010
0000
0100
0000
1000
0000
,
0001
0100
1000
0100
0002
0000
1003
0001
,
0101
0000
0000
0000
0001
0000
1000
0010
1000
0000
0010
0000
0100
0000
0001
0000
,
1000
0100
0001
0100
1100
0000
0101
0000
,
1002
0000
0010
0000
0103
0000
0001
0100
,
1000
0000
0000
0010
0000
0000
0001
0000
1000
0000
0000
0000
0010
0000
1000
0000
,
1001
0000
0000
0000
1000
0000
0001
0100
0001
0000
0100
0000
0010
0000
1000
0000
,
0001
0010
1000
0010
0002
0000
1003
0001
,
0101
0000
0000
0000
0001
0000
1000
0100
1000
0000
0100
0000
0010
0000
0001
0000
,
1000
0010
0001
0010
2000
0000
3001
1000
,
1010
0000
0000
0000
1000
0000
0001
0100
0001
0000
0100
0000
0010
0000
1000
0000
,
0001
0010
1000
0010
0011
0000
1010
0000
,
2001
0000
0100
0000
3010
0000
1000
0010
,
0001
0000
0000
0100
0000
0000
1000
0000
0000
0000
0001
0000
0000
0000
1000
0000
,
0001
0000
0000
0001
0100
0000
0000
0100
0010
0000
0000
0010
1000
0000
0000
1000
,
0001
0000
0001
0000
0001
0000
0001
0000
1000
0100
0010
0001
1000
0000
0000
0000
,
0001
0000
0000
0011
0000
0000
1000
0000
0000
1010
0000
0000
0001
0000
1000
0000
,
0001
0100
0001
0000
0100
0000
0010
0000
1000
0000
0000
1000
0000
0000
1000
0000
,
0001
0000
0000
0101
0000
0000
1000
0000
0000
1100
0000
0000
1000
0000
0001
0000
,
1000
0010
1000
0000
0010
0000
0100
0000
0002
0000
0000
0000
0013
0000
0100
0000
,
1000
0000
0000
1100
0000
0000
0001
0000
0000
0101
0000
0000
1000
0000
0001
0000
,
1000
0010
1000
0000
0010
0000
0100
0000
0001
0000
0000
0001
0000
0000
0001
0000
,
1000
0000
0000
1010
0000
0000
0001
0000
0000
0011
0000
0000
0001
0000
1000
0000
,
0001
0100
0001
0100
0001
0000
1000
0100
1000
0100
1000
0000
0001
0000
1000
0000
,
0002
0010
0100
1003
,
0001
0000
0100
0000
1000
0000
0100
0000
0001
1000
0001
2000
0002
0000
0000
0000
,
3003
0000
0000
0000
;

//---------------dance-double - ----------------
#NOTEDATA:;
#CHARTNAME:;
#STEPSTYPE:dance-double;
#DESCRIPTION:;
#CHARTSTYLE:;
#DIFFICULTY:Hard;
#METER:8;
#RADARVALUES:0.602963,0.589378,0.447500,0.294943,0.208494,415.000000,371.000000,44.000000,29.000000,0.000000,0.000000,0.000000,0.000000,0.000000,0.602963,0.589378,0.447500,0.294943,0.208494,415.000000,371.000000,44.000000,29.000000,0.000000,0.000000,0.000000,0.000000,0.000000;
#CREDIT:;
#NOTES:
// measure 0
00000000
00000000
00000000
00000000
,  // measure 1
00000000
00000000
00000000
00000000
,  // measure 2
00000000
00000000
00000000
00000000
,  // measure 3
00000000
00000000
00000000
00000000
,  // measure 4
00012000
00100000
01000000
01003000
,  // measure 5
00021000
00000000
00000010
00000000
00030100
00000000
00010000
00000010
,  // measure 6
00000200
00000001
00001000
00000301
,  // measure 7
00000101
00000000
00000000
00001100
00000000
00000000
00002002
00000000
00000000
00000000
00003000
00000000
00000200
00000000
00000303
00000000
,  // measure 8
00000001
00000000
00000000
00000011
00000000
00000000
00001000
00000000
00000000
00001010
00000000
00000000
00000001
00000000
00001000
00000000
,  // measure 9
00000010
00001000
00000010
00000000
00010000
00000000
00000100
00000000
00100000
00000000
00000000
00100000
00000000
00000000
00100000
00000000
,  // measure 10
00010000
00000000
00000000
01010000
00000000
00000000
10000000
00000000
00000000
11000000
00000000
00000000
10000000
00000000
00010000
00000000
,  // measure 11
10000000
00100000
01000000
00000000
00001000
00000000
00010000
00000000
00012000
00000000
00000000
00000000
00103000
00000000
01000000
00000000
,  // measure 12
10000000
00000000
00000000
11000000
00000000
00000000
00010000
00000000
00000000
01010000
00000000
00000000
10000000
00000000
00010000
00000000
,  // measure 13
01000000
00010000
01000000
00000000
00001000
00000000
00100000
00000000
00000100
00000000
00000000
00000100
00000000
00000000
00000100
00000000
,  // measure 14
00001000
00000000
00000000
00001010
00000000
00000000
00000001
00000000
00000000
00000011
00000000
00000000
00000001
00000000
00001000
00000000
,  // measure 15
00000001
00000100
00000010
00000000
00010000
00000000
00001000
00100000
00010000
00000000
10000000
00000000
01000000
00000000
01000000
00000000
,  // measure 16
10000000
00100000
00010000
00100000
02000000
00000000
03010000
00000000
,  // measure 17
10000000
01000000
00010000
01000000
00200000
00000000
00310000
00000000
,  // measure 18
10000000
00100000
00010000
00001000
00000100
00000001
00001000
00000200
,  // measure 19
00000000
00000010
00000010
00000310
00000001
00001000
00001001
00000000
,  // measure 20
00000001
00000100
00001000
00010000
00002000
00000000
00003100
00000000
,  // measure 21
00000010
00010000
00001000
00100000
00020000
00000000
10030000
00000000
,  // measure 22
00010000
01000000
10000000
01000000
00001000
00010000
00000100
00001000
,  // measure 23
00000002
00000000
00001003
00000000
00000001
00000100
00001000
00000100
,  // measure 24
00000020
00000000
00001030
00001010
00000000
00010100
00000000
00100000
,  // measure 25
00002000
00000000
01003000
00100000
10000000
10000000
00010000
00000000
,  // measure 26
10000000
01000000
00010000
01000000
00100000
00001000
00010000
00000200
,  // measure 27
00000000
00000010
00000310
00000002
00000000
00001000
00001003
00000000
,  // measure 28
00000001
00000100
00001000
00010000
00002000
00000000
00003100
00000000
,  // measure 29
00000010
00001000
00000100
00000001
00000200
00000000
00000310
00000001
,  // measure 30
00000100
00000000
00000010
00001010
00000000
00010100
00000000
00101000
,  // measure 31
00001000
01000000
10000000
01000000
00100000
10000000
00001000
00010000
,  // measure 32
00022000
00000000
00000000
00000000
00033000
00000000
00001000
01000000
,  // measure 33
10100000
00000000
10000000
01000000
00010000
01000000
00100000
00010000
,  // measure 34
10000000
10000000
00010000
00010000
10010000
00000000
10000000
00100000
,  // measure 35
00110000
00000000
00010000
00100000
01000000
01000000
00001000
00001000
,  // measure 36
00010000
00000100
00001000
00000001
00000100
00000000
00000001
00001000
,  // measure 37
00001001
00000000
00000001
00000100
00001000
00001000
00010000
00010000
,  // measure 38
00100000
00100000
01000000
01000000
00001000
00000000
00010000
00000000
,  // measure 39
00021000
00000000
00000100
00000000
00030010
00000000
00010000
00000010
,  // measure 40
00000100
00000000
00000000
00000100
00000000
00000000
00000200
00000000
00000300
00000000
00000000
00000000
00000001
00000000
00001000
00000000
,  // measure 41
00001001
00000000
00000000
00000000
00000001
00000000
00000100
00000010
00000100
00000000
00000001
00000000
00001000
00000000
00000001
00000000
,  // measure 42
00000010
00001000
00010000
00001000
00000010
00000000
00000001
00010000
,  // measure 43
00011000
00000000
00000000
00000000
00001000
00000000
01000000
00100000
01000000
00000000
00010000
00000000
00100000
00000000
10000000
00000000
,  // measure 44
00100000
00010000
01000000
00001000
00010000
00000000
00000100
00000010
,  // measure 45
00001001
00000000
00000000
00000000
00000001
00000000
00000100
00001000
00000100
00000000
00000010
00000000
00010000
00000000
00001000
00000000
,  // measure 46
00000100
00000010
00010000
00001000
00100000
00000000
01010000
00000000
,  // measure 47
21000000
00000000
00100000
00000000
30010000
00000000
10000000
00100000
,  // measure 48
00010000
00100000
00000000
00110000
00000000
10100000
00000000
10010000
,  // measure 49
10000000
00000000
00000000
10000000
01000000
00000000
00000000
01000000
00100000
00000000
00000000
00100000
00001000
00000000
00000000
00001000
,  // measure 50
00010000
00000000
00010000
00000000
00000010
00000000
00000010
00000000
00000100
00000001
00001000
00000001
00000020
00000000
00000030
00000000
,  // measure 51
00000001
00000000
00000000
00000011
00000000
00000000
00001000
00000000
00000000
00001010
00000000
00000000
00000001
00000000
00001000
00000000
,  // measure 52
00000010
00001000
00000010
00000000
00010000
00000000
00000100
00000000
00100000
00000000
00000000
00100000
00000000
00000000
00100000
00000000
,  // measure 53
00010000
00000000
00000000
01010000
00000000
00000000
10000000
00000000
00000000
11000000
00000000
00000000
10000000
00000000
00010000
00000000
,  // measure 54
10000000
00100000
01000000
00000000
00001000
00000000
00010000
00000000
00012000
00000000
00000000
00000000
00103000
00000000
01000000
00000000
,  // measure 55
10000000
00000000
00000000
11000000
00000000
00000000
00010000
00000000
00000000
01010000
00000000
00000000
10000000
00000000
00010000
00000000
,  // measure 56
01000000
00010000
01000000
00000000
00001000
00000000
00100000
00000000
00000100
00000000
00000000
00000100
00000000
00000000
00000100
00000000
,  // measure 57
00001000
00000000
00000000
00001010
00000000
00000000
00000001
00000000
00000000
00000011
00000000
00000000
00000001
00000000
00001000
00000000
,  // measure 58
00000001
00000100
00000010
00000000
00010000
00000000
00001000
00100000
00010000
00000000
10000000
00000000
01000000
00000000
01000000
00000000
,  // measure 59
20000000
00010000
00100000
31000000
,  // measure 60
10000000
00100000
00010000
00001000
00000010
00000001
00002002
00000000
,  // measure 61
00003003
00000000
00000000
00000000
;
