#TITLE:TOKYO ALL READY;
#SUBTITLE:;
#ARTIST:JUDY CRYSTAL;
#TITLETRANSLIT:;
#SUBTITLETRANSLIT:;
#ARTISTTRANSLIT:;
#GENRE:EUROBEAT;
#CREDIT:;
#BANNER:TOKYO ALL READY.png;
#BACKGROUND:TOKYO ALL READY-bg.png;
#JACKET:TOKYO ALL READY-jacket.png;
#LYRICSPATH:TOKYO ALL READY.lrc;
#CDTITLE:cdtitle.png;
#MUSIC:TOKYO ALL READY.ogg;
#OFFSET:0.000;
#SAMPLESTART:31.164;
#SAMPLELENGTH:12.468;
#SELECTABLE:YES;
#BPMS:0.000=154.000
;
#STOPS:
;
#BGCHANGES:;
#KEYSOUNDS:;
#ATTACKS:;

//---------------dance-single - xRGTMx----------------
#NOTES:
     dance-single:
     xRGTMx-EXP:
     Hard:
     11:
     0.631,0.526,0.321,0.580,0.207,340.000,31.000,56.000,0.000,0.000,0.000,0.631,0.526,0.321,0.580,0.207,340.000,31.000,56.000,0.000,0.000,0.000: // measure 0
0000
0000
0000
0000
,  // measure 1
0000
0000
0000
0000
,  // measure 2
0000
0000
0000
0000
,  // measure 3
0000
0000
0000
0000
,  // measure 4
0010
1000
0010
1000
0001
0010
0001
0010
,  // measure 5
0100
1000
0001
0000
0100
0000
0100
0000
,  // measure 6
0001
0010
0001
1000
0010
1000
0100
0020
,  // measure 7
0000
0001
0000
0100
0000
1000
0000
0000
,  // measure 8
0130
1000
0100
1000
0001
0100
0001
0100
,  // measure 9
0010
1000
0001
0000
0010
0000
0010
0000
,  // measure 10
0001
0100
0001
1000
0100
1000
0010
0020
,  // measure 11
0000
1030
0100
0010
0001
1000
1001
0000
,  // measure 12
1000
0010
0100
0002
0000
0013
0100
1000
,  // measure 13
0001
0200
0000
0310
0010
0100
0001
0000
,  // measure 14
1000
0100
0010
0002
0000
0103
0010
1000
,  // measure 15
0001
0020
0000
0100
0130
0010
0001
0000
,  // measure 16
1000
0010
0100
0202
0000
0303
0000
0001
,  // measure 17
0010
0100
1000
2200
0000
3300
0000
0000
,  // measure 18
1001
0000
0000
0000
1000
0000
0001
0000
0010
0100
0000
0100
1000
0000
0010
0000
,  // measure 19
0200
0000
0000
0000
0010
0000
0010
0300
,  // measure 20
0110
0000
1001
0000
1000
0100
0000
0120
,  // measure 21
0000
0000
0031
0000
0100
0000
0001
0000
1000
0000
0100
0000
1000
0001
0000
0001
,  // measure 22
2000
3020
0032
0203
,  // measure 23
1300
0000
0010
0100
0000
0100
0001
0000
1000
0000
0100
0000
0010
0000
0000
0000
,  // measure 24
0110
0000
1001
0000
0001
0100
0000
0120
,  // measure 25
0000
0000
1030
0000
0100
0000
1000
0000
0001
0000
0100
0000
0001
1000
0000
1000
,  // measure 26
0002
0000
0023
0000
2030
0000
3200
0300
,  // measure 27
0000
0001
0010
0100
1000
0110
0000
0000
,  // measure 28
1001
0000
0000
0000
1000
0100
1000
0100
0010
0000
0002
0000
0000
0000
0203
0000
,  // measure 29
0000
0310
0010
0100
0001
2000
0000
0000
,  // measure 30
3100
0000
0000
0000
0010
0001
0010
0001
1000
0000
0020
0000
0000
0000
0230
0000
,  // measure 31
0000
0301
0010
1000
0010
0001
1000
0000
,  // measure 32
1001
0000
0000
0000
0001
0100
0001
0100
0010
0000
2000
0000
0000
0000
3200
0000
,  // measure 33
0000
0310
0100
0000
1000
0001
0100
0000
,  // measure 34
0110
0000
1010
0000
0001
0020
0000
0000
,  // measure 35
0130
0000
0000
1000
0000
0000
0010
0000
0000
0010
0100
0000
1001
0000
0000
0000
,  // measure 36
1010
0000
0000
0000
0011
0000
0000
0110
,  // measure 37
0000
0000
0000
0000
0010
0000
0001
0000
1000
0000
0010
0000
1000
0001
0000
0001
,  // measure 38
2000
3200
0302
0023
,  // measure 39
1030
0000
0100
0010
0000
0010
0001
0000
1000
0000
0010
0000
0100
0000
0000
0000
,  // measure 40
0110
0000
1001
0000
0001
0010
0000
0210
,  // measure 41
0000
0000
1300
0000
0010
0000
1000
0000
0001
0000
0010
0000
0001
1000
0000
1000
,  // measure 42
0002
0000
0203
0000
2300
0000
3020
0030
,  // measure 43
0000
0001
0100
0010
1000
0110
0000
0000
,  // measure 44
1001
0000
0000
0000
1000
0010
1000
0010
0100
0000
0002
0000
0000
0000
0023
0000
,  // measure 45
0000
0130
0100
0010
0001
2000
0000
0000
,  // measure 46
3010
0000
0000
0000
0100
0001
0100
0001
1000
0000
0200
0000
0000
0000
0320
0000
,  // measure 47
0000
0031
0100
1000
0100
0001
1000
0000
,  // measure 48
1001
0000
0000
0000
0001
0010
0001
0010
0100
0000
2000
0000
0000
0000
3020
0000
,  // measure 49
0000
0130
0010
0000
1000
0001
0010
0000
,  // measure 50
0110
0000
1100
0000
0001
0200
0000
0000
,  // measure 51
0310
0000
0000
1000
0000
0000
0100
0000
0000
0100
0010
0000
2002
0000
0000
0000
,  // measure 52
3003
0000
0000
0000
1000
0100
1000
0010
0100
0000
0002
0000
0000
0000
0023
0000
,  // measure 53
0000
0130
0100
0010
0001
2000
0000
0000
,  // measure 54
3010
0000
0000
0000
0100
0001
0010
0001
1000
0000
0200
0000
0000
0000
0320
0000
,  // measure 55
0000
0031
0100
1000
0100
0001
1000
0000
,  // measure 56
1001
0000
0000
0000
0001
0010
0001
0100
0010
0000
2000
0000
0000
0000
3020
0000
,  // measure 57
0000
0130
0010
0000
1000
0001
0010
0000
,  // measure 58
0110
0000
1100
0000
0001
0200
0000
0000
,  // measure 59
0310
1000
0000
1000
0100
0000
0100
0010
0000
0010
0001
0000
1000
0000
0000
0000
;

//---------------dance-single - xRGTMx----------------
#NOTES:
     dance-single:
     xRGTMx-DIF:
     Medium:
     9:
     0.486,0.433,0.383,0.197,0.016,273.000,37.000,19.000,0.000,0.000,0.000,0.486,0.433,0.383,0.197,0.016,273.000,37.000,19.000,0.000,0.000,0.000: // measure 0
0000
0000
0000
0000
,  // measure 1
0000
0000
0000
0000
,  // measure 2
0000
0000
0000
0000
,  // measure 3
0000
0000
0000
0000
,  // measure 4
0001
0010
0100
1000
0000
0010
0000
0200
,  // measure 5
0000
1000
0000
0001
0000
0000
0300
0000
,  // measure 6
0010
1000
0010
0100
0000
0002
0000
0023
,  // measure 7
0000
0230
0000
2300
0000
0000
3001
0000
,  // measure 8
1000
0100
0010
0001
0000
0100
0000
0020
,  // measure 9
0000
0001
0000
1000
0000
0000
0130
0000
,  // measure 10
0001
0010
0100
0000
0010
0100
1000
0000
,  // measure 11
0001
0100
1000
0100
0002
0000
1003
0000
,  // measure 12
1100
0001
0101
1000
,  // measure 13
1100
0110
1001
0100
,  // measure 14
0101
1000
1100
0001
,  // measure 15
0101
0110
1001
0100
,  // measure 16
1000
0000
0010
0200
0000
1000
0000
0000
,  // measure 17
0301
0000
0010
0200
0000
0001
0000
0000
,  // measure 18
1300
0000
0010
0100
0000
0101
0000
2002
,  // measure 19
0000
3003
0010
0010
,  // measure 20
0110
0000
1001
0000
1000
0100
0000
0120
,  // measure 21
0000
0000
0031
0100
0001
1000
0001
0000
,  // measure 22
1000
0000
0100
0000
0001
0000
0010
1000
,  // measure 23
0000
0100
0010
0100
1000
0000
0001
0000
,  // measure 24
0110
0000
1001
0000
0001
0100
0000
0120
,  // measure 25
0000
0000
1030
0100
1000
0001
1000
0000
,  // measure 26
0001
0000
0100
1000
0000
0010
0000
0002
,  // measure 27
0000
0103
0010
0010
0100
0100
0000
0000
,  // measure 28
1001
0000
1000
0100
0010
0100
0000
1000
,  // measure 29
0000
1000
0001
0100
0001
0100
0000
0000
,  // measure 30
1001
0000
1000
0010
0100
0010
0000
1000
,  // measure 31
0000
1000
0001
0000
0001
0010
0100
0000
,  // measure 32
1001
0000
0001
0100
0010
0100
0000
0001
,  // measure 33
0000
0001
1000
0000
0100
1000
0100
0000
,  // measure 34
1001
0000
0001
0000
0100
0020
0000
0000
,  // measure 35
1030
0000
0000
0100
0000
0000
0010
0000
0000
0000
0001
0000
1000
0000
0000
0000
,  // measure 36
0110
0000
0000
0000
0101
0000
0000
1001
,  // measure 37
0000
0000
0001
0010
0001
1000
0001
0000
,  // measure 38
1000
0000
0010
0000
0001
0000
0100
1000
,  // measure 39
0000
0010
0100
0010
1000
0000
0001
0000
,  // measure 40
0110
0000
1001
0000
0001
0010
0000
0210
,  // measure 41
0000
0000
1300
0010
1000
0001
1000
0000
,  // measure 42
0001
0000
0010
1000
0000
0100
0000
0002
,  // measure 43
0000
0013
0100
0100
0010
0010
0000
0000
,  // measure 44
1001
0000
1000
0010
0100
0010
0000
1000
,  // measure 45
0000
1000
0001
0010
0001
0010
0000
0000
,  // measure 46
1001
0000
1000
0100
0010
0100
0000
1000
,  // measure 47
0000
1000
0001
0000
0001
0100
0010
0000
,  // measure 48
1001
0000
0001
0010
0100
0010
0000
0001
,  // measure 49
0000
0001
1000
0000
0010
1000
0010
0000
,  // measure 50
1001
0000
0001
0000
0010
0200
0000
0000
,  // measure 51
1300
0000
0000
0010
0000
0000
0100
0000
0000
0000
0001
0000
1000
0000
0000
0000
,  // measure 52
1001
0000
1000
0100
0001
0100
0000
1000
,  // measure 53
0000
1000
0001
0100
1000
0100
0000
0000
,  // measure 54
1001
0000
1000
0010
0001
0010
0000
1000
,  // measure 55
0000
1000
0100
0000
0001
0010
0001
0000
,  // measure 56
1001
0000
0001
0100
1000
0100
0000
0001
,  // measure 57
0000
0001
1000
0000
0100
0001
0100
0000
,  // measure 58
1001
0000
0001
0000
0100
2000
0000
0000
,  // measure 59
3100
0000
0000
0001
0000
0000
0010
0000
0000
0000
0100
0000
1001
0000
0000
0000
;

//---------------dance-single - xRGTMx----------------
#NOTES:
     dance-single:
     xRGTMx-BAS:
     Easy:
     5:
     0.327,0.309,0.321,0.124,0.000,178.000,31.000,12.000,0.000,0.000,0.000,0.327,0.309,0.321,0.124,0.000,178.000,31.000,12.000,0.000,0.000,0.000: // measure 0
0000
0000
0000
0000
,  // measure 1
0000
0000
0000
0000
,  // measure 2
0000
0000
0000
0000
,  // measure 3
0000
0000
0000
0000
,  // measure 4
1000
1000
0010
0010
,  // measure 5
0100
0001
1000
0000
,  // measure 6
0001
0100
0100
1000
,  // measure 7
0100
0001
0010
0000
,  // measure 8
0100
1000
0100
0010
,  // measure 9
0100
1000
0001
0000
,  // measure 10
1000
0010
0100
0001
,  // measure 11
0020
0000
0130
0000
,  // measure 12
1001
0100
1001
0100
,  // measure 13
1001
1000
0001
0000
,  // measure 14
1001
0100
1001
0100
,  // measure 15
1001
0001
1000
0000
,  // measure 16
1000
0010
0200
0300
,  // measure 17
0001
0010
0200
0300
,  // measure 18
1000
1000
0001
0001
,  // measure 19
0110
0000
1001
1001
,  // measure 20
1001
0000
0000
0000
2000
0000
0000
3000
,  // measure 21
0000
0010
0010
0010
,  // measure 22
0100
0001
1000
0100
,  // measure 23
0010
0100
0110
0000
,  // measure 24
1001
0000
0000
0000
0002
0000
0000
0003
,  // measure 25
0000
0100
0100
0100
,  // measure 26
0010
1000
0001
0010
,  // measure 27
0000
0000
0100
0000
2002
3003
0000
0000
,  // measure 28
1000
1000
0010
0000
,  // measure 29
0001
0001
0010
0000
,  // measure 30
0100
0100
0010
0000
,  // measure 31
1000
0001
1000
1001
,  // measure 32
0001
0001
0010
0000
,  // measure 33
1000
1000
0010
0000
,  // measure 34
0100
0100
0010
0000
,  // measure 35
0001
1000
0001
0110
,  // measure 36
1001
0000
0000
0000
0220
0000
0000
0330
,  // measure 37
0000
0010
0010
0010
,  // measure 38
0100
0001
1000
0100
,  // measure 39
0010
0100
0110
0000
,  // measure 40
1001
0000
0000
0000
0002
0000
0000
0003
,  // measure 41
0000
0100
0100
0100
,  // measure 42
0010
1000
0001
0010
,  // measure 43
0000
0000
0100
0000
2002
3003
0000
0000
,  // measure 44
1000
1000
0100
0000
,  // measure 45
0001
0001
0100
0000
,  // measure 46
0010
0010
0100
0000
,  // measure 47
1000
0001
1000
1001
,  // measure 48
0001
0001
0100
0000
,  // measure 49
1000
1000
0100
0000
,  // measure 50
0010
0010
0100
0000
,  // measure 51
0001
1000
0001
0110
,  // measure 52
1001
1000
0100
0000
,  // measure 53
1001
0001
0100
0000
,  // measure 54
0110
0010
0100
0000
,  // measure 55
1000
1001
0001
0110
,  // measure 56
1001
0001
0100
0000
,  // measure 57
1001
1000
0100
0000
,  // measure 58
0110
0010
0100
0000
,  // measure 59
0001
1000
0001
0110
;

//---------------dance-single - xRGTMx----------------
#NOTES:
     dance-single:
     xRGTMx-BEG:
     Beginner:
     3:
     0.232,0.247,0.186,0.145,0.000,125.000,18.000,14.000,0.000,0.000,0.000,0.232,0.247,0.186,0.145,0.000,125.000,18.000,14.000,0.000,0.000,0.000: // measure 0
0000
0000
0000
0000
,  // measure 1
0000
0000
0000
0000
,  // measure 2
0000
0000
0000
0000
,  // measure 3
0000
0000
0000
0000
,  // measure 4
0010
0000
0010
0000
,  // measure 5
1000
0000
0100
0000
,  // measure 6
0010
0000
0010
0000
,  // measure 7
0001
0000
0100
0000
,  // measure 8
0001
0001
0001
0000
,  // measure 9
1000
1000
1000
0000
,  // measure 10
0100
0000
0010
0000
,  // measure 11
0110
0000
1001
0000
,  // measure 12
1000
1000
0000
0000
,  // measure 13
0001
0001
0000
0000
,  // measure 14
0010
0010
0000
0000
,  // measure 15
0100
0100
0000
0000
,  // measure 16
1000
1000
1000
0000
,  // measure 17
0001
0001
0001
0000
,  // measure 18
0100
0000
0010
0000
,  // measure 19
0110
0000
1000
0001
,  // measure 20
1000
0000
1000
0000
,  // measure 21
0100
0000
0100
0000
,  // measure 22
0010
0000
0010
0000
,  // measure 23
0001
0001
0001
0000
,  // measure 24
0001
0000
0001
0000
,  // measure 25
0100
0000
0100
0000
,  // measure 26
0010
0000
0010
0000
,  // measure 27
0000
1000
1000
0000
,  // measure 28
1001
0000
0001
0000
,  // measure 29
0100
0100
0100
0000
,  // measure 30
1001
0000
1000
0000
,  // measure 31
0100
0100
0100
0000
,  // measure 32
0020
0030
0020
0030
,  // measure 33
0200
0300
0200
0300
,  // measure 34
1000
0000
0001
0000
,  // measure 35
0110
0000
0000
1001
,  // measure 36
1001
0000
0000
0000
2002
0000
0000
3003
,  // measure 37
0000
0000
0100
0000
,  // measure 38
0010
0000
0010
0000
,  // measure 39
0001
0001
0001
0000
,  // measure 40
0001
0000
0001
0000
,  // measure 41
0100
0000
0100
0000
,  // measure 42
0010
0000
0010
0000
,  // measure 43
0000
1000
1000
0000
,  // measure 44
1001
0000
1000
0000
,  // measure 45
0100
0100
0100
0000
,  // measure 46
1001
0000
0001
0000
,  // measure 47
0100
0100
0100
0000
,  // measure 48
0020
0030
0020
0030
,  // measure 49
0200
0300
0200
0300
,  // measure 50
0001
0000
1000
0000
,  // measure 51
0110
0000
0000
1001
,  // measure 52
1001
0000
0001
0000
,  // measure 53
0010
0010
0010
0000
,  // measure 54
1001
0000
1000
0000
,  // measure 55
0010
0010
0010
0000
,  // measure 56
0200
0300
0020
0030
,  // measure 57
0200
0300
0020
0030
,  // measure 58
1000
0000
0001
0000
,  // measure 59
0110
0000
0000
0110
0000
0000
1001
0000
;
