#TITLE:OVERTIME;
#SUBTITLE:;
#ARTIST:CASH CASH;
#TITLETRANSLIT:;
#SUBTITLETRANSLIT:;
#ARTISTTRANSLIT:;
#GENRE:MOOMBAHTON;
#CREDIT:;
#BANNER:OVERTIME.png;
#BACKGROUND:OVERTIME-bg.png;
#JACKET:OVERTIME-jacket.png;
#LYRICSPATH:OVERTIME.lrc;
#CDTITLE:cdtitle.png;
#MUSIC:OVERTIME.ogg;
#OFFSET:0.000;
#SAMPLESTART:8.117;
#SAMPLELENGTH:16.842;
#SELECTABLE:YES;
#BPMS:0.000=114.000
;
#STOPS:14.000=0.526,
109.000=0.526
;
#BGCHANGES:;
#KEYSOUNDS:;
#ATTACKS:;

//---------------dance-single - xRGTMx----------------
#NOTES:
     dance-single:
     xRGTMx-CHA:
     Challenge:
     15:
     0.755,0.786,0.502,0.485,0.825,479.000,56.000,54.000,0.000,0.000,0.000,0.755,0.786,0.502,0.485,0.825,479.000,56.000,54.000,0.000,0.000,0.000: // measure 0
0000
0000
0000
0000
,  // measure 1
0000
0000
0000
0000
,  // measure 2
0000
0000
0000
0000
,  // measure 3
0000
0000
0000
0000
0000
0000
0000
0000
0220
0330
0000
0000
1001
0000
0000
0000
,  // measure 4
1000
0000
0001
0010
0000
0010
0100
0000
2000
0010
3020
0000
0130
0000
0001
1000
,  // measure 5
0000
1000
0001
0000
0110
0000
0000
0000
1001
0000
1000
0000
1200
0000
0000
0000
,  // measure 6
0301
0000
0100
1000
0000
0001
0100
0010
0110
0000
0000
0000
0010
0000
1000
0000
,  // measure 7
0100
0001
0010
1000
0100
0000
1001
0000
,  // measure 8
0001
0000
1000
0010
0000
0010
0100
0000
0002
0010
0023
0000
0130
0000
1000
0001
,  // measure 9
0000
0001
1000
0000
0110
0000
0000
0000
1001
0000
0001
0000
0201
0000
0000
0000
,  // measure 10
1300
0000
0100
0001
0000
1000
0100
0010
0110
0000
0000
0000
0010
0000
0001
0000
,  // measure 11
0100
0000
1000
0000
0020
0000
0000
0130
0110
0010
0001
1000
0010
1000
0010
0100
,  // measure 12
0001
0100
0010
1000
0100
0010
0001
0010
0200
0000
0000
0000
1300
0010
0001
0010
,  // measure 13
1000
0100
0010
0002
0010
0000
1000
0000
0203
0000
1000
0000
0301
0010
0100
0001
,  // measure 14
0100
1000
0010
0100
1000
0100
0010
1000
0200
0010
0010
0300
0100
1000
0001
0100
,  // measure 15
0010
1000
0100
0020
0030
0010
0020
0001
0032
1000
1003
0001
1000
0010
0001
1000
,  // measure 16
0001
0010
1000
0100
0010
0001
0100
0110
0000
0010
1001
0000
0001
0010
1000
0001
,  // measure 17
1000
0010
0001
0100
0010
1000
0100
0010
0210
0000
0000
0000
0301
0100
1000
0001
,  // measure 18
1000
0010
0001
1000
0001
0010
0100
0110
0000
0010
1001
0000
1000
0100
0010
0001
,  // measure 19
0100
0010
2000
0010
0000
3020
2000
0000
3030
0000
0000
1000
1002
0000
0000
0000
,  // measure 20
0000
0000
1000
0000
0000
1000
0000
0000
2003
0000
0000
0000
0000
0000
0100
0000
,  // measure 21
0000
0100
0000
0000
3200
0000
0000
0000
0320
0000
0000
0000
0032
0000
0000
0000
,  // measure 22
0000
0000
1000
0000
0000
1000
0000
0000
2003
0000
0000
0000
0000
0000
0010
0000
,  // measure 23
0000
0010
0000
0000
3020
0000
0000
0000
0130
0100
0100
0000
1001
0000
0000
0000
,  // measure 24
1000
0010
1000
0100
0010
0001
0100
0010
,  // measure 25
1000
0000
0000
0000
0001
0000
0000
0000
0100
0000
0000
0000
0001
0010
0001
0000
0000
0000
0001
0000
0010
0000
0100
0000
2000
0000
0000
0000
0000
0000
0000
0000
,  // measure 26
0010
0000
0000
0000
0000
0000
0000
0000
0001
0000
0000
0000
0000
0000
0000
0000
0100
0000
0000
0000
0000
0000
0000
0000
3010
0000
1000
0010
1000
0000
0001
1000
,  // measure 27
0001
0000
0010
0001
0010
0000
0100
0010
0200
0000
0300
0000
0000
0000
0000
0000
1001
0000
0000
0000
0000
0000
0000
0000
1000
0000
0010
0000
0010
0000
0010
0000
,  // measure 28
0010
0000
0110
0000
1002
0000
0000
0000
0103
0000
0001
0010
0000
0010
0010
0010
,  // measure 29
0110
0000
1001
0000
1010
0010
0100
0001
1000
0000
0000
0001
1000
0100
0100
0100
,  // measure 30
0000
0000
0110
0000
2001
0000
0000
0000
3010
0000
0110
0000
0000
0101
0000
0000
,  // measure 31
2001
0000
3100
0000
0120
0000
0031
1000
1001
0000
0000
0000
0001
0100
0100
0100
,  // measure 32
0100
0000
0110
0000
2001
0000
0000
0000
3010
0000
1000
0100
0000
0100
0100
0100
,  // measure 33
0110
0000
1001
0000
0101
0100
0010
1000
0001
0000
0000
1000
0001
0010
0010
0010
,  // measure 34
0000
0000
0110
0000
1002
0000
0000
0000
0203
0000
0010
0000
0000
0010
0000
0000
,  // measure 35
0310
0000
0000
0000
1000
0000
0000
0001
1000
0000
0100
0000
0010
0000
0001
0000
1001
0000
0000
0000
0000
0000
0000
0000
0001
0000
0000
0000
1000
0000
0100
0000
,  // measure 36
0000
0100
0010
0000
0002
0100
0203
0000
0310
0000
1000
0001
0000
0001
1000
0000
,  // measure 37
0110
0000
0000
0000
1001
0000
0001
0000
0021
0000
0000
0000
1030
0000
0010
0001
,  // measure 38
0000
1000
0010
0100
0110
0000
0000
0000
0100
0000
0001
0000
0010
0000
1000
0000
,  // measure 39
0100
0000
0001
0000
0010
0000
0000
0000
1001
0000
0000
0000
1000
0000
0001
0100
,  // measure 40
0000
0100
0010
0000
2000
0100
3200
0000
0310
0000
0001
1000
0000
1000
0001
0000
,  // measure 41
0110
0000
0000
0000
1001
0000
1000
0000
1020
0000
0000
0000
0031
0000
0010
1000
,  // measure 42
0000
0001
0010
0100
0110
0000
0000
0000
0100
0000
1000
0000
0010
0000
0001
0000
,  // measure 43
0200
0000
0000
0000
0000
0000
0310
0000
0110
0000
0100
0000
1000
0000
0001
0000
0001
0000
0100
0001
0100
0000
0010
0000
1000
0000
0010
0000
0100
0000
0001
0000
,  // measure 44
0010
0100
1000
0100
0020
0000
0000
0000
0031
0100
1000
0100
0001
0010
0100
2000
,  // measure 45
0100
0000
0001
0000
3020
0000
0001
0000
1030
0100
0010
1000
0010
0001
0100
0010
,  // measure 46
0001
0010
0100
0001
0020
0100
0100
0030
0010
0001
1000
0010
0100
0001
0010
0200
,  // measure 47
0300
0100
0200
1000
2300
0001
3001
1000
0001
0100
1000
0001
1000
0100
0001
0010
,  // measure 48
0100
1000
0010
0110
0000
0100
1001
0000
1000
0100
0001
1000
0001
0100
1000
0010
,  // measure 49
0100
0001
0010
0100
0120
0000
0000
0000
1030
0010
0001
1000
0001
0100
1000
0001
,  // measure 50
1000
0100
0010
0110
0000
0100
1001
0000
0001
0010
0100
1000
0010
0100
0002
0100
,  // measure 51
0000
0203
0002
0000
0303
0000
0001
1000
1001
0000
0000
0000
0000
0000
0000
0000
;

//---------------dance-single - xRGTMx----------------
#NOTES:
     dance-single:
     xRGTMx-EXP:
     Hard:
     10:
     0.436,0.393,0.251,0.305,0.112,278.000,28.000,34.000,0.000,0.000,0.000,0.436,0.393,0.251,0.305,0.112,278.000,28.000,34.000,0.000,0.000,0.000: // measure 0
0000
0000
0000
0000
,  // measure 1
0000
0000
0000
0000
,  // measure 2
0000
0000
0000
0000
,  // measure 3
0000
0000
0000
0000
0000
0000
0000
0000
0220
0330
0000
0000
1001
0000
0000
0000
,  // measure 4
0010
0000
0000
0000
1000
0000
0001
0000
0010
0000
0000
0000
0100
0000
0010
0100
,  // measure 5
0000
0100
1000
0000
0001
0000
0000
0000
0100
0000
0000
0000
1001
0000
0000
0000
,  // measure 6
0010
0000
0001
1000
0010
0000
1000
0100
,  // measure 7
0001
0100
1000
0010
0100
0000
1001
0000
,  // measure 8
0100
0000
0000
0000
1000
0000
0001
0000
0100
0000
0000
0000
0010
0000
0100
0010
,  // measure 9
0000
0010
1000
0000
0001
0000
0000
0000
0010
0000
0000
0000
1001
0000
0000
0000
,  // measure 10
0100
0000
0001
1000
0100
0000
1000
0010
,  // measure 11
0001
0010
0200
0000
0310
0010
2001
0000
,  // measure 12
3200
0000
0301
0100
1000
0000
0010
0100
,  // measure 13
0002
0010
1003
2001
,  // measure 14
3020
0000
0031
0010
1000
0000
0100
0010
,  // measure 15
0002
0100
0000
1000
1003
0000
0001
0010
,  // measure 16
0100
2000
0000
0010
3001
0000
1000
0010
,  // measure 17
0100
0002
0000
0010
1003
0000
0001
1000
,  // measure 18
0010
0100
0000
0010
1001
0000
1000
0100
,  // measure 19
0010
0001
0100
0010
1000
0000
1002
0000
,  // measure 20
0000
0000
1000
0000
0000
1000
0000
0000
2003
0000
0000
0000
0000
0000
0100
0000
,  // measure 21
0000
0100
0000
0000
3200
0000
0000
0000
0320
0000
0000
0000
0032
0000
0000
0000
,  // measure 22
0000
0000
1000
0000
0000
1000
0000
0000
2003
0000
0000
0000
0000
0000
0010
0000
,  // measure 23
0000
0010
0000
0000
3020
0000
0000
0000
0230
0000
0000
0000
0301
0000
0000
0000
,  // measure 24
1000
0001
1000
0010
,  // measure 25
0100
0010
0100
0001
,  // measure 26
1000
0000
0001
0000
1000
0000
0100
0010
,  // measure 27
0001
1000
0001
1000
0002
0003
0000
0000
1001
0000
0000
0000
0001
0000
1000
0100
,  // measure 28
1000
0000
0100
0000
0100
0000
0000
0000
1000
0000
0001
0100
0000
0100
0010
0000
,  // measure 29
1000
0000
0000
0000
0110
0000
0000
0000
1001
0000
0000
0000
1000
0001
0010
0001
,  // measure 30
0010
0000
0100
0000
0210
0000
0000
0000
2300
0000
0100
0000
0000
0010
0000
0000
,  // measure 31
3001
0000
0000
0000
0110
0000
0000
0000
1001
0000
0000
0000
1000
0000
0001
0100
,  // measure 32
0001
0000
0100
0000
0100
0000
0000
0000
0001
0000
1000
0100
0000
0100
0010
0000
,  // measure 33
0001
0000
0000
0000
0110
0000
0000
0000
1001
0000
0000
0000
0001
1000
0010
1000
,  // measure 34
0010
0100
0210
0000
0302
2000
0000
3003
,  // measure 35
1001
0110
1001
0100
,  // measure 36
0001
0000
1000
0000
0100
0000
0000
0000
0010
0000
0100
0010
0000
0010
0001
0000
,  // measure 37
1000
0010
1001
0100
,  // measure 38
1000
0001
0100
0000
0001
0010
1000
0010
,  // measure 39
0001
0100
0010
0000
1001
0000
0010
0000
,  // measure 40
0001
0000
1000
0000
0010
0000
0000
0000
0100
0000
0010
0100
0000
0100
0001
0000
,  // measure 41
1000
0100
1001
0010
,  // measure 42
1000
0001
0010
0000
0001
0100
1000
0100
,  // measure 43
0020
0000
0130
0100
1002
0000
0023
0000
,  // measure 44
1030
0010
0001
0000
0100
0010
2000
0000
,  // measure 45
0100
3001
1002
0203
,  // measure 46
1300
0100
0001
0000
0010
0100
2000
0010
,  // measure 47
0000
0001
3001
0000
1000
0100
0010
0002
,  // measure 48
0000
0100
1003
0000
0001
0100
0010
2000
,  // measure 49
0000
0100
3001
0000
1000
0001
0100
0010
,  // measure 50
0000
0100
1001
0000
0001
0010
0100
1000
,  // measure 51
0010
0100
0001
0000
1001
0000
0000
0000
;

//---------------dance-single - xRGTMx----------------
#NOTES:
     dance-single:
     xRGTMx-DIF:
     Medium:
     6:
     0.313,0.323,0.179,0.269,0.000,194.000,20.000,30.000,0.000,0.000,0.000,0.313,0.323,0.179,0.269,0.000,194.000,20.000,30.000,0.000,0.000,0.000: // measure 0
0000
0000
0000
0000
,  // measure 1
0000
0000
0000
0000
,  // measure 2
0000
0000
0000
0000
,  // measure 3
0000
0000
0110
1001
,  // measure 4
1000
0001
0001
0020
,  // measure 5
0100
1000
0031
1001
,  // measure 6
0001
0000
1000
0000
1000
0000
0010
0100
,  // measure 7
0010
1000
0002
0000
1003
0000
1001
0000
,  // measure 8
1000
0001
0001
0200
,  // measure 9
0010
1000
0301
1001
,  // measure 10
0001
0000
1000
0000
1000
0000
0100
0010
,  // measure 11
0100
1000
0002
0000
1003
0000
0001
0000
,  // measure 12
0010
1000
0100
0002
,  // measure 13
0010
1003
1001
1000
,  // measure 14
0010
0001
0100
2000
,  // measure 15
0100
0000
3001
1000
0001
0001
1000
0000
,  // measure 16
0100
0001
0010
2000
,  // measure 17
0100
3001
1001
0001
,  // measure 18
0100
1000
0010
0002
,  // measure 19
0010
0000
1003
0000
0001
1000
2000
0000
,  // measure 20
0000
0000
0000
3000
,  // measure 21
0000
0000
0000
0002
,  // measure 22
0000
0000
0000
0003
,  // measure 23
0000
0000
0000
0100
,  // measure 24
0100
0100
0100
0100
,  // measure 25
0100
0100
0100
0100
,  // measure 26
0100
0000
0100
0000
0100
0000
0010
1000
,  // measure 27
0001
0010
0100
0000
1001
0000
2000
0000
,  // measure 28
0001
3001
0002
1000
,  // measure 29
1003
0110
2000
3002
,  // measure 30
2003
3020
0100
0130
,  // measure 31
0110
0000
1000
0001
1001
0000
2000
0000
,  // measure 32
0001
3001
0002
1000
,  // measure 33
1003
0110
2000
3002
,  // measure 34
2003
3200
0310
0000
,  // measure 35
1100
0101
1001
0001
,  // measure 36
1000
1000
0200
0010
,  // measure 37
0001
1300
1001
1000
,  // measure 38
0001
0000
0001
0000
0100
0010
0100
0001
,  // measure 39
2000
3001
1001
0001
,  // measure 40
1000
1000
0020
0100
,  // measure 41
0001
1030
1001
1000
,  // measure 42
0001
0000
0001
0000
0010
0100
0010
0001
,  // measure 43
2000
3001
1000
0100
,  // measure 44
0001
0010
2000
0100
,  // measure 45
3001
1001
0001
0100
,  // measure 46
1000
0010
0002
0010
,  // measure 47
1003
0001
1000
1000
0001
0000
0010
0000
,  // measure 48
1000
0100
0002
0010
,  // measure 49
1003
1001
1000
0010
,  // measure 50
0001
0100
2000
0100
,  // measure 51
3001
0000
1000
0001
0000
0000
0000
0000
;

//---------------dance-single - xRGTMx----------------
#NOTES:
     dance-single:
     xRGTMx-BAS:
     Easy:
     3:
     0.179,0.185,0.153,0.036,0.000,119.000,17.000,4.000,0.000,0.000,0.000,0.179,0.185,0.153,0.036,0.000,119.000,17.000,4.000,0.000,0.000,0.000: // measure 0
0000
0000
0000
0000
,  // measure 1
0000
0000
0000
0000
,  // measure 2
0000
0000
0000
0000
,  // measure 3
0000
0000
0110
0000
,  // measure 4
1000
0000
1000
0000
,  // measure 5
0001
0000
0001
0000
,  // measure 6
0100
0000
0100
0010
,  // measure 7
0010
0010
0000
1001
,  // measure 8
0001
0000
0001
0000
,  // measure 9
1000
0000
1000
0000
,  // measure 10
0100
0000
0100
0010
,  // measure 11
0010
0020
0030
0110
,  // measure 12
0000
1000
0000
0001
,  // measure 13
1000
0001
0000
0110
,  // measure 14
0000
0001
0000
1000
,  // measure 15
0001
1000
0000
1001
,  // measure 16
0000
0100
0000
0010
,  // measure 17
0100
0010
0000
1001
,  // measure 18
0000
0010
0000
0100
,  // measure 19
0010
0100
0000
1000
,  // measure 20
0000
0000
0000
0000
,  // measure 21
0000
0000
0000
0001
,  // measure 22
0000
0000
0000
0000
,  // measure 23
0000
0000
0000
0100
,  // measure 24
0100
0100
0100
0100
,  // measure 25
0100
0100
0100
0100
,  // measure 26
0100
0100
0100
0200
,  // measure 27
0000
0300
0110
1000
,  // measure 28
0001
0000
1000
0001
,  // measure 29
1000
0000
0110
0001
,  // measure 30
1000
0000
0001
1000
,  // measure 31
0001
0000
1001
0100
,  // measure 32
0010
0000
0100
0010
,  // measure 33
0100
0000
1001
0010
,  // measure 34
0100
0000
0020
0000
,  // measure 35
0030
0010
1001
1000
,  // measure 36
0000
1000
0000
0001
,  // measure 37
0000
0001
0000
0010
,  // measure 38
0000
0010
0100
0100
,  // measure 39
0100
0000
1001
0001
,  // measure 40
0000
0001
0000
1000
,  // measure 41
0000
1000
0000
0010
,  // measure 42
0000
0010
0100
0100
,  // measure 43
0200
0300
0110
0000
,  // measure 44
1000
0000
0001
1000
,  // measure 45
0001
0000
0110
0000
,  // measure 46
0001
0000
1000
0001
,  // measure 47
1000
0000
1001
0000
,  // measure 48
0010
0000
0100
0010
,  // measure 49
0100
0000
1001
0000
,  // measure 50
0100
0000
0010
0100
,  // measure 51
0010
0000
1001
0000
;

//---------------dance-single - xRGTMx----------------
#NOTES:
     dance-single:
     xRGTMx-BEG:
     Beginner:
     2:
     0.141,0.185,0.054,0.090,0.000,94.000,6.000,10.000,0.000,0.000,0.000,0.141,0.185,0.054,0.090,0.000,94.000,6.000,10.000,0.000,0.000,0.000: // measure 0
0000
0000
0000
0000
,  // measure 1
0000
0000
0000
0000
,  // measure 2
0000
0000
0000
0000
,  // measure 3
0000
0000
0110
0000
,  // measure 4
1000
0000
1000
0000
,  // measure 5
0001
0000
0001
0000
,  // measure 6
0100
0000
0100
0100
,  // measure 7
0000
0000
0000
0000
,  // measure 8
0001
0000
0001
0000
,  // measure 9
1000
0000
1000
0000
,  // measure 10
0100
0000
0100
0100
,  // measure 11
0000
0010
0000
0002
,  // measure 12
0003
0000
0000
0200
,  // measure 13
0300
0000
0000
0020
,  // measure 14
0030
0000
0000
2000
,  // measure 15
3000
0000
0000
0001
,  // measure 16
0001
0001
0000
1000
,  // measure 17
1000
1000
0000
0100
,  // measure 18
0100
0100
0000
0010
,  // measure 19
0010
0010
0000
0001
,  // measure 20
0000
0000
0000
0000
,  // measure 21
0000
0000
0000
1000
,  // measure 22
0000
0000
0000
0000
,  // measure 23
0000
0000
0000
0100
,  // measure 24
0100
0100
0100
0100
,  // measure 25
0100
0100
0100
0100
,  // measure 26
0100
0100
0100
0200
,  // measure 27
0000
0300
1001
0000
,  // measure 28
1000
0000
0001
0000
,  // measure 29
0001
0000
1001
0000
,  // measure 30
0001
0000
1000
0000
,  // measure 31
1000
0000
0110
0000
,  // measure 32
0010
0000
0100
0000
,  // measure 33
0100
0000
0110
0000
,  // measure 34
0100
0000
0020
0000
,  // measure 35
0030
0000
0000
1000
,  // measure 36
0000
1000
0000
0001
,  // measure 37
0000
0001
0000
0010
,  // measure 38
0000
0010
0010
0000
,  // measure 39
0000
0000
0000
0001
,  // measure 40
0000
0001
0000
1000
,  // measure 41
0000
1000
0000
0010
,  // measure 42
0000
0010
0010
0000
,  // measure 43
0100
0000
0002
0003
,  // measure 44
0000
0000
0020
0030
,  // measure 45
0000
0000
0200
0300
,  // measure 46
0000
0000
2000
3000
,  // measure 47
0000
0000
0001
0001
,  // measure 48
0001
0000
1000
1000
,  // measure 49
1000
0000
0010
0010
,  // measure 50
0010
0000
0100
0100
,  // measure 51
0100
0000
1001
0000
;
