#TITLE:MY TIME;
#SUBTITLE:;
#ARTIST:Dutch feat. Crystal Waters;
#TITLETRANSLIT:;
#SUBTITLETRANSLIT:;
#ARTISTTRANSLIT:;
#GENRE:DISCO;
#CREDIT:;
#BANNER:MY TIME.png;
#BACKGROUND:MY TIME-bg.png;
#LYRICSPATH:;
#CDTITLE:cdtitle.png;
#MUSIC:MY TIME.ogg;
#OFFSET:0.000;
#SAMPLESTART:36.551;
#SAMPLELENGTH:14.713;
#SELECTABLE:YES;
#BPMS:0.000=130.500
;
#STOPS:
;
#BGCHANGES:;
#KEYSOUNDS:;
#ATTACKS:;

//---------------dance-single - ----------------
#NOTES:
     dance-single:
     :
     Beginner:
     3:
     0.196,0.176,0.199,0.031,0.000,109.000,19.000,3.000,0.000,0.000,0.000,0.196,0.176,0.199,0.031,0.000,109.000,19.000,3.000,0.000,0.000,0.000:
0000
0000
0000
0000
,
0000
0000
0000
0000
,
0000
0000
0000
0000
,
0000
0000
0000
0000
,
1000
1000
1000
1000
,
1000
0000
1000
0000
,
0001
0000
0001
0000
,
0001
0001
0001
0001
,
0001
0000
0010
0000
,
0100
0000
1000
0000
,
0001
0000
0010
0000
,
0100
0000
1000
0000
,
0001
0000
0100
0000
,
0010
0000
1000
0000
,
0001
0000
0100
0000
,
0010
0000
1000
0000
,
0100
0000
0100
0000
,
0010
0000
0010
0000
,
0001
0001
0001
0000
,
1000
1000
1000
0000
,
0001
0001
0001
0000
,
0110
0000
1001
0000
,
1000
1000
1000
0000
,
0110
0000
1001
0000
,
0100
0100
0100
0000
,
1001
0000
0110
0000
,
0010
0010
0010
0000
,
1001
0000
0110
0000
,
2000
0000
0000
0000
,
3000
0000
1001
0000
,
0002
0000
0000
0000
,
0003
0000
1001
0000
,
0010
0010
0010
0010
,
0010
0010
0010
0000
,
0010
0010
0010
0010
,
0010
0010
0010
0000
,
0100
0100
0100
0100
,
0100
0100
0100
0000
,
0100
0100
0100
0100
,
0200
0000
0300
0000
,
1000
1000
1000
0000
,
0110
0000
1001
0000
,
0001
0001
0001
0000
,
0110
0000
1001
0000
,
0100
0100
0100
0000
,
1001
0000
0110
0000
,
0010
0010
0010
0000
,
1001
0000
0110
0000
,
1001
0000
0000
0000
;

//---------------dance-single - ----------------
#NOTES:
     dance-single:
     :
     Easy:
     5:
     0.314,0.359,0.324,0.146,0.000,165.000,31.000,14.000,0.000,0.000,0.000,0.314,0.359,0.324,0.146,0.000,165.000,31.000,14.000,0.000,0.000,0.000:
0000
0000
0000
0000
,
0000
0000
0000
0000
,
0000
0000
0000
0000
,
0000
0000
0000
0000
,
0001
0010
0010
0001
,
1000
0010
0010
1000
,
0100
0001
0010
1000
,
0100
0010
0100
1001
,
0110
0010
0010
0000
,
1000
0001
1000
0000
,
0100
0100
0100
0000
,
0001
1000
0001
0000
,
0010
0010
1000
0100
,
0010
0010
0001
0100
,
0010
1000
0001
0010
,
1001
0100
1001
0110
,
2001
0100
0100
0000
,
3002
0100
0100
0000
,
2003
3200
0302
0203
,
2300
0010
3001
0110
,
1001
1100
0010
0010
,
0001
0001
1000
1000
,
1001
0101
0010
0010
,
1000
1000
0001
0001
,
1001
1010
0100
0100
,
0001
0001
1000
1000
,
1001
0011
0100
0100
,
1000
1000
0001
0001
,
2000
0000
0010
0000
,
3002
0000
0010
1000
,
1003
0000
0110
0100
,
1001
0000
0110
0010
,
1001
1000
0001
1000
,
0100
0001
0100
1000
,
1001
0001
1000
0001
,
0100
1000
0100
0001
,
1001
1000
0001
1000
,
0010
0001
0010
1000
,
1001
0001
0010
1000
,
0020
0032
2000
3003
,
1001
1100
0010
0010
,
0001
0001
1000
1000
,
1001
0101
0010
0010
,
1000
1000
0001
0001
,
1001
1010
0100
0100
,
0001
0001
1000
1000
,
1001
0011
0100
0100
,
1000
1000
0001
0001
,
0220
0000
0000
0000
,
0330
0000
0000
0000
;

//---------------dance-single - ----------------
#NOTES:
     dance-single:
     :
     Medium:
     7:
     0.350,0.359,0.345,0.188,0.000,183.000,33.000,18.000,0.000,0.000,0.000,0.350,0.359,0.345,0.188,0.000,183.000,33.000,18.000,0.000,0.000,0.000:
0000
0000
0000
0000
,
0000
0000
0000
0000
,
0000
0000
0000
0000
,
0000
0000
0000
0000
,
1000
0000
0100
0001
0100
0000
1000
0000
,
0001
0100
1100
0101
,
0010
1000
0100
0001
,
0010
0100
0010
0100
0010
0000
1001
0000
,
0110
0100
0100
0000
,
0001
1000
0001
0000
,
0010
0010
0010
0000
,
1000
0001
1000
0000
,
0100
1000
0100
0000
0001
0000
0010
0000
,
0100
0001
0100
0000
1000
0000
0010
0000
,
0100
0001
1000
0000
0100
1000
0001
0000
,
1001
0010
1001
0110
,
1002
0010
0010
0000
,
2003
0010
0010
0000
,
3002
0023
2030
3020
,
0032
0100
1003
0110
,
1001
0000
0011
0000
0100
0000
0100
1000
,
0001
1000
0001
0001
,
1001
0000
1010
0000
0100
0000
0100
0001
,
1000
0001
1000
1000
,
1001
0000
0101
0000
0010
0000
0010
1000
,
0001
1000
0001
0001
,
1001
0000
1100
0000
0010
0000
0010
0001
,
1000
0001
1000
1000
,
0002
0000
0000
0000
0000
0000
0000
0000
0200
0000
0000
0300
0000
0000
0000
0000
,
2003
0000
0000
0000
0000
0000
0000
0000
0200
0000
0000
0300
0000
0000
0001
0000
,
3001
0000
0000
0000
0000
0000
0000
0000
0120
0000
0000
0030
0100
0000
0000
0000
,
1001
0000
0000
0000
0000
0000
0000
0000
0120
0000
0000
0030
0100
0000
0000
0000
,
1001
0001
1000
0001
,
0010
0000
1000
0000
0010
0001
1000
0000
,
1001
1000
0001
1000
,
0010
0000
0001
0000
0010
1000
0001
0000
,
1001
0001
1000
0001
,
0100
0000
1000
0000
0100
0001
1000
0000
,
1001
1000
0100
0001
,
0200
2300
0002
3003
,
1001
0000
0011
0000
0100
0000
0100
1000
,
0001
1000
0001
0001
,
1001
0000
1010
0000
0100
0000
0100
0001
,
1000
0001
1000
1000
,
1001
0000
0101
0000
0010
0000
0010
1000
,
0001
1000
0001
0001
,
1001
0000
1100
0000
0010
0000
0010
0001
,
1000
0001
1000
1000
,
0220
0000
0000
0000
,
0330
0000
0000
0000
;

//---------------dance-single - ----------------
#NOTES:
     dance-single:
     :
     Hard:
     10:
     0.430,0.359,0.356,0.209,0.021,234.000,34.000,20.000,0.000,0.000,0.000,0.430,0.359,0.356,0.209,0.021,234.000,34.000,20.000,0.000,0.000,0.000:
0000
0000
0000
0000
,
0000
0000
0000
0000
,
0000
0000
0000
0000
,
0000
0000
0000
0000
,
0000
1000
0010
0001
0010
0000
1000
0001
,
0000
0002
1000
0000
0100
0000
1003
0000
,
0000
0001
0010
1000
0010
0000
0001
1000
,
0010
0010
0100
0010
0010
0000
0010
0000
,
1001
1100
0010
0020
,
0032
0203
1000
0301
,
1001
0101
0010
0020
,
2030
3200
0001
1300
,
1001
1010
0100
0200
,
0302
0023
1000
0031
,
1001
0011
0100
0200
,
2300
3020
0001
1030
,
1010
0001
1010
0001
,
1000
0100
0010
0100
1000
0000
0001
0000
,
1100
0001
1100
0001
,
1000
0000
0010
0010
0100
0001
1000
1001
,
0101
0100
0001
1000
1000
0000
0100
0100
,
0000
0010
0001
0000
1000
0001
1000
0000
,
1100
0100
1000
0001
0001
0000
0100
0100
,
0000
0010
1000
0000
0001
1000
0001
0000
,
0011
0010
0001
1000
1000
0000
0010
0010
,
0000
0100
0001
0000
1000
0001
1000
0000
,
1010
0010
1000
0001
0001
0000
0010
0010
,
0000
0100
1000
0000
0001
1000
0001
1000
,
0200
0000
0000
0000
1000
0000
0000
0000
0320
0000
0000
0001
0000
0000
0032
0000
,
0010
0000
0000
0000
0100
0000
0000
0000
1003
0000
0000
0001
0000
0000
0110
0000
,
1001
0000
0000
0000
1000
0000
0000
0000
0110
0000
0000
0001
0000
0000
1000
0000
,
1001
0000
0000
0000
0010
0000
0000
0000
0110
0000
0000
0100
0000
0000
0001
0000
,
0000
1000
0010
0001
0010
0000
1000
0001
,
1000
0110
0001
0110
,
0000
1000
0010
0001
0010
0000
1000
0001
,
1000
0001
0110
1001
,
0000
0001
0010
1000
0010
0000
0001
1000
,
0001
0110
1000
0110
,
0000
0001
0010
1000
0010
0000
0001
1000
,
0001
0000
2000
0000
0002
0000
3003
1001
,
0101
0100
0001
1000
1000
0000
0100
0100
,
0000
0010
0001
0000
1000
0001
1000
0000
,
1100
0100
1000
0001
0001
0000
0100
0100
,
0000
0010
1000
0000
0001
1000
0001
0000
,
0011
0010
0001
1000
1000
0000
0010
0010
,
0000
0100
0001
0000
1000
0001
1000
0000
,
1010
0010
1000
0001
0001
0000
0010
0010
,
0000
0100
1000
0000
0001
1000
0001
1000
,
0220
0000
0000
0000
,
0330
0000
0000
0000
;

//---------------dance-single - ----------------
#NOTES:
     dance-single:
     :
     Challenge:
     6:
     0.315,0.359,0.366,0.115,0.000,165.000,35.000,11.000,76.000,0.000,0.000,0.315,0.359,0.366,0.115,0.000,165.000,35.000,11.000,76.000,0.000,0.000: // measure 0
0000
0000
0000
0000
,  // measure 1
0000
0000
0000
0000
,  // measure 2
0000
0000
0000
0000
,  // measure 3
0000
0000
0000
0000
,  // measure 4
0010
0000
1000
0000
0100
0010
0100
0000
,  // measure 5
0010
0001
1001
MMMM
,  // measure 6
0010
1000
0100
0010
,  // measure 7
0001
MMMM
0001
MMMM
,  // measure 8
1001
0100
0010
1000
,  // measure 9
0100
0010
0100
0000
1000
0000
1000
0000
,  // measure 10
0001
0100
0010
1000
,  // measure 11
0100
0010
0100
0000
1000
0000
MMMM
0000
,  // measure 12
1001
0100
0010
0001
,  // measure 13
0100
0010
0100
0000
0001
0000
0001
0000
,  // measure 14
1000
0100
0010
0001
,  // measure 15
0100
0010
0100
0000
0001
0000
MMMM
0000
,  // measure 16
2200
3300
0202
0303
,  // measure 17
1000
0100
0001
0010
,  // measure 18
2200
3300
0202
0303
,  // measure 19
1000
0001
0110
1001
,  // measure 20
1100
0000
1000
0001
0100
0000
0010
0000
,  // measure 21
0100
0001
1001
MMMM
,  // measure 22
0101
0000
0001
1000
0100
0000
0010
0000
,  // measure 23
0100
1000
1001
MMMM
,  // measure 24
1010
0000
0010
0100
0001
0000
0010
0100
,  // measure 25
1000
0001
1001
MMMM
,  // measure 26
0011
0000
0010
0100
1000
0000
0010
0100
,  // measure 27
0001
1000
1001
MMMM
,  // measure 28
0010
0000
0000
0000
0010
0000
0000
0100
,  // measure 29
0010
0000
0000
0000
0010
0000
0000
0100
,  // measure 30
1001
0000
0000
0000
0110
0000
0000
0100
,  // measure 31
1001
0000
0000
0000
0110
0000
0000
0100
,  // measure 32
1001
1000
0100
0001
,  // measure 33
0100
MMMM
0100
MMMM
,  // measure 34
1001
0001
0100
1000
,  // measure 35
0100
MMMM
0100
MMMM
,  // measure 36
1001
1000
0010
0001
,  // measure 37
0010
MMMM
0010
MMMM
,  // measure 38
1001
0001
0010
1000
,  // measure 39
0020
0000
0030
0110
,  // measure 40
1010
0000
1000
0001
0010
0000
0100
0000
,  // measure 41
0010
0001
1001
MMMM
,  // measure 42
0011
0000
0001
1000
0010
0000
0100
0000
,  // measure 43
0010
1000
1001
MMMM
,  // measure 44
1100
0000
0100
0010
0001
0000
0100
0010
,  // measure 45
1000
0001
1001
MMMM
,  // measure 46
0101
0000
0100
0010
1000
0000
0100
0010
,  // measure 47
0001
1000
1001
MMMM
,  // measure 48
0220
0000
0000
0000
,  // measure 49
0330
0000
0000
0000
;
