#TITLE:Icarus;
#SUBTITLE:;
#ARTIST:Madeon;
#TITLETRANSLIT:;
#SUBTITLETRANSLIT:;
#ARTISTTRANSLIT:;
#GENRE:;
#CREDIT:;
#BANNER:Icarus.png;
#BACKGROUND:Icarus-bg.png;
#LYRICSPATH:;
#CDTITLE:cdtitle.png;
#MUSIC:Icarus.ogg;
#OFFSET:0.000;
#SAMPLESTART:68.571;
#SAMPLELENGTH:15.238;
#SELECTABLE:YES;
#DISPLAYBPM:126.000;
#BPMS:0.000=126.000
,48.000=252.000
,48.500=126.000
,48.750=63.000
,49.000=126.000
,80.000=252.000
,80.500=126.000
,80.750=63.000
,81.000=126.000
,144.000=252.000
,144.500=126.000
,144.750=63.000
,145.000=126.000
,152.000=252.000
,152.500=126.000
,152.750=63.000
,153.000=126.000
,168.000=252.000
,168.500=126.000
,168.750=63.000
,169.000=126.000
,175.000=63.000
,175.250=126.000
,175.500=252.000
,176.000=126.000
;
#STOPS:
;
#BGCHANGES:;
#KEYSOUNDS:;
#ATTACKS:;

//---------------dance-single - Riakodoadm----------------
#NOTES:
     dance-single:
     Riakodoadm-BAS:
     Easy:
     4:
     0.204,0.274,0.086,0.173,0.005,122.000,9.000,18.000,0.000,0.000,0.000,0.204,0.274,0.086,0.173,0.005,122.000,9.000,18.000,0.000,0.000,0.000: // measure 0
0000
0000
0000
0000
,  // measure 1
0000
0000
0000
0000
,  // measure 2
0000
0000
0000
0000
,  // measure 3
0000
0000
0000
0000
,  // measure 4
1000
1000
2000
0000
,  // measure 5
0000
0000
0000
0000
,  // measure 6
3001
0001
0002
0000
,  // measure 7
0000
0000
0000
0000
,  // measure 8
0013
0010
0020
0000
,  // measure 9
0000
0000
0000
0000
,  // measure 10
0000
0000
0000
0000
,  // measure 11
0100
0100
0130
0110
,  // measure 12
2001
3100
0010
0000
,  // measure 13
0001
0100
1000
0001
,  // measure 14
0001
0100
0010
0000
,  // measure 15
1000
0100
0001
1000
,  // measure 16
1000
0010
0100
0000
,  // measure 17
0001
0010
1000
0001
,  // measure 18
0001
0010
0100
0000
,  // measure 19
2000
0000
0002
3003
,  // measure 20
1001
0110
0001
0000
,  // measure 21
0001
0100
1000
0010
,  // measure 22
0001
0100
1000
0000
,  // measure 23
2000
3002
2003
3002
,  // measure 24
1003
0010
0001
0000
,  // measure 25
1000
0010
0001
0100
,  // measure 26
0001
0010
1000
0000
,  // measure 27
0002
0000
2000
3003
,  // measure 28
2002
0000
0000
0000
,  // measure 29
0000
0000
0000
0000
,  // measure 30
0000
0000
0000
0000
,  // measure 31
0000
0000
0000
3003
,  // measure 32
1000
0000
0001
0000
,  // measure 33
1000
0000
0001
0000
,  // measure 34
1000
0001
1000
0001
,  // measure 35
0010
0100
0010
0100
,  // measure 36
0110
1001
0010
0000
,  // measure 37
0010
0100
1000
1000
,  // measure 38
0100
0001
0010
0000
,  // measure 39
0010
0100
0001
0001
,  // measure 40
1000
0001
0010
0000
,  // measure 41
0100
0001
1000
0100
,  // measure 42
0001
1000
0010
0000
,  // measure 43
2002
0000
0000
3003
,  // measure 44
0001
0100
0010
0100
,  // measure 45
1000
0001
0010
1000
,  // measure 46
0100
0010
1000
0001
,  // measure 47
0100
1000
0010
0001
,  // measure 48
1000
0000
0000
0001
0000
0000
2002
0000
0000
0000
0000
0000
0000
0000
0000
0000
,  // measure 49
0000
0000
0000
0000
,  // measure 50
0000
0000
0000
0000
,  // measure 51
0000
0000
0000
0000
,  // measure 52
3003
0000
0000
0000
;

//---------------dance-single - xRGTMx----------------
#NOTES:
     dance-single:
     xRGTMx-EXP:
     Hard:
     9:
     0.349,0.399,0.288,0.384,0.115,185.000,30.000,40.000,0.000,0.000,0.000,0.349,0.399,0.288,0.384,0.115,185.000,30.000,40.000,0.000,0.000,0.000: // measure 0
0000
0000
0000
0000
,  // measure 1
0000
0000
0000
0000
,  // measure 2
0000
0000
0000
0000
,  // measure 3
0000
0000
0000
0000
,  // measure 4
0001
0000
0000
1100
0000
0000
0202
0000
0000
0000
0000
0000
0000
0000
0000
0000
,  // measure 5
0000
0000
0000
0303
,  // measure 6
1000
0000
0000
0101
0000
0000
2200
0000
0000
0000
0000
0000
0000
0000
0000
0000
,  // measure 7
0000
0000
0000
3300
,  // measure 8
0220
0000
0000
0000
,  // measure 9
0030
0000
0000
0000
,  // measure 10
0001
0010
1000
0310
,  // measure 11
0011
0000
0000
0001
0000
0000
0101
0000
0000
0100
0000
0000
1100
0000
0000
0000
,  // measure 12
2001
0000
0000
0000
3010
0000
0000
1000
0010
0000
0100
0000
0010
0000
0000
0000
,  // measure 13
1000
0000
0100
0000
0010
0000
0000
0010
0002
0000
0000
0000
2003
0000
0000
0000
,  // measure 14
3010
0000
1000
0010
0100
0001
0100
0000
,  // measure 15
0001
0000
0010
0000
0100
0000
0000
0100
2000
0000
0000
0000
3002
0000
0000
0000
,  // measure 16
0023
0000
0000
0000
0130
0000
0000
1000
0001
0000
0100
0000
0010
0000
0000
0000
,  // measure 17
0100
0001
1000
0000
1100
0000
0101
0000
,  // measure 18
0120
0000
1030
0100
0001
0100
1000
0000
,  // measure 19
2002
0000
0000
3003
,  // measure 20
0120
0000
0000
0000
1030
0000
0000
0010
0100
0000
0001
0000
0010
0000
0000
0000
,  // measure 21
0100
0000
1000
0000
0001
0000
0000
0001
1000
0000
0000
1000
0001
0000
0000
0000
,  // measure 22
0201
0000
0000
0000
1300
0000
0000
0100
0001
0000
1000
0000
0100
0000
0000
0000
,  // measure 23
0020
0032
0203
0320
,  // measure 24
2030
0000
0000
0000
3001
0000
0000
1000
0100
0000
0010
0000
0100
0000
0000
0000
,  // measure 25
1000
0000
1000
0000
0001
0000
0000
0001
0100
0000
0000
0000
1010
0000
0000
0000
,  // measure 26
1002
0000
0013
1000
0010
0001
0100
0000
,  // measure 27
0020
0000
0000
0030
,  // measure 28
2002
0000
0000
0000
,  // measure 29
0000
0000
0000
0000
,  // measure 30
0000
0000
0000
0000
,  // measure 31
0000
0000
0000
3003
,  // measure 32
0001
0010
0100
1000
,  // measure 33
0010
0100
0001
1000
,  // measure 34
0100
0001
0010
1000
,  // measure 35
1001
0000
0000
1000
0000
0000
1010
0000
0000
0010
0000
0000
0011
0000
0000
0000
,  // measure 36
1002
0000
0000
0000
0103
0000
0000
0001
0010
0000
0100
0000
0010
0000
0000
0000
,  // measure 37
0001
0000
0100
0000
0010
0000
0000
0010
2000
0000
0000
0000
3002
0000
0000
0000
,  // measure 38
0203
0000
0301
0100
0010
1000
0010
0000
,  // measure 39
1000
0000
0000
0100
0010
0000
0000
0010
0001
0000
1000
0000
0002
0000
0000
0000
,  // measure 40
0203
0000
0000
0000
0310
0000
0000
1000
0001
0000
0010
0000
0100
0000
0000
0000
,  // measure 41
0010
0001
1000
0000
0011
0000
1010
0000
,  // measure 42
0210
0000
0301
0010
1000
0010
0001
0000
,  // measure 43
2002
0000
0000
3003
,  // measure 44
0010
0000
0000
1000
0100
0000
0010
0000
0100
0000
1000
0000
0010
0000
0000
0000
,  // measure 45
0102
1003
2100
3001
,  // measure 46
1000
0000
0000
0010
0100
0000
0001
0000
0000
0000
1000
0000
0100
0000
0000
0000
,  // measure 47
0020
0001
0100
1030
,  // measure 48
0011
0000
0000
0100
0000
0000
2002
0000
0000
0000
0000
0000
0000
0000
0000
0000
,  // measure 49
0000
0000
0000
0000
,  // measure 50
0000
0000
0000
0000
,  // measure 51
0000
0000
0000
0000
,  // measure 52
3003
0000
0000
0000
;

//---------------dance-single - xRGTMx----------------
#NOTES:
     dance-single:
     xRGTMx-BEG:
     Beginner:
     1:
     0.070,0.093,0.048,0.048,0.000,41.000,5.000,5.000,0.000,0.000,0.000,0.070,0.093,0.048,0.048,0.000,41.000,5.000,5.000,0.000,0.000,0.000: // measure 0
0000
0000
0000
0000
,  // measure 1
0000
0000
0000
0000
,  // measure 2
0000
0000
0000
0000
,  // measure 3
0000
0000
0000
0000
,  // measure 4
1000
0000
0000
0000
,  // measure 5
0000
0000
0000
0000
,  // measure 6
0001
0000
0000
0000
,  // measure 7
0000
0000
0000
0000
,  // measure 8
0010
0000
0000
0000
,  // measure 9
0000
0000
0000
0000
,  // measure 10
0000
0000
0000
0000
,  // measure 11
0100
0000
0000
0000
,  // measure 12
1001
0000
0000
0000
,  // measure 13
0100
0000
0000
0000
,  // measure 14
0010
0000
0000
0000
,  // measure 15
1000
0000
1000
0000
,  // measure 16
0001
0000
0000
0000
,  // measure 17
0010
0000
0000
0000
,  // measure 18
0100
0000
0000
0000
,  // measure 19
2000
0000
3000
0000
,  // measure 20
1001
0000
0000
0000
,  // measure 21
0100
0000
0000
0000
,  // measure 22
0010
0000
0000
0000
,  // measure 23
0001
0000
0001
0000
,  // measure 24
1000
0000
0000
0000
,  // measure 25
0010
0000
0000
0000
,  // measure 26
0100
0000
0000
0000
,  // measure 27
0002
0000
0003
0000
,  // measure 28
0110
0000
0000
0000
,  // measure 29
0000
0000
0000
0000
,  // measure 30
0000
0000
0000
0000
,  // measure 31
0000
0000
0000
0000
,  // measure 32
1000
0000
0000
0000
,  // measure 33
0100
0000
0000
0000
,  // measure 34
0010
0000
0000
0000
,  // measure 35
0001
0000
0000
0000
,  // measure 36
1001
0000
0000
0000
,  // measure 37
0010
0000
0000
0000
,  // measure 38
0100
0000
0000
0000
,  // measure 39
1000
0000
1000
0000
,  // measure 40
0001
0000
0000
0000
,  // measure 41
0100
0000
0000
0000
,  // measure 42
0010
0000
0000
0000
,  // measure 43
2000
0000
0000
3000
,  // measure 44
1000
0000
0000
0000
,  // measure 45
0100
0000
0000
0000
,  // measure 46
0010
0000
0000
0000
,  // measure 47
0001
0000
0000
0000
,  // measure 48
2002
0000
0000
3003
0000
0000
0000
0000
;

//---------------dance-single - xRGTMx----------------
#NOTES:
     dance-single:
     xRGTMx-DIF:
     Medium:
     6:
     0.243,0.274,0.182,0.163,0.024,141.000,19.000,17.000,0.000,0.000,0.000,0.243,0.274,0.182,0.163,0.024,141.000,19.000,17.000,0.000,0.000,0.000: // measure 0
0000
0000
0000
0000
,  // measure 1
0000
0000
0000
0000
,  // measure 2
0000
0000
0000
0000
,  // measure 3
0000
0000
0000
0000
,  // measure 4
1000
0000
0000
0002
0000
0000
2000
0000
0000
0000
0000
0000
0000
0000
0000
0000
,  // measure 5
0000
0000
0000
3003
,  // measure 6
0010
0000
0000
0200
0000
0000
0020
0000
0000
0000
0000
0000
0000
0000
0000
0000
,  // measure 7
0000
0000
0000
0330
,  // measure 8
2002
0000
0000
0000
,  // measure 9
0000
0000
0000
3003
,  // measure 10
1000
0000
0100
0000
,  // measure 11
0010
0000
0000
0100
0000
0000
0010
0000
,  // measure 12
1002
0103
0010
1000
,  // measure 13
0100
0000
0010
0000
0001
1000
0001
0000
,  // measure 14
1000
0100
0001
0100
,  // measure 15
1000
1000
0001
0000
,  // measure 16
2001
3100
0010
0001
,  // measure 17
0100
0000
0010
0000
1000
0001
1000
0000
,  // measure 18
0001
0100
1000
0100
,  // measure 19
0002
0000
2000
3003
,  // measure 20
1001
0000
0110
0000
1000
0001
1000
0000
,  // measure 21
0001
0100
1000
0010
,  // measure 22
0001
0000
0100
0000
0010
0100
0010
0000
,  // measure 23
1000
0100
0001
0000
,  // measure 24
1001
0000
0110
0000
0001
1000
0001
0000
,  // measure 25
1000
0100
0001
0010
,  // measure 26
1000
0000
0100
0000
0010
0100
0010
0000
,  // measure 27
0200
0000
0000
0300
,  // measure 28
2002
0000
0000
0000
,  // measure 29
0000
0000
0000
0000
,  // measure 30
0000
0000
0000
0000
,  // measure 31
0000
0000
0000
3003
,  // measure 32
0001
0000
1000
0000
,  // measure 33
0001
0000
1000
0000
,  // measure 34
0001
1000
0001
1000
,  // measure 35
0010
0000
0000
0100
0000
0000
0010
0000
0000
0100
0000
0000
0010
0000
0000
0000
,  // measure 36
0110
0000
1001
0000
0010
0100
1000
0000
,  // measure 37
0010
0100
0001
1000
,  // measure 38
0110
0000
1001
0000
0001
0100
0010
0000
,  // measure 39
1000
0100
0001
0010
,  // measure 40
0110
0000
1001
0000
0010
0100
0001
0000
,  // measure 41
0010
0100
1000
0001
,  // measure 42
0110
0000
1001
0000
1000
0100
0010
0000
,  // measure 43
2002
0000
0000
3003
,  // measure 44
1000
0100
0010
0100
,  // measure 45
0001
1000
0010
0001
,  // measure 46
0100
0010
0001
1000
,  // measure 47
0100
0001
0010
1000
,  // measure 48
0001
0000
0000
1001
0000
0000
0220
0000
0000
0000
0000
0000
0000
0000
0000
0000
,  // measure 49
0000
0000
0000
0000
,  // measure 50
0000
0000
0000
0000
,  // measure 51
0000
0000
0000
0000
,  // measure 52
0330
0000
0000
0000
;
