#TITLE:HIDI HIDI DO;
#SUBTITLE:(KCP Re-Edit);
#ARTIST:ZIPPERS;
#TITLETRANSLIT:;
#SUBTITLETRANSLIT:;
#ARTISTTRANSLIT:;
#GENRE:;
#CREDIT:;
#BANNER:HIDI HIDI DO (KCP RE-EDIT).png;
#BACKGROUND:HIDI HIDI DO (KCP RE-EDIT)-bg.png;
#LYRICSPATH:HIDI HIDI DO (KCP Re-Edit).lrc;
#CDTITLE:_cdtitle.png;
#MUSIC:HIDI HIDI DO (KCP Re-Edit).mp3;
#OFFSET:-0.013;
#SAMPLESTART:44.834;
#SAMPLELENGTH:12.800;
#SELECTABLE:YES;
#BPMS:0.000=150.000
;
#STOPS:
;
#BGCHANGES:;
#KEYSOUNDS:;
#ATTACKS:;

//---------------dance-single - xRGTMx----------------
#NOTES:
     dance-single:
     xRGTMx:
     Hard:
     12:
     0.638,0.551,0.436,0.283,0.094,318.000,37.000,24.000,0.000,0.000,0.000,0.638,0.551,0.436,0.283,0.094,318.000,37.000,24.000,0.000,0.000,0.000:
0000
0000
0000
0000
,
0000
0000
0000
0000
0000
0000
0000
0000
0000
0000
0010
0100
0010
0000
0000
0000
,
0110
0000
1000
0100
0110
0000
0001
0100
,
0110
0000
0010
0000
1000
0000
0001
0000
0010
0100
0010
0000
1001
0000
0000
0000
,
0010
1000
0100
0001
0000
0001
0100
1000
,
0010
0001
0010
0100
0000
0100
0001
0010
,
1000
0010
0001
0100
0000
0100
1000
0100
,
0002
0023
0130
1001
,
0010
0001
0100
1000
0000
1000
0100
0001
,
0010
1000
0010
0100
0000
0100
1000
0010
,
0001
0010
1000
0100
0000
0100
0001
0100
,
2000
3020
0200
0330
,
0110
0010
1000
0000
0100
0000
0001
0000
,
0100
1000
0001
0101
0000
0100
0010
0000
,
1000
0100
0010
0100
1000
0001
0100
0010
,
0100
0001
1000
0100
0000
0010
1001
0000
,
0001
0100
1000
0100
0001
0100
1000
0100
,
0001
0010
0100
1000
0000
1001
1001
0000
,
1000
0100
0001
0100
1000
0100
0001
0002
,
0000
0103
0200
1000
2300
0010
3010
0000
,
0110
0100
0001
0000
0010
0000
1000
0000
,
0010
0001
1000
1010
0000
0010
0100
0000
,
0001
0010
0100
0010
0001
1000
0010
0100
,
0010
1000
0001
0010
0000
0100
1001
0000
,
1000
0010
0001
0010
1000
0010
0001
0010
,
1000
0100
0010
0001
0000
1001
1001
0000
,
0001
0010
1000
0010
0001
0010
0200
0010
,
0000
0000
2300
0000
0002
0000
0000
3003
,
1001
0000
0000
1000
0100
0000
0000
0000
1001
0000
0000
0001
0100
0000
0000
0000
,
1001
0000
0000
1000
0010
0000
0100
0000
0001
0000
0010
0000
0100
0000
0000
0000
,
1000
0100
0110
0000
0001
0100
0110
0010
,
1000
1010
0102
1003
,
1001
0000
0000
1000
0100
0000
0000
0000
1001
0000
0000
0001
0100
0000
0000
0000
,
1001
0000
0000
1000
0010
0000
0100
0000
0001
0000
0010
0000
0100
0000
0000
0000
,
1000
0010
0001
0010
1000
0100
0010
0001
,
0011
0000
1100
0000
1020
0000
0130
0010
,
0100
0001
0010
1000
0000
1000
0010
0001
,
0100
1000
0100
0010
0000
0010
1000
0100
,
0001
0100
1000
0010
0000
0010
0001
0010
,
2000
3200
0310
1001
,
0100
1000
0010
0001
0000
0001
0010
1000
,
0100
0001
0100
0010
0000
0010
0001
0100
,
1000
0100
0001
0010
0000
0010
1000
0010
,
0002
0203
0020
0330
,
1001
0000
0000
0001
0100
0000
0000
0000
1001
0000
0000
1000
0100
0000
0000
0000
,
1001
0000
0000
0001
0010
0000
0100
0000
1000
0000
0010
0100
0010
0000
0000
0000
,
1000
0100
0001
0100
0000
0100
1000
0010
,
0200
0302
2000
3003
,
1001
0000
0000
0001
0100
0000
0000
0000
1001
0000
0000
1000
0100
0000
0000
0000
,
1001
0000
0000
0001
0010
0000
0100
0000
1000
0000
0010
0100
0010
0000
0100
0000
,
0001
0100
1000
0100
0000
0100
0001
0010
,
0200
0000
2300
0000
0002
0000
3003
1001
,
0110
0000
0000
0000
;

//---------------dance-single - Riakodoadm----------------
#NOTES:
     dance-single:
     Riakodoadm:
     Easy:
     5:
     0.341,0.367,0.483,0.000,0.000,162.000,41.000,0.000,0.000,0.000,0.000,0.341,0.367,0.483,0.000,0.000,162.000,41.000,0.000,0.000,0.000,0.000:
0000
0000
0000
0000
,
0000
0000
0000
0000
,
0010
0010
0001
0001
,
1000
1000
0100
0000
,
0100
0010
0001
0000
,
0100
0010
1000
0000
,
1000
0001
0010
0000
,
1001
0110
1001
0000
,
0010
0100
1000
0000
,
0010
0100
0001
0000
,
0001
1000
0100
0000
,
1001
0110
1001
0000
,
1000
0100
0001
0000
,
0001
0100
1000
0000
,
1000
1000
0001
0001
,
0010
0100
0010
0000
,
0100
0100
0100
0000
,
1000
0010
0001
0000
,
0010
0010
0010
0000
,
0001
0010
1000
0000
,
0001
0100
1000
0000
,
1000
0100
0001
0000
,
0010
0010
0100
0100
,
1000
0001
1000
0000
,
0001
0001
0001
0000
,
0001
0010
1000
0000
,
1000
1000
1000
0000
,
1000
0010
0001
0000
,
1001
1000
1001
0001
,
1001
0110
1001
0000
,
1000
0100
0001
0100
,
0010
0100
0110
0000
,
1001
0001
1001
1000
,
0110
1001
0110
0000
,
0001
0010
1000
0010
,
0100
0010
0110
0000
,
1000
0001
0010
0000
,
1000
0001
0100
0000
,
0100
0010
0001
0000
,
1001
0110
1001
0000
,
0001
1000
0100
0000
,
0001
1000
0010
0000
,
0010
0100
1000
0000
,
1001
0110
1001
0000
,
1001
0001
1001
1000
,
1001
0110
1001
0000
,
0001
0100
1000
0100
,
0110
1001
0110
0000
,
1001
1000
1001
0001
,
0110
1001
0110
0000
,
1000
0010
0001
0010
,
1001
0110
1001
0000
,
1001
0000
0000
0000
;

//---------------dance-single - xRGTMx----------------
#NOTES:
     dance-single:
     xRGTMx:
     Medium:
     9:
     0.558,0.490,0.883,0.436,0.000,220.000,75.000,37.000,0.000,0.000,0.000,0.558,0.490,0.883,0.436,0.000,220.000,75.000,37.000,0.000,0.000,0.000:
0000
0000
0000
0000
,
0000
0000
0000
0000
0000
0010
0010
0000
,
1001
0100
1010
0100
,
0011
0110
1100
1001
,
1000
0000
0010
0100
0000
0100
0001
0000
,
1000
0000
0100
0010
0001
0000
1000
0000
,
0010
0000
0100
0001
0000
0001
0010
0100
,
1000
1010
0202
0303
,
0001
0000
0010
0100
0000
0100
1000
0000
,
0001
0000
0100
0010
1000
0000
0001
0000
,
0010
0000
0100
1000
0000
1000
0010
0100
,
0001
0011
2200
3300
,
1001
1000
0100
0010
,
0001
0100
0010
1000
0000
0000
1001
0000
,
0002
0023
0230
2300
,
3010
0000
0100
0001
0000
0001
1000
0000
,
1100
0101
1100
0101
,
1000
0000
0100
0020
0000
0000
0031
0000
,
0101
0000
1100
0000
0101
0000
1000
0200
,
0000
0010
0001
1300
,
1001
0001
0100
0010
,
1000
0100
0010
0001
0000
0000
1001
0000
,
2000
3020
0230
0302
,
0013
0000
0100
1000
0000
1000
0001
0000
,
0011
1010
0011
1010
,
0001
0000
0010
0200
0000
0000
1300
0000
,
1010
0000
0011
0000
1010
0000
0001
0020
,
0000
0100
0200
0330
,
1001
1100
1001
0101
,
1001
0110
2002
3003
,
1000
0010
1010
0000
0001
0010
0011
0000
,
1100
0101
2002
3003
,
0110
1100
0110
0101
,
0110
1001
0220
0330
,
1000
0100
0001
0010
1000
0000
1100
0000
,
0101
0110
2002
3003
,
1000
0000
0100
0010
0000
0010
0001
0000
,
1000
0000
0010
0100
0001
0000
1000
0000
,
0100
0000
0010
0001
0000
0001
0100
0010
,
1000
1100
0022
0033
,
0001
0000
0100
0010
0000
0010
1000
0000
,
0001
0000
0010
0100
1000
0000
0001
0000
,
0100
0000
0010
1000
0000
1000
0100
0010
,
0001
0101
2020
3030
,
1001
0011
1001
1010
,
1001
0110
2002
3003
,
1000
0100
0010
0001
0000
0001
0100
0010
,
1000
0110
2002
3003
,
0110
0011
0110
1010
,
0110
1001
0220
0330
,
0001
0100
0010
1000
0000
1000
0100
0010
,
0011
0110
2200
3300
,
1001
0000
0000
0000
;

//---------------dance-single - xRGTMx----------------
#NOTES:
     dance-single:
     xRGTMx:
     Challenge:
     13:
     0.621,0.612,0.789,0.165,0.141,288.000,67.000,14.000,336.000,0.000,0.000,0.621,0.612,0.789,0.165,0.141,288.000,67.000,14.000,336.000,0.000,0.000: // measure 0
0000
0000
0000
0000
,  // measure 1
0000
0000
0000
MMMM
,  // measure 2
1001
MMMM
0110
MMMM
,  // measure 3
1001
MMMM
0110
MMMM
1001
0000
MMMM
0000
,  // measure 4
1000
0100
0010
0001
MMMM
0001
0010
0100
,  // measure 5
1000
0010
0100
0001
MMMM
0001
0100
0010
,  // measure 6
1000
0100
0010
0001
MMMM
0001
0100
0010
,  // measure 7
1000
MMMM
0110
MMMM
1001
0000
MMMM
0000
,  // measure 8
0001
0010
0100
1000
MMMM
1000
0100
0010
,  // measure 9
0001
0100
0010
1000
MMMM
1000
0010
0100
,  // measure 10
0001
0010
0100
1000
MMMM
1000
0010
0100
,  // measure 11
0001
MMMM
0110
MMMM
1001
0000
MMMM
0000
,  // measure 12
0110
0000
0000
0100
0010
0000
0000
0010
1000
0000
0000
1000
0100
0000
0000
0100
,  // measure 13
0010
0000
0001
1000
0010
0000
0100
0000
MMMM
0000
0100
0000
0001
1000
0000
1000
,  // measure 14
0002
2003
3200
0320
,  // measure 15
0130
0000
1000
0001
0100
0000
0010
0000
MMMM
0000
0010
0000
1000
0000
0000
0000
,  // measure 16
1100
MMMM
0101
MMMM
1100
MMMM
0101
MMMM
,  // measure 17
1000
0100
0001
0100
MMMM
0100
1000
0000
,  // measure 18
0101
MMMM
1100
MMMM
0101
MMMM
1000
0100
,  // measure 19
MMMM
0000
0100
0000
0001
0000
0100
0000
1000
0000
0001
1000
0001
1000
0010
0100
,  // measure 20
0010
0000
0000
0010
0100
0000
0000
0100
0001
0000
0000
0001
0010
0000
0000
0010
,  // measure 21
0100
0000
1000
0001
0100
0000
0010
0000
MMMM
0000
0010
0000
1000
0001
0000
0001
,  // measure 22
2000
3002
0023
0230
,  // measure 23
0310
0000
0001
1000
0010
0000
0100
0000
MMMM
0000
0100
0000
0001
0000
0000
0000
,  // measure 24
0011
MMMM
1010
MMMM
0011
MMMM
1010
MMMM
,  // measure 25
0001
0010
1000
0010
MMMM
0010
0001
0000
,  // measure 26
1010
MMMM
0011
MMMM
1010
MMMM
0001
0010
,  // measure 27
MMMM
0010
0001
2000
0002
0000
3003
0000
,  // measure 28
1001
MMMM
1100
MMMM
1001
MMMM
0101
MMMM
,  // measure 29
1001
0000
0000
0001
0010
0000
0100
0000
2000
0000
0000
0000
3010
0000
0000
0000
,  // measure 30
1001
1000
0101
MMMM
1001
0001
1100
MMMM
,  // measure 31
0011
0000
MMMM
0000
1010
0000
MMMM
0000
1001
0000
0001
0100
0010
0000
1000
0000
,  // measure 32
1001
MMMM
1010
MMMM
1001
MMMM
0011
MMMM
,  // measure 33
1001
0000
0000
0001
0100
0000
0010
0000
2000
0000
0000
0000
3100
0000
0000
0000
,  // measure 34
1001
1000
0011
0001
1010
MMMM
0110
MMMM
,  // measure 35
0101
MMMM
1100
MMMM
1001
0100
0010
0001
,  // measure 36
1000
0010
0100
0001
MMMM
0001
0100
0010
,  // measure 37
1000
0100
0010
0001
MMMM
0001
0010
0100
,  // measure 38
1000
0010
0100
0001
MMMM
0001
0010
0100
,  // measure 39
1000
MMMM
0110
MMMM
1001
0000
MMMM
0000
,  // measure 40
0001
0100
0010
1000
MMMM
1000
0010
0100
,  // measure 41
0001
0010
0100
1000
MMMM
1000
0100
0010
,  // measure 42
0001
0100
0010
1000
MMMM
1000
0100
0010
,  // measure 43
0001
MMMM
0110
MMMM
1001
0000
MMMM
0000
,  // measure 44
1001
MMMM
1100
MMMM
1001
MMMM
0101
MMMM
,  // measure 45
1001
0000
0000
0001
0010
0000
0100
0000
2000
0000
0000
0000
3010
0000
0000
0000
,  // measure 46
1000
0100
0010
0001
MMMM
0001
0100
0010
,  // measure 47
1000
MMMM
0110
MMMM
1001
0000
MMMM
0000
,  // measure 48
1001
MMMM
0101
MMMM
1001
MMMM
1100
MMMM
,  // measure 49
1001
0000
0000
1000
0010
0000
0100
0000
0002
0000
0000
0000
0013
0000
0000
0000
,  // measure 50
0001
0100
0010
1000
MMMM
1000
0100
0010
,  // measure 51
0001
MMMM
0110
MMMM
1001
0000
MMMM
0100
,  // measure 52
0110
0000
0000
0000
;

//---------------dance-single - Riakodoadm----------------
#NOTES:
     dance-single:
     Riakodoadm:
     Beginner:
     2:
     0.175,0.184,0.153,0.000,0.000,91.000,13.000,0.000,0.000,0.000,0.000,0.175,0.184,0.153,0.000,0.000,91.000,13.000,0.000,0.000,0.000,0.000:
0000
0000
0000
0000
,
0000
0000
0000
0000
,
1000
0000
1000
0000
,
0001
0000
0001
0000
,
1000
0000
0000
0000
,
0001
0000
0000
0000
,
1000
0000
0000
0000
,
0001
0001
0001
0000
,
0001
0000
0000
0000
,
1000
0000
0000
0000
,
0001
0000
0000
0000
,
1000
1000
1000
0000
,
1000
0000
0100
0000
,
1000
0000
0000
0000
,
0001
0000
0100
0000
,
0001
0000
0000
0000
,
1000
1000
1000
0000
,
1000
0000
0000
0000
,
0001
0001
0001
0000
,
0001
0000
0000
0000
,
1000
0000
0010
0000
,
1000
0000
0000
0000
,
0001
0000
0010
0000
,
0001
0000
0000
0000
,
0100
0100
0100
0000
,
0100
0000
0000
0000
,
0010
0010
0010
0000
,
0010
0000
0000
0000
,
1000
0000
0001
0000
,
1001
0000
1001
0000
,
0001
0000
1000
0000
,
1001
0000
1001
0000
,
0010
0000
0100
0000
,
0110
0000
0110
0000
,
0100
0000
0010
0000
,
0110
0000
0110
0000
,
0010
0000
0000
0000
,
0100
0000
0000
0000
,
0010
0000
0000
0000
,
0100
0100
0100
0000
,
0100
0000
0000
0000
,
0010
0000
0000
0000
,
0100
0000
0000
0000
,
0010
0010
0010
0000
,
0001
0000
1000
0000
,
1001
0000
1001
0000
,
1000
0000
0001
0000
,
1000
1000
1000
0000
,
0100
0000
0010
0000
,
0110
0000
0110
0000
,
0010
0000
0100
0000
,
0010
0010
0010
0000
,
1001
0000
0000
0000
;

//---------------dance-double - ----------------
#NOTES:
     dance-double:
     :
     Challenge:
     14:
     0.644,0.612,0.860,0.188,0.159,294.000,73.000,16.000,656.000,0.000,0.000,0.644,0.612,0.860,0.188,0.159,294.000,73.000,16.000,656.000,0.000,0.000:
00000000
00000000
00000000
00000000
,
00000000
00000000
00000000
MMMMMMMM
,
00011000
MMMMMMMM
01100000
MMMMMMMM
,
10010000
MMMMMMMM
00110000
MMMMMMMM
00011000
00000000
MMMMMMMM
00000000
,
00000100
00001000
00000010
00000100
MMMMMMMM
00001000
00000100
00010000
,
01000000
10000000
00100000
01000000
MMMMMMMM
00100000
00001000
00010000
,
00000100
00000001
00000100
00001000
MMMMMMMM
00000100
00000001
00000010
,
00000110
MMMMMMMM
00011000
MMMMMMMM
01100000
00000000
MMMMMMMM
00000000
,
01000000
00010000
00100000
01000000
MMMMMMMM
00010000
01000000
00001000
,
00000100
00000001
00000010
00000100
MMMMMMMM
00000010
00010000
00001000
,
01000000
10000000
01000000
00010000
MMMMMMMM
01000000
10000000
00100000
,
01100000
MMMMMMMM
00011000
MMMMMMMM
00000110
00000000
MMMMMMMM
00000000
,
00001001
00000000
00000000
00001000
00000100
00000000
00000000
00000100
00010000
00000000
00000000
00010000
01000000
00000000
00000000
01000000
,
00100000
00000000
00010000
01000000
00100000
00000000
10000000
00000000
MMMMMMMM
00000000
00100000
00000000
00001000
00010000
00000000
00010000
,
00000200
00000320
00000032
00000203
,
00001300
00000000
00000100
00000010
00001000
00000000
00000100
00000000
MMMMMMMM
00000000
00001000
00000000
00010000
00000000
00000000
00000000
,
00101000
MMMMMMMM
00010010
MMMMMMMM
00101000
MMMMMMMM
00010010
MMMMMMMM
,
00100000
00010000
01000000
00001000
MMMMMMMM
00000100
00001000
00000000
,
00010100
MMMMMMMM
01001000
MMMMMMMM
00010100
MMMMMMMM
01000000
00002000
,
00000000
00000000
00013000
00000000
00001000
00000000
00000100
00000000
00000010
00000000
00001000
00000100
00000010
00000001
00000010
00000001
,
00001000
00000000
00000000
00001000
00000010
00000000
00000000
00000010
00010000
00000000
00000000
00010000
00100000
00000000
00000000
00100000
,
01000000
00000000
00010000
00100000
01000000
00000000
10000000
00000000
MMMMMMMM
00000000
01000000
00000000
00001000
00010000
00000000
00010000
,
00000020
00000230
00000302
00000023
,
00001030
00000000
00000010
00000100
00001000
00000000
00000010
00000000
MMMMMMMM
00000000
00001000
00000000
00010000
00000000
00000000
00000000
,
01001000
MMMMMMMM
00010100
MMMMMMMM
01001000
MMMMMMMM
00010100
MMMMMMMM
,
01000000
00010000
00100000
00001000
MMMMMMMM
00000010
00001000
00000000
,
00010010
MMMMMMMM
00101000
MMMMMMMM
00010010
MMMMMMMM
00100000
00002000
,
00000000
00013000
00001000
00000200
00000020
00000000
00000330
00000000
,
00011000
MMMMMMMM
00110000
MMMMMMMM
00011000
MMMMMMMM
00001010
MMMMMMMM
,
00011000
00000000
00000000
00001000
00100000
00000000
01000000
00000000
20000000
00000000
00000000
00000000
30100000
00000000
00000000
00000000
,
10010000
00100000
00011000
MMMMMMMM
00001001
00000010
00011000
MMMMMMMM
,
00110000
00000000
MMMMMMMM
00000000
11000000
00000000
MMMMMMMM
00000000
10010000
00000000
10000000
00100000
00010000
00000000
00001000
00000000
,
00011000
MMMMMMMM
00001100
MMMMMMMM
00011000
MMMMMMMM
01010000
MMMMMMMM
,
00011000
00000000
00000000
00010000
00000100
00000000
00000010
00000000
00000002
00000000
00000000
00000000
00000103
00000000
00000000
00000000
,
00001001
00000100
00011000
01000000
10010000
MMMMMMMM
00011000
MMMMMMMM
,
00001100
00000000
MMMMMMMM
00000000
00000011
00000000
MMMMMMMM
00000000
00001001
00000000
00001000
00000100
00010000
00000000
00001000
00000000
,
00100000
00010000
01000000
00100000
MMMMMMMM
00010000
00100000
00001000
,
00000010
00000001
00000100
00000010
MMMMMMMM
00000100
00010000
00001000
,
00100000
10000000
00100000
00010000
MMMMMMMM
00100000
10000000
01000000
,
01100000
MMMMMMMM
00011000
MMMMMMMM
00000110
00000000
MMMMMMMM
00000000
,
00000010
00001000
00000100
00000010
MMMMMMMM
00001000
00000010
00010000
,
00100000
10000000
01000000
00100000
MMMMMMMM
01000000
00001000
00010000
,
00000010
00000001
00000010
00001000
MMMMMMMM
00000010
00000001
00000100
,
00000110
MMMMMMMM
00011000
MMMMMMMM
01100000
00000000
MMMMMMMM
00000000
,
00011000
MMMMMMMM
00000110
MMMMMMMM
00011000
MMMMMMMM
01100000
MMMMMMMM
,
00011000
00000000
00000000
00010000
00000100
00000000
00000010
00000000
00000002
00000000
00000000
00001000
00000103
00000000
00010000
00000000
,
01000000
10000000
00100000
01000000
MMMMMMMM
00100000
00001000
00010000
,
00010100
MMMMMMMM
00001010
MMMMMMMM
00011000
00000000
MMMMMMMM
00000000
,
00011000
MMMMMMMM
01100000
MMMMMMMM
00011000
MMMMMMMM
00000110
MMMMMMMM
,
00011000
00000000
00000000
00001000
01000000
00000000
00100000
00000000
20000000
00000000
30010000
01000000
00010000
00000000
00100000
00000000
,
00001000
00000100
00000010
00001000
MMMMMMMM
00000010
00000001
00000100
,
00001001
MMMMMMMM
00011000
MMMMMMMM
10010000
00000000
MMMMMMMM
00100000
,
00011000
00000000
00000000
00000000
;
