#TITLE:Everybody Talks;
#SUBTITLE:;
#ARTIST:Neon Trees;
#TITLETRANSLIT:;
#SUBTITLETRANSLIT:;
#ARTISTTRANSLIT:;
#GENRE:ROCK;
#CREDIT:;
#BANNER:Everybody Talks.png;
#BACKGROUND:Everybody Talks-bg.png;
#JACKET:Everybody Talks-jacket.png;
#LYRICSPATH:Everybody Talks.lrc;
#CDTITLE:cdtitle.png;
#MUSIC:Everybody Talks.ogg;
#OFFSET:-0.777;
#SAMPLESTART:30.761;
#SAMPLELENGTH:12.387;
#SELECTABLE:YES;
#BPMS:0.000=155.000
;
#STOPS:76.000=1.161,
177.000=1.935
;
#BGCHANGES:;
#KEYSOUNDS:;
#ATTACKS:;

//---------------dance-single - Riakodoadm----------------
#NOTES:
     dance-single:
     Riakodoadm-BAS:
     Easy:
     4:
     0.261,0.291,0.089,0.358,0.000,139.000,9.000,36.000,0.000,0.000,0.000,0.261,0.291,0.089,0.358,0.000,139.000,9.000,36.000,0.000,0.000,0.000: // measure 0
0000
0000
0000
0000
,  // measure 1
0000
0000
0000
0000
,  // measure 2
0000
0000
0000
0000
,  // measure 3
0000
0000
0000
0000
,  // measure 4
1000
0000
0001
0000
,  // measure 5
0001
0100
1000
0000
,  // measure 6
0001
0010
1000
0000
,  // measure 7
0100
0020
0000
0030
,  // measure 8
0001
0000
1000
0000
,  // measure 9
1000
0100
0001
0000
,  // measure 10
1000
0010
0001
0000
,  // measure 11
0010
0200
0000
0300
,  // measure 12
2000
0000
3002
0000
,  // measure 13
0023
0000
0130
1000
,  // measure 14
0010
1000
0001
0010
,  // measure 15
0002
0000
0000
0003
,  // measure 16
1000
0001
0100
0100
,  // measure 17
0001
1000
0010
0010
,  // measure 18
0100
0001
0010
0100
,  // measure 19
1001
0110
0002
0000
,  // measure 20
0000
0000
0003
1000
,  // measure 21
0001
0100
0200
0020
,  // measure 22
0000
0000
0330
0001
,  // measure 23
0100
0010
2000
0000
,  // measure 24
0000
0002
3003
0001
,  // measure 25
0100
1001
2002
0000
,  // measure 26
3000
2003
3000
0010
,  // measure 27
0001
0020
1030
2000
,  // measure 28
0000
0000
3001
1000
,  // measure 29
0001
0100
0020
0000
,  // measure 30
0000
0000
0030
1000
,  // measure 31
0100
0002
0000
2000
,  // measure 32
0000
0000
0000
0000
,  // measure 33
3003
0010
0000
0100
,  // measure 34
0000
0100
0010
1000
,  // measure 35
0000
0100
0010
0001
,  // measure 36
0000
1000
0002
0000
,  // measure 37
0003
0100
0000
0010
,  // measure 38
0000
0010
0100
0001
,  // measure 39
0000
0010
0100
1000
,  // measure 40
0000
0001
2000
0000
,  // measure 41
3000
0010
0100
0010
,  // measure 42
2000
3001
0001
0010
,  // measure 43
0100
0100
0010
0001
,  // measure 44
1000
0110
1001
0200
,  // measure 45
0000
0000
0000
0300
,  // measure 46
0010
0100
0001
2000
,  // measure 47
0200
0000
0000
3300
,  // measure 48
0010
1000
0100
0002
,  // measure 49
0000
0000
0020
0033
,  // measure 50
1000
0010
0110
0220
,  // measure 51
0000
0000
0000
0330
,  // measure 52
1000
0100
0020
0032
,  // measure 53
0203
0000
0000
0301
,  // measure 54
0100
0010
0001
2000
,  // measure 55
0000
0000
0200
3300
,  // measure 56
0100
0001
0020
0000
,  // measure 57
0200
0000
0000
0000
,  // measure 58
0000
0330
1001
0000
;

//---------------dance-single - Riakodoadm----------------
#NOTES:
     dance-single:
     Riakodoadm-DIF:
     Medium:
     8:
     0.389,0.378,0.437,0.477,0.000,182.000,44.000,48.000,0.000,0.000,0.000,0.389,0.378,0.437,0.477,0.000,182.000,44.000,48.000,0.000,0.000,0.000: // measure 0
0000
0000
0000
0000
,  // measure 1
0000
0000
0000
0000
,  // measure 2
0000
0000
0000
0000
,  // measure 3
0000
0000
0000
0000
,  // measure 4
0000
1001
1000
0001
,  // measure 5
0010
0001
0000
0200
0300
0000
0010
1000
,  // measure 6
0100
1000
0000
0001
0000
0000
0100
0010
,  // measure 7
0000
2020
0000
0000
0000
0000
3030
0000
,  // measure 8
0000
0101
1000
0100
,  // measure 9
0100
0001
0000
0020
0030
0000
0100
1000
,  // measure 10
0001
1000
0000
0001
0000
0100
0000
1000
,  // measure 11
0000
0022
0000
0000
0000
0000
0033
0000
,  // measure 12
0100
0000
0000
0100
0001
0000
0000
0001
,  // measure 13
0010
0000
0000
0100
1000
0001
0000
0010
,  // measure 14
0000
1000
0000
0100
0000
0001
0000
0220
,  // measure 15
0000
0000
0000
0000
0000
0330
0000
0000
,  // measure 16
1100
0101
1100
0110
,  // measure 17
0001
0000
1000
0100
1000
0000
0100
0000
,  // measure 18
0010
0001
0010
0000
0001
0000
1000
0010
,  // measure 19
1000
1001
0220
0000
,  // measure 20
0000
0000
0000
0330
0000
0001
0010
0001
,  // measure 21
0100
0101
2020
0000
,  // measure 22
0000
0000
0000
3030
0000
1000
0010
1000
,  // measure 23
0100
1100
0022
0000
,  // measure 24
0000
0000
0000
0000
0033
0000
0010
0001
,  // measure 25
0100
1010
2200
0000
,  // measure 26
0000
0000
0000
0000
3300
0000
0010
1000
,  // measure 27
0100
0011
0202
0000
,  // measure 28
0000
0000
0303
0000
0001
1000
0010
0100
,  // measure 29
0001
0110
2002
0000
,  // measure 30
0000
0000
0000
3003
0000
0001
0010
0100
,  // measure 31
1000
0020
0200
0000
0330
0000
2002
0000
,  // measure 32
0000
0000
0000
0000
,  // measure 33
3003
0000
1001
0010
,  // measure 34
1000
0000
0001
0100
0000
0010
0000
0000
,  // measure 35
1000
0100
0010
0100
0000
0002
0003
0000
,  // measure 36
0100
1000
0000
2020
0000
0000
0000
0000
,  // measure 37
3030
0000
0000
0000
0110
0000
0001
1000
,  // measure 38
0001
1000
0010
0100
0000
0102
0003
0000
,  // measure 39
1000
0010
0100
0001
0000
0010
0000
1000
,  // measure 40
0000
0100
0000
0202
0000
0000
0000
0000
,  // measure 41
0303
1010
0011
1010
,  // measure 42
0110
0000
1000
0000
0001
0010
0001
0000
,  // measure 43
0010
0000
0100
1000
0100
0000
1000
0000
,  // measure 44
0001
0100
0001
0000
0110
0000
2002
0000
,  // measure 45
0000
0000
0000
0000
0000
3003
0000
0010
,  // measure 46
1000
0001
0010
0000
0110
0000
0202
0000
,  // measure 47
0000
0000
0000
0000
0000
0303
0000
0010
,  // measure 48
0001
0010
0100
0000
1100
0000
2020
0000
,  // measure 49
0000
0000
0000
3030
,  // measure 50
0100
1000
0010
0000
0011
0000
2002
0000
,  // measure 51
0000
0000
0000
3003
,  // measure 52
0100
0001
0010
0000
1010
0000
0220
0000
,  // measure 53
0000
0000
0000
0000
0330
0000
0001
0100
,  // measure 54
0010
1000
0100
0010
0002
0000
2000
0000
,  // measure 55
0000
0000
3003
0000
2020
3030
0000
0010
,  // measure 56
0001
1000
0010
2000
0002
0000
3003
0000
,  // measure 57
0220
0000
0000
0000
,  // measure 58
0000
0330
1001
0000
;

//---------------dance-single - xRGTMx----------------
#NOTES:
     dance-single:
     xRGTMx-EXP:
     Hard:
     10:
     0.497,0.465,0.248,0.417,0.000,283.000,25.000,42.000,0.000,0.000,0.000,0.497,0.465,0.248,0.417,0.000,283.000,25.000,42.000,0.000,0.000,0.000: // measure 0
0000
0000
0000
0000
,  // measure 1
0000
0000
0000
0000
,  // measure 2
0000
0000
0000
0000
,  // measure 3
0000
0000
0000
0110
,  // measure 4
1001
0000
1000
0100
0000
1000
0001
0010
,  // measure 5
0000
0001
0100
0010
0000
1000
0010
0100
,  // measure 6
0001
1000
0100
0010
0000
0100
1000
0001
,  // measure 7
0000
0100
0001
0020
0000
0000
0001
0000
,  // measure 8
0130
0000
1000
0010
0000
1000
0001
0100
,  // measure 9
0000
0001
0010
0100
0000
1000
0100
0010
,  // measure 10
0001
1000
0010
0100
0000
0010
1000
0001
,  // measure 11
0000
0010
0001
0200
0000
0000
0001
0000
,  // measure 12
0310
0000
0010
1000
0100
0000
0100
0001
,  // measure 13
0010
0000
0010
1000
0100
0000
0100
0001
,  // measure 14
0010
1000
0000
1000
0100
0001
0000
0001
,  // measure 15
0100
1000
0000
1000
0010
0000
0100
0000
,  // measure 16
0011
0110
1100
1001
,  // measure 17
1000
0010
0001
0010
2000
0000
3001
0010
,  // measure 18
1000
0010
0002
0000
1003
0010
0100
0001
,  // measure 19
0020
0030
0000
0000
0011
0000
0000
0000
1020
0000
0000
0000
0000
0000
0130
0000
,  // measure 20
0100
0001
1000
0000
0100
0000
0010
0001
,  // measure 21
0100
0001
0010
0000
0101
0000
2100
0000
,  // measure 22
0000
0000
0001
0000
3100
0100
1000
0001
,  // measure 23
0100
0001
1000
0000
0120
0000
0000
0000
,  // measure 24
0032
0000
0203
0000
2300
0000
3100
0100
,  // measure 25
0001
1000
0100
0000
0012
0000
0000
0000
,  // measure 26
1000
0000
2003
0000
0001
0000
3001
0010
,  // measure 27
0100
1000
0010
0000
0102
0000
0023
0000
,  // measure 28
2030
0000
3200
0000
0301
0010
0001
1000
,  // measure 29
0001
0100
0020
0000
2000
0000
0030
0000
,  // measure 30
3001
0000
1000
0000
0100
0000
0001
0100
,  // measure 31
1000
0010
0100
0000
0000
0000
2002
0000
,  // measure 32
0000
0000
0000
0000
0000
3003
0000
1000
,  // measure 33
1000
0001
0100
0000
0001
0100
0000
0001
,  // measure 34
1000
0010
0000
1000
0100
0010
0000
0001
,  // measure 35
0010
0100
1000
0001
0100
0010
0000
0100
,  // measure 36
0001
1000
0000
0100
1000
0020
0000
0000
,  // measure 37
1000
0000
0130
0000
0001
0010
0000
0001
,  // measure 38
1000
0100
0000
1000
0010
0100
0000
0001
,  // measure 39
0100
0010
1000
0001
0010
0100
0000
0010
,  // measure 40
0001
1000
0000
0010
1000
0200
0000
0000
,  // measure 41
1000
0310
0110
1100
,  // measure 42
1001
0000
1000
0010
0001
0010
2000
0000
,  // measure 43
3001
0010
1000
0010
0002
0000
1003
0010
,  // measure 44
0100
0000
0001
0000
0020
0030
0000
0000
1100
0000
0000
0000
0201
0000
0000
0000
,  // measure 45
0000
0310
0010
1000
0001
0000
0010
0000
,  // measure 46
0100
1000
0010
1000
0100
0000
1010
0000
,  // measure 47
0012
0000
0000
0000
1000
0000
0013
0010
,  // measure 48
0001
1000
0010
1000
0001
0000
0210
0000
,  // measure 49
0000
2300
3020
0032
,  // measure 50
0013
0010
1000
0001
0010
0000
2100
0000
,  // measure 51
0000
0001
3002
1000
,  // measure 52
1003
0100
0010
0001
0100
0000
2010
0000
,  // measure 53
3200
0000
0302
0000
0023
0000
1030
0100
,  // measure 54
1000
0001
1000
0010
0200
0000
0002
0000
,  // measure 55
0300
1003
0001
0010
,  // measure 56
1000
0010
0001
0100
0010
0000
0000
0000
,  // measure 57
2002
0000
0000
0000
0000
0000
0000
3003
,  // measure 58
0000
0001
0001
1000
0100
0000
0000
0000
;

//---------------dance-single - xRGTMx----------------
#NOTES:
     dance-single:
     xRGTMx-BEG:
     Beginner:
     2:
     0.179,0.232,0.040,0.040,0.000,118.000,4.000,4.000,0.000,0.000,0.000,0.179,0.232,0.040,0.040,0.000,118.000,4.000,4.000,0.000,0.000,0.000: // measure 0
0000
0000
0000
0000
,  // measure 1
0000
0000
0000
0000
,  // measure 2
0000
0000
0000
0000
,  // measure 3
0000
0000
0000
0000
,  // measure 4
0010
0000
0000
0000
,  // measure 5
1000
0000
0000
0000
,  // measure 6
0001
0001
0001
0000
,  // measure 7
1000
1000
1000
0000
,  // measure 8
0100
0000
0000
0000
,  // measure 9
1000
0000
0000
0000
,  // measure 10
0001
0001
0001
0000
,  // measure 11
1000
1000
1000
0000
,  // measure 12
0010
0000
0010
0000
,  // measure 13
0100
0000
0100
0000
,  // measure 14
0001
0000
1000
0000
,  // measure 15
1001
0000
0000
0000
,  // measure 16
1000
0000
0100
0000
,  // measure 17
0010
0010
0010
0000
,  // measure 18
0001
0001
0001
0000
,  // measure 19
0100
0000
0010
0000
,  // measure 20
0010
0010
0010
0000
,  // measure 21
1000
0000
1000
0000
,  // measure 22
0001
0001
0001
0000
,  // measure 23
1000
0000
0100
0000
,  // measure 24
0010
0010
0010
0000
,  // measure 25
0001
0000
0001
0000
,  // measure 26
1000
1000
1000
0000
,  // measure 27
0001
0000
1000
0000
,  // measure 28
0100
0000
0010
0000
,  // measure 29
0001
0000
1000
0000
,  // measure 30
1000
0000
0001
0000
,  // measure 31
0001
0001
0000
2002
,  // measure 32
0000
0000
0000
3003
,  // measure 33
0000
0010
0000
0000
,  // measure 34
0000
0001
0000
0000
,  // measure 35
0000
1000
1000
1000
,  // measure 36
0000
0001
0001
0001
,  // measure 37
0000
0100
0000
0000
,  // measure 38
0000
1000
0000
0000
,  // measure 39
0000
1000
1000
1000
,  // measure 40
0000
0001
0001
0001
,  // measure 41
0000
1000
0000
0100
,  // measure 42
0000
0010
0010
0010
,  // measure 43
0000
0001
0001
0001
,  // measure 44
0000
0100
0000
0010
,  // measure 45
0000
0010
0010
0010
,  // measure 46
0000
1000
0000
1000
,  // measure 47
0000
0001
0001
0001
,  // measure 48
0000
1000
0000
0100
,  // measure 49
0000
0010
0010
0010
,  // measure 50
0000
0001
0000
0001
,  // measure 51
0000
1000
1000
1000
,  // measure 52
0000
0001
0000
1000
,  // measure 53
0000
0100
0000
0010
,  // measure 54
0000
0001
0000
1000
,  // measure 55
0000
1000
0000
0001
,  // measure 56
0000
0001
0001
0000
,  // measure 57
2002
0000
0000
0000
,  // measure 58
3003
0000
1001
0000
;
