#TITLE:EARLY IN THE MORNING;
#SUBTITLE:(WE LIKE THE CAPTAIN);
#ARTIST:CAPTAIN JACK;
#TITLETRANSLIT:;
#SUBTITLETRANSLIT:;
#ARTISTTRANSLIT:;
#GENRE:NAVY MARCH;
#CREDIT:;
#BANNER:EARLY IN THE MORNING (WE LIKE THE CAPTAIN).png;
#BACKGROUND:EARLY IN THE MORNING (WE LIKE THE CAPTAIN)-bg.png;
#JACKET:EARLY IN THE MORNING (WE LIKE THE CAPTAIN)-jacket.png;
#LYRICSPATH:EARLY IN THE MORNING (WE LIKE THE CAPTAIN).lrc;
#CDTITLE:cdtitle.png;
#MUSIC:EARLY IN THE MORNING (WE LIKE THE CAPTAIN).ogg;
#OFFSET:0.000;
#SAMPLESTART:28.235;
#SAMPLELENGTH:14.118;
#SELECTABLE:YES;
#BPMS:0.000=136.000
;
#STOPS:
;
#BGCHANGES:;
#KEYSOUNDS:;
#ATTACKS:;

//---------------dance-single - Riakodoadm----------------
#NOTES:
     dance-single:
     Riakodoadm-BAS:
     Easy:
     2:
     0.181,0.165,0.021,0.125,0.000,108.000,2.000,12.000,0.000,0.000,0.000,0.181,0.165,0.021,0.125,0.000,108.000,2.000,12.000,0.000,0.000,0.000:
0000
0000
0000
0000
,
0000
0000
0000
0000
,
0000
0000
0000
0000
,
0000
0000
0000
0000
,
1000
0000
0000
0000
,
0001
0000
0000
0000
,
1001
0000
0000
0000
,
0200
0000
0300
0000
,
1000
0000
0100
0000
,
0001
0000
0100
0000
,
0001
0000
1000
0000
,
1000
1000
0001
0001
,
1000
0000
0010
0000
,
0001
0000
0010
0000
,
1000
0000
0001
0000
,
0001
0001
1000
1000
,
0010
0000
0010
0000
,
0001
0000
0001
0000
,
1000
0000
1000
0000
,
0010
0100
0010
0100
,
0100
0000
0001
0000
,
0010
0000
0001
0000
,
0010
0000
0100
0000
,
0010
0100
0010
0100
,
0100
0000
0100
0000
,
1000
0000
1000
0000
,
0001
0000
0001
0000
,
0100
0010
0100
0010
,
0010
0000
1000
0000
,
0100
0000
1000
0000
,
0100
0000
0010
0000
,
0100
0010
0100
0010
,
0001
0000
1000
0000
,
0100
0000
1000
0000
,
0001
0000
0010
0000
,
0001
1000
0001
1000
,
1000
0000
0001
0000
,
0010
0000
0001
0000
,
1000
0000
0100
0000
,
1000
0001
1000
0001
,
2000
0000
0000
3000
,
0002
0000
0000
0003
,
2000
0000
0000
3000
,
0001
0100
0001
0100
,
0002
0000
0000
0003
,
2000
0000
0000
3000
,
0002
0000
0000
0003
,
1000
0100
1000
0100
,
0020
0000
0000
0130
,
0200
0000
0000
0310
,
0020
0000
0000
0030
,
0010
0100
0010
0100
,
2002
0000
0000
0000
,
3003
0000
0000
0000
;

//---------------dance-single - Riakodoadm----------------
#NOTES:
     dance-single:
     Riakodoadm-DIF:
     Medium:
     6:
     0.370,0.331,0.031,0.312,0.083,216.000,3.000,30.000,0.000,0.000,0.000,0.370,0.331,0.031,0.312,0.083,216.000,3.000,30.000,0.000,0.000,0.000:
0000
0000
0000
0000
,
0000
0000
0000
0000
,
0000
0000
0000
0000
,
0000
0000
0000
0000
,
1000
1000
0001
0100
,
0001
0001
1000
0100
,
1000
0100
0001
0100
,
1000
0001
1000
0001
1000
0000
0001
0000
,
0002
0203
0301
0000
,
2000
3200
1300
0000
,
0002
2003
3001
1000
,
0001
1000
0001
1000
0001
0000
1000
0000
,
0002
0023
0031
0000
,
2000
3020
1030
0000
,
2000
3002
1003
0001
,
1000
0001
1000
0001
1000
0000
0001
0000
,
0001
0000
0000
0001
0010
0000
0000
0000
0001
0000
0000
0000
0000
0000
0000
0000
,
1000
0000
0000
1000
0010
0000
0000
0000
1000
0000
0000
0000
0000
0000
0000
0000
,
1000
0000
0000
1000
0001
0000
0000
0000
0001
0000
0000
0001
1000
0000
0000
0000
,
0001
1000
0001
1000
0001
0000
1000
0000
,
0200
2300
3010
0000
,
0200
0302
0013
0000
,
0200
2300
3001
0010
,
0001
1000
0001
1000
0001
0000
1000
0000
,
0001
0000
0000
0001
0100
0000
0000
0000
0001
0000
0000
0000
0000
0000
0000
0000
,
1000
0000
0000
1000
0100
0000
0000
0000
1000
0000
0000
0000
0000
0000
0000
0000
,
0001
0000
0000
0001
1000
0000
0000
0000
1000
0000
0000
1000
0001
0000
0000
0000
,
1000
0001
1000
0001
1000
0000
0001
0000
,
0020
2030
3100
0000
,
0020
0032
0103
0000
,
0020
0032
1003
0100
,
1000
0001
1000
0001
1000
0000
0001
0000
,
0010
0000
0001
0000
0010
0000
0100
1000
,
0100
0000
1000
0000
0010
0000
0100
0001
,
0100
0001
0010
1000
,
0100
0010
0100
0010
0100
0000
0010
0000
,
0010
0000
0000
0000
1000
0000
0000
0010
1000
0000
0000
0000
0000
0000
0000
0000
,
0010
0000
0000
0000
0001
0000
0000
0010
0001
0000
0000
0000
0000
0000
0000
0000
,
0100
1000
0010
0001
,
0010
0100
0010
0100
0010
0000
0100
0000
,
2000
0000
3001
0000
1000
0000
0100
1000
,
0002
0000
1003
0000
0001
0000
0100
0001
,
0200
0310
1000
0001
,
1000
0100
0010
0001
0100
0000
0010
0000
,
1000
0000
0000
0000
0001
0000
0000
0100
0001
0000
0000
0000
0000
0000
0000
0000
,
0001
0000
0000
0000
1000
0000
0000
0100
1000
0000
0000
0000
0000
0000
0000
0000
,
1000
0000
0000
1000
0001
0000
0000
0000
0001
0000
0000
0001
1000
0000
0000
0000
,
0001
0100
0010
1000
0100
0000
0010
0000
,
1001
0000
0000
0000
0100
0000
0000
0100
0010
0000
0000
0000
0000
0000
0000
0000
,
1001
0000
0000
0000
0010
0000
0000
0010
0100
0000
0000
0000
0000
0000
0000
0000
,
1000
0100
0001
0100
,
0200
0000
0010
0310
,
2002
0000
0000
0000
,
3003
0000
0000
0000
;

//---------------dance-single - Riakodoadm----------------
#NOTES:
     dance-single:
     Riakodoadm-EXP:
     Hard:
     11:
     0.526,0.441,0.447,0.146,0.244,297.000,43.000,14.000,0.000,0.000,0.000,0.526,0.441,0.447,0.146,0.244,297.000,43.000,14.000,0.000,0.000,0.000: // measure 0
0000
0000
0000
0000
,  // measure 1
0000
0000
0000
0000
,  // measure 2
0000
0000
0000
0000
,  // measure 3
0000
0000
0000
0000
,  // measure 4
1000
0000
0000
0000
0001
0000
0000
0100
1000
0000
0000
0000
1000
0000
0100
0000
,  // measure 5
0001
0000
0000
0000
1000
0000
0000
0100
0001
0000
0000
0000
0001
0000
0100
0000
,  // measure 6
1000
0000
0000
0000
0001
0000
0000
0010
1000
0000
0000
0000
1000
0000
0010
0000
,  // measure 7
0001
0100
0010
1000
0200
0000
0310
0000
,  // measure 8
1100
0000
0011
0000
1100
0000
0001
0100
,  // measure 9
0101
0000
1010
0000
0101
0000
0001
1000
,  // measure 10
1001
0000
0110
0000
1001
0000
1000
0001
,  // measure 11
1000
0100
0010
0001
0200
0000
0310
0000
,  // measure 12
1010
0000
0101
0000
1010
0000
0001
0010
,  // measure 13
0011
0000
1100
0000
0011
0000
0010
0100
,  // measure 14
0110
0000
1001
0000
0110
0000
0100
0010
,  // measure 15
0001
0100
0010
1000
0200
0000
0001
0000
,  // measure 16
1300
0000
0000
1000
0100
0000
0000
0100
0010
0000
0000
0010
0001
0000
0000
0000
,  // measure 17
0001
0000
0000
0001
0100
0000
0000
0100
0010
0000
0000
0010
1000
0000
0000
0000
,  // measure 18
1000
0000
0000
1000
0001
0000
0000
0001
0100
0000
0000
0100
0010
0000
0000
0000
,  // measure 19
0010
1000
0100
0001
0200
0000
1300
0000
,  // measure 20
1100
0000
0110
0000
1001
0000
0001
1000
,  // measure 21
1010
0000
1100
0000
0011
0000
0010
0001
,  // measure 22
0101
0000
0110
0000
1010
0000
1000
0010
,  // measure 23
0100
0001
0010
1000
0020
0000
0031
0000
,  // measure 24
0100
0000
0000
0100
0001
0000
0000
0001
1000
0000
0000
1000
0010
0000
0000
0000
,  // measure 25
0010
0000
0000
0010
1000
0000
0000
1000
0001
0000
0000
0001
0100
0000
0000
0000
,  // measure 26
0001
0000
0000
0001
0010
0000
0000
0010
0100
0000
0000
0100
1000
0000
0000
0000
,  // measure 27
0010
0001
0010
1000
0200
0000
0310
0000
,  // measure 28
1100
0000
0110
0000
0011
0000
0100
1000
,  // measure 29
1100
0000
0101
0000
1010
0000
0001
1000
,  // measure 30
1001
0000
0011
0000
1100
0000
0001
0010
,  // measure 31
0100
0001
0100
1000
0020
0000
0130
0000
,  // measure 32
0001
0000
0100
0000
0001
0000
0000
1000
0010
0000
0000
0000
0100
0000
1000
0000
,  // measure 33
0100
0000
0001
0000
1000
0000
0000
0010
0100
0000
0000
0000
0100
0000
0001
0000
,  // measure 34
0010
0000
1000
0000
0010
0000
0000
0100
1000
0000
0000
0000
0001
0000
0010
0000
,  // measure 35
0100
1000
0001
0100
0020
0000
1000
0000
,  // measure 36
0130
0000
0000
0100
0001
0000
0000
0001
1000
0000
0000
0000
0001
0000
0100
0000
,  // measure 37
0010
0000
0000
0010
1000
0000
0000
1000
0100
0000
0000
0000
0100
0000
1000
0000
,  // measure 38
0010
0000
0000
0010
0100
0000
0000
0100
0001
0000
0000
0000
0001
0000
0100
0000
,  // measure 39
0010
1000
0100
0001
0200
0000
0010
0000
,  // measure 40
1300
0000
0100
0000
1000
0000
0000
1000
0001
0000
0000
0000
0001
0000
0010
0000
,  // measure 41
0001
0000
0100
0000
0001
0000
0000
0001
1000
0000
0000
0000
1000
0000
0010
0000
,  // measure 42
0100
0000
0001
0000
0010
0000
0000
0001
1000
0000
0000
0000
0010
0000
1000
0000
,  // measure 43
0100
0001
0100
1000
0020
0000
1030
0000
,  // measure 44
0001
0000
0000
0001
1000
0000
0000
1000
0010
0000
0000
0010
0001
0000
0000
0001
,  // measure 45
0010
0000
0000
0010
0100
0000
0000
0100
1000
0000
0000
1000
0100
0000
0000
0100
,  // measure 46
0001
0000
0000
0010
0100
0000
0000
1000
0001
0000
0000
0100
0010
0000
0000
0000
,  // measure 47
1000
0010
0001
1000
0200
0000
0301
0000
,  // measure 48
1001
0000
0000
0000
0110
0000
0000
0010
0100
0000
0000
0000
0001
0000
0010
0000
,  // measure 49
0011
0000
0000
0000
0101
0000
0000
0100
0001
0000
0000
0000
1000
0000
0010
0000
,  // measure 50
1010
0000
0000
0000
1100
0000
0000
0100
1000
0000
0000
0000
1000
0000
0001
0000
,  // measure 51
0100
1000
0100
0001
0020
0000
0130
0000
,  // measure 52
2002
0000
0000
0000
,  // measure 53
3003
0000
0000
0000
;

//---------------dance-single - Riakodoadm----------------
#NOTES:
     dance-single:
     RIakodoadm-BEG:
     Beginner:
     1:
     0.095,0.108,0.073,0.000,0.000,57.000,7.000,0.000,0.000,0.000,0.000,0.095,0.108,0.073,0.000,0.000,57.000,7.000,0.000,0.000,0.000,0.000:
0000
0000
0000
0000
,
0000
0000
0000
0000
,
0000
0000
0000
0000
,
0000
0000
0000
0000
,
1000
0000
0000
0000
,
0000
0000
0000
0000
,
0001
0000
0000
0000
,
0000
0000
0000
0000
,
1000
0000
0000
0000
,
0001
0000
0000
0000
,
1000
0000
0000
0000
,
0001
0000
0001
0000
,
0001
0000
0000
0000
,
1000
0000
0000
0000
,
0001
0000
0000
0000
,
1000
0000
1000
0000
,
1000
0000
0000
0000
,
0001
0000
0000
0000
,
1000
0000
0000
0000
,
0100
0000
0100
0000
,
0010
0000
0000
0000
,
0100
0000
0000
0000
,
0010
0000
0000
0000
,
0001
0000
0001
0000
,
0001
0000
0000
0000
,
1000
0000
0000
0000
,
0001
0000
0000
0000
,
0010
0000
0010
0000
,
0100
0000
0000
0000
,
0010
0000
0000
0000
,
0100
0000
0000
0000
,
1000
0000
1000
0000
,
1000
0000
0000
0000
,
0001
0000
0000
0000
,
0100
0000
0000
0000
,
0100
0000
0100
0000
,
0001
0000
0000
0000
,
1000
0000
0000
0000
,
0010
0000
0000
0000
,
0010
0000
0010
0000
,
1001
0000
0000
0000
,
1000
0000
0000
0000
,
1001
0000
0000
0000
,
0001
0000
0001
0000
,
1001
0000
0000
0000
,
0001
0000
0000
0000
,
1001
0000
0000
0000
,
1000
0000
1000
0000
,
0110
0000
0000
0000
,
0010
0000
0000
0000
,
0110
0000
0000
0000
,
0100
0000
0000
0000
,
1001
0000
0000
0000
;
