#TITLE:we;
#ARTIST:leeium underground;
#BANNER:we.png;
#BACKGROUND:we-bg.png;
#MUSIC:we.ogg;
#OFFSET:2.338;
#SAMPLESTART:57.068;
#SAMPLELENGTH:15;
#DISPLAYBPM:101:202;
#BPMS:0=101,68=202,131=101,131.5=202,195.5=101,223.5=202,231.25=101,232=202,232.5=404,233=202,237=101,238=202,244=101,245=202,251=101,252=202,258=101,259=404,261=202,291=101;
#STOPS:259=0.037,259.25=0.037,259.5=0.037,259.75=0.037,260=0.037,260.25=0.037,260.5=0.037,260.75=0.037;
#BGCHANGES:3.75=we.avi=1=0=0=0=StretchNoLoop====,99999=-nosongbg-=1=0=0=0 // don't automatically add -songbackground-;

//---------------dance-single - Marten-bSP----------------
#NOTES:
     dance-single:
     Marten:
     Beginner:
     7:
     :
0000
0000
0000
0000
,
0000
0000
0000
0000
,
0000
0000
0000
0000
,
0000
0000
0000
0000
,
0000
0000
0000
0000
,
1000
1000
0001
0001
,
1001
0000
0100
0000
,
0001
0001
1001
1000
,
2002
0000
0000
3003
,
0001
0001
0100
0100
,
0010
0010
1000
1000
,
0100
0100
0010
0010
,
0001
0001
1000
0001
,
1000
1000
0010
0010
,
0001
0001
1000
1000
,
0100
0100
0001
0001
,
2002
0000
0000
3003
,
2002
3003
0001
1000
,
0002
0003
0010
0100
,
0020
0030
0100
1000
,
0100
0000
1000
0001
,
2002
3003
0001
0001
,
1000
0000
0010
0000
,
0220
0330
0100
0000
,
0001
0001
1000
0002
,
0003
0010
0000
0010
,
0000
0100
0000
0100
,
0200
0300
1000
1000
,
0000
0001
1000
2000
,
3001
0001
0100
0100
,
0010
0010
0100
0000
,
0001
0001
1000
1000
,
0100
0000
0010
0000
0001
0000
1000
1000
,
0000
1000
0000
0001
0000
0001
0000
0100
,
0000
0010
0000
0100
0000
0100
0000
0001
,
0000
0001
0000
1000
0000
1000
0000
0100
,
0000
0010
0000
0100
0000
0000
0000
1000
,
0000
1000
0000
0010
0000
0010
0000
0100
,
0000
0010
0000
1000
0000
0001
0000
0010
,
0000
0010
0000
0001
0000
0001
0000
1000
,
0000
0010
0000
0100
0000
0000
0000
1001
,
0000
1001
0000
0001
0000
0001
0000
1000
,
0000
1000
0000
0100
0000
0010
0000
0110
,
0000
0110
0000
0100
0000
0100
0000
1000
,
0000
0001
0000
0100
0000
0000
0000
0110
,
0000
0110
0000
0010
0000
1000
0000
0001
,
0000
1001
0000
0001
0000
1000
0000
0100
,
0000
0100
0000
0010
0000
0010
0000
0001
,
0000
1000
0000
0001
0000
1000
0000
0010
,
0000
0010
0000
0200
0000
0300
0000
0001
,
0000
0001
0000
2000
0000
3000
0000
0100
,
0000
0100
0000
0020
0000
0030
0000
0001
,
0000
1000
0000
2002
0000
3003
0000
0010
,
0010
0000
0000
0100
0100
0000
0000
0001
,
0001
0000
0000
1000
1000
1000
0000
0100
,
0100
0000
0000
0010
0010
0000
0000
2002
,
0000
0000
0000
0000
0000
3003
0000
0001
,
0000
0001
0000
1000
0000
1000
0000
0000
,
0000
1001
0000
0001
,
0100
0110
0010
1000
,
1001
0000
1000
0100
,
0110
0001
0010
0110
,
0000
1000
0010
0110
,
0100
0001
1001
0000
,
0001
1000
1001
0002
,
0000
1003
1000
0001
,
1000
0001
0001
0010
,
0010
0100
0100
0010
,
0100
0010
0000
0001
,
0001
0100
0100
0010
,
0010
1000
1000
0001
,
1000
0001
1000
0010
,
0100
0010
0100
0020
,
0000
0000
0000
0030
;

//---------------dance-single - Marten-BSP----------------
#NOTES:
     dance-single:
     Marten:
     Easy:
     10:
     :
0000
0000
0000
0000
,
0000
0000
0000
0000
,
0000
0000
0000
0000
,
0000
0000
0000
0000
,
0000
0000
0000
0000
,
1001
0000
0001
0001
1000
0001
0100
0000
,
0110
0000
0010
1000
0100
0100
0000
0000
,
1001
0000
1000
0001
1001
0001
1000
0000
,
0220
0000
0000
0330
,
1010
1000
1000
0001
0010
0100
0010
0010
,
0010
0001
0100
0010
0100
0100
0100
1000
,
0100
0010
1000
1000
1000
0100
0010
0001
,
1000
1000
1000
0010
0001
0010
1000
0100
,
1000
1000
1000
0001
0100
1000
0100
0100
,
0100
0001
0010
0100
0110
0110
0110
0010
,
0001
1000
1001
1001
1001
0100
0010
0100
,
2002
0000
0000
0000
0000
0000
0000
0000
3003
0000
0000
0000
0001
0000
1000
0001
,
0200
0300
0001
0010
,
0100
0200
0000
0300
1000
0000
0010
0000
,
0220
0000
0330
0000
0100
0000
0001
1000
,
0000
2001
0000
3001
0010
0000
0011
0000
,
2200
3300
1000
1000
,
0010
0001
0010
1000
,
2002
0000
3003
0000
0001
0000
1000
0010
,
0000
0010
0010
0000
0100
0010
0200
0000
,
0301
0002
0000
1003
0001
0000
0010
0000
,
0100
0200
0000
1300
0100
0000
0010
0000
,
0220
0000
0330
0010
0010
0000
0001
0000
,
0000
1000
0000
1000
0001
1000
0020
0000
,
0130
0120
0130
0001
,
1000
0001
2000
0000
3100
0000
0010
0000
,
0012
0000
1003
0000
0010
0000
0100
0020
,
0000
0130
0020
0000
1030
0000
1001
0011
,
0000
0011
0000
0001
0100
0001
0000
1000
,
0000
0010
0000
0100
0000
0010
0000
1010
,
0000
1010
0000
1000
0100
1000
0000
0001
,
0000
0010
0000
0100
0000
1000
0000
1100
,
0000
1100
0000
1000
0010
1000
0000
0001
,
0000
0100
0000
1000
0000
0100
0000
0101
,
0000
0101
0000
0001
0010
0001
0000
1000
,
0000
0010
0000
0001
0000
0010
0000
0110
,
0000
0110
0000
0100
0010
0100
0000
0001
,
0000
0010
0000
0100
0000
1000
0000
1001
,
0000
1001
0000
1000
0001
1000
0000
0010
,
0000
0100
0000
0001
0000
0010
0000
0011
,
0000
1100
0000
1000
0001
1000
0000
0010
,
0100
0010
0000
1000
0000
0001
0000
1001
,
0000
1010
0000
0100
0000
0101
0000
0001
,
0010
0001
0010
0100
1000
0100
0000
2000
,
0000
3020
0000
0230
0000
0000
0000
0301
,
0001
1000
0001
2000
0000
3000
0000
0002
,
0000
0023
0000
0230
0000
0000
0000
1300
,
1000
0001
1000
0002
0000
0003
0000
1001
,
0001
0000
1000
0010
0010
0000
0100
0010
,
0010
0000
1000
0100
0010
0001
1000
1001
,
1001
0001
0100
0110
0110
0010
1000
2002
,
0000
0000
0000
0000
0000
3003
0000
0001
,
0000
0100
0000
0010
1000
0001
0000
0000
,
0000
1001
0000
0001
,
0010
2100
3001
0100
,
2002
3003
1000
0100
,
0012
0203
0300
0120
,
0000
1030
0001
2100
,
3010
0100
2002
3003
,
0001
0100
2010
3002
,
0000
1003
0010
0001
,
0010
0000
0000
1000
0000
0001
1000
0000
0000
0001
0000
0000
,
0010
0000
0000
1000
0000
0000
0010
0000
0000
0001
0000
1000
,
0001
0000
0100
0002
0000
0000
0000
0000
0000
1003
0000
0010
,
1000
0000
0010
1000
0000
0010
1000
0000
0001
0100
0000
0001
,
0100
0000
0001
0100
0000
0001
0100
0000
0001
1000
0000
0000
,
0100
0000
0010
0000
0001
0000
1000
0100
,
1000
0000
0001
0100
0001
0000
0020
0000
,
0000
0000
0000
0030
;

//---------------dance-single - Marten-DSP----------------
#NOTES:
     dance-single:
     Marten:
     Medium:
     15:
     :
0000
0000
0000
0000
,
0000
0000
0000
0000
,
0000
0000
0000
0000
,
0000
0000
0000
0000
,
0000
0000
0000
0000
,
1000
0000
0000
0001
0100
0000
0100
0000
0100
0000
0010
0000
0100
0000
0000
0000
,
1001
0000
0000
1000
0001
0000
0010
0100
1000
0000
1100
0000
0000
0000
0000
0000
,
1000
0000
0000
0100
0010
0000
0010
0000
0110
0000
0100
0000
0010
0000
0000
0000
,
2002
0000
0000
3003
,
0001
0000
1000
0000
0001
0000
0100
0010
0100
0010
0100
0000
0001
0000
1000
0000
,
0001
0000
0010
0100
0010
0100
0010
0000
0001
0000
0100
0000
0001
0000
0100
0010
,
1000
0001
1000
0000
0100
0000
1000
0000
0100
0000
0010
0001
1000
0001
0100
0010
,
1000
0000
0001
0000
1000
0000
0100
0010
0001
0100
0010
0001
0010
1000
0001
0010
,
0100
0000
1000
0000
0100
0000
1000
0010
0100
0010
1000
0000
0001
0000
0001
0000
,
1000
0000
0010
1000
0001
1000
0100
0000
1100
0000
0110
0000
0011
0000
0001
1000
,
0100
1000
0010
0000
0110
0000
1010
0000
1001
0000
0001
0010
0100
1000
0010
0100
,
0002
0000
0000
0000
0000
0000
0000
0000
0000
0000
0000
0000
0000
0000
0000
0000
1003
0000
0010
0000
1000
0000
0001
0000
1000
0000
0100
0000
0010
0000
0001
1000
,
0002
0000
0000
0000
0003
0000
0000
0000
0100
0000
0001
0100
0001
0000
1000
0000
,
0100
2200
0000
3300
1000
0010
0001
0010
,
2020
0000
3030
0000
1000
0001
0100
0110
,
0000
0120
0000
0130
0001
0010
0220
0330
,
0220
0000
0000
0000
0330
0000
0000
0000
0100
0000
1000
0001
1000
0000
0010
0000
,
0100
0000
1000
0000
0100
0000
0010
0000
1000
0000
0001
0000
0010
0001
0010
0001
,
0020
0000
0000
0000
0030
0000
0000
0000
0100
0000
1000
0100
1000
0000
0001
0000
,
0000
0001
0001
1000
0010
0001
0020
0000
,
1030
0000
1200
0000
0000
0000
1300
0000
0010
0000
0100
0010
0100
0000
0001
0000
,
1000
0001
2000
0000
0000
0000
3001
0000
0001
0000
0010
0100
0010
0000
0001
0000
,
2002
0000
0000
0000
3003
0000
1000
0000
0010
0000
0100
0010
0100
0000
0001
0000
,
0000
0000
0010
0001
0010
0000
0100
1000
0100
0000
0010
0000
0002
0000
0003
0000
,
2002
3003
2001
0000
3001
0100
1000
0100
,
0010
0100
1100
0100
0001
1000
0100
0010
,
0021
0000
0000
0000
0130
0000
1000
0000
0001
0000
0100
0010
0100
0000
0001
0000
,
0000
0000
0001
0000
0001
0000
1000
0100
1000
0000
0100
0000
0010
0000
0011
0000
,
0000
0000
1100
0000
0000
0000
1000
0000
0010
1000
0010
0000
0100
0000
0001
0000
,
0100
1000
0100
0010
1000
0100
0010
0011
,
0000
0000
0110
0000
0000
0000
0010
0000
0001
0100
0001
0000
0010
0000
1000
0000
,
0001
0100
1000
0010
1000
0001
0001
0101
,
0000
0000
1001
0000
0000
0000
1000
0000
0100
0010
0100
0000
1000
0000
0010
0000
,
0001
1000
0100
0001
0010
0001
1000
1010
,
0000
0000
1001
0000
0000
0000
0001
0000
1000
0001
1000
0000
0010
0000
0001
0000
,
0010
0100
1000
0100
0010
1000
0100
0110
,
0000
0000
1001
0000
0000
0000
0001
0000
0010
0100
0010
0000
0001
0000
0100
0000
,
1000
0001
0010
1000
0100
0010
0001
1001
,
0000
0000
1100
0000
0000
0000
0100
0000
1000
0010
1000
0000
0010
0000
0001
0000
,
1000
0100
0010
1000
0001
0010
0100
0110
,
0000
0011
0000
1100
1000
0001
0100
1000
,
0100
0010
1000
0100
0010
0001
1000
0001
,
0100
0000
1000
0000
0001
0000
0010
0000
1000
0000
0001
0000
1000
0000
0001
0010
,
0001
0000
1000
0010
1000
0000
0010
0100
0010
0100
0010
0000
0000
0000
2000
0000
,
0000
3002
0000
0013
0010
0100
0000
1000
,
0010
0100
0001
2000
0001
3001
0000
0002
,
0000
2003
0000
3010
0010
0100
0000
0001
,
0010
0100
1000
0002
1000
1003
0000
1010
,
1010
0000
0000
0010
0000
0010
0100
0000
0110
0000
0000
0100
0000
0100
0001
0000
,
0101
0000
0000
0001
0000
0001
1000
0000
1001
0000
1010
0000
0011
0000
0110
0000
,
0110
0000
0010
0001
0000
0010
0001
0000
1001
0000
1000
0010
0000
1000
0020
0000
,
0000
0000
0000
0000
0000
0000
0000
1030
,
0100
0000
0010
0000
0010
0000
0001
1000
0001
0000
0100
0000
0000
0000
0000
0000
,
0000
0000
0000
0110
0000
0000
0000
0000
0010
1000
0000
1000
,
0001
1000
0001
0200
0010
0000
0301
0000
0010
0001
0000
0001
,
2000
0000
0000
0000
0000
3010
0100
0000
1000
0100
0000
0010
,
2000
0000
0000
3001
0000
0010
0100
0000
0001
0200
0000
0000
,
0000
0000
1300
0010
0000
0100
0001
0100
0001
0020
0100
0000
,
0031
0000
1000
0100
0000
0010
0002
0000
0000
0000
0000
0103
,
0001
0000
0010
1000
0000
0010
0002
0000
0000
2003
0000
0000
,
0000
0000
0000
3001
0000
0001
1000
0000
1000
0010
0000
0010
,
0100
0001
0100
0001
0000
0010
0100
1000
0100
1000
0000
1000
,
0001
0000
0001
1000
0000
1000
0010
0000
0010
0100
0000
0100
,
0001
0010
0100
1000
0000
1000
0010
0100
0001
1000
0000
1000
,
0100
0000
0100
0010
0000
0010
0001
0000
0001
0100
0000
0100
,
1000
0000
1000
0001
0000
0001
0010
0000
0010
1000
0000
0100
,
0001
0000
0000
0000
0000
0000
0000
0000
0100
0000
0000
0000
1000
0000
0000
0000
0000
0000
0000
0000
0010
0000
0000
0000
0001
0000
0000
0000
0000
0000
0000
0000
0010
0000
0000
0000
1000
0000
0000
0100
0000
0000
0000
0000
0000
0100
0000
0000
,
0000
0100
0000
0100
0010
0001
0010
0001
1000
0000
0000
0000
0020
0000
0000
0000
,
0000
0000
0000
0030
;

//---------------dance-single - Marten & Talkion-ESP----------------
#NOTES:
     dance-single:
     Marten & Talkion:
     Hard:
     17:
     :
0000
0000
0000
0000
,
0000
0000
0000
0000
,
0000
0000
0000
0000
,
0000
0000
0000
0000
,
0000
0000
0000
0000
,
1000
0000
0001
1000
0100
0000
0100
0000
0100
0000
0010
0000
0100
0000
0000
0000
,
1001
0000
0000
0001
1000
0000
0010
0100
0001
0000
0101
0000
0000
0000
0000
0000
,
0001
0000
0000
0000
1000
0000
0001
0000
0010
0000
0000
0000
0010
0000
0000
0000
0110
0000
0000
0000
0100
0000
0000
0000
0010
0000
0000
0000
0000
0000
0001
1000
,
0020
0000
0000
0000
,
0130
0000
0100
0000
0100
0000
0001
0010
0100
0001
0100
0000
0100
0000
0100
0000
,
0100
0000
1000
0001
0100
1000
0100
0000
0100
0000
0100
0000
0100
0000
0010
1000
,
0100
0010
0001
0000
0010
0000
0010
0000
0010
0000
0010
0001
0100
0010
0001
0010
,
1000
0000
1000
0000
1000
0000
0100
0010
1000
0010
0001
0100
0010
1000
0100
0010
,
0001
0000
0001
0000
0001
0000
0100
1000
0100
0010
0100
0000
0001
0000
0001
0000
,
0001
0000
0010
1000
0010
0001
1000
0000
1010
0000
0011
0000
1001
0000
0010
0100
,
1000
0001
0100
0000
0110
0000
1100
0000
0101
0000
0010
1000
0001
0010
1000
0010
,
0002
0000
0000
0000
0000
0000
0000
0000
0103
0000
0010
0000
0100
0000
0010
0000
1000
0000
0001
0000
1000
0000
0100
0000
0010
0000
0001
0000
1000
0001
0100
0010
,
2000
0000
0000
0000
3000
0000
0000
0000
0010
0000
0010
0100
0010
0000
1000
0000
,
0011
0000
0022
0000
0000
0000
0033
0000
0001
0010
0100
1000
0001
0010
0100
0000
,
2200
0000
0000
0000
3300
0000
0000
0000
0100
0000
0010
0001
1000
0000
2020
0000
,
3030
0000
0021
0000
0000
0000
0031
0010
0100
1000
0001
0000
2002
0000
3003
0000
,
0202
0000
0000
0000
0303
0000
0000
0000
0100
0000
0100
0010
0100
0000
0001
0000
,
1000
0000
0100
0000
0100
0000
0100
0000
1000
0000
0001
0100
0010
1000
0001
0000
,
0022
0000
0000
0000
0033
0000
0000
0000
0010
0000
0100
1000
0001
0000
0101
0000
,
0000
0000
0100
0000
0100
0000
0100
0010
1000
0001
0100
0000
0002
0000
0000
0000
,
0013
0000
0120
0000
0000
0000
0031
0000
0100
0000
0100
0001
0100
0000
0010
0000
,
0100
0001
0020
0000
0000
0000
0130
1000
0001
1000
0100
0010
0001
0100
1000
0000
,
0210
0000
0000
0000
0300
0000
0200
0000
0301
0000
0010
0100
1000
0000
0001
0000
,
0000
0000
1000
0010
0100
0000
1000
0100
0010
1000
0001
0000
2000
0000
3000
0000
,
2020
0000
3030
0000
0022
0000
0033
0000
0001
0000
1000
0100
0010
0000
1000
0000
,
0010
0000
0001
0000
1001
0000
1000
0000
0010
0000
0100
0001
1000
0100
1000
0001
,
0200
0000
0000
0000
0310
0000
1000
0000
0001
0000
0010
0100
0010
0000
0002
0000
,
0000
0000
1003
0000
0020
0000
0130
0010
1000
0010
0100
0000
0001
0000
2002
0000
,
3003
0000
2020
0000
3030
0000
1000
0000
0100
1000
0010
0000
0010
0000
0220
0000
,
0330
0000
0202
0000
0303
0000
0001
0010
1000
0010
0001
1000
0100
0000
2002
0000
,
3003
0000
0022
0000
0033
0000
0010
0000
0001
1000
0001
0000
0001
0000
1000
0000
,
1000
0000
0010
0000
0100
0001
1000
0001
0100
0000
0001
0010
0100
1000
0002
0000
,
0003
0000
0202
0000
0303
0000
0001
0000
1000
0010
0100
0000
0001
0000
1000
0000
,
0100
0010
0100
0010
0001
0000
1000
0000
0001
0100
0010
0100
0001
0010
0200
0000
,
0300
0000
2200
0000
3300
0000
0010
0000
0001
1000
0010
0000
0010
0000
0110
0000
,
0100
0000
0100
0000
0001
1000
0100
0010
0100
0000
0010
0100
0010
0001
2000
0000
,
3000
0000
0220
0000
0330
0000
0010
0000
1000
0001
0100
0000
0001
0000
0010
0000
,
1000
0000
0010
0000
0001
0000
1000
0100
0001
0100
1000
0001
0100
0000
2002
0000
,
3003
0000
0220
0000
0330
0000
0100
0000
0001
0010
0100
0000
1000
0000
0100
0000
,
0100
0000
0100
0000
1000
0010
0100
0001
0100
0000
0010
1000
0100
0010
0002
0000
,
0003
0000
2002
0000
3003
0000
0001
0000
1000
0100
0010
0000
0010
0000
0101
0000
,
0010
0000
1100
0000
0010
0000
0001
0000
1000
0010
0100
0001
0010
0100
1000
0000
,
0010
0000
1000
0000
0100
0000
0010
0000
0001
0000
0100
0000
0010
0000
1000
0001
,
1000
0100
0001
0100
0010
0001
1000
0001
0100
0010
1000
0000
0000
0000
1002
0000
,
0000
2003
0000
3100
0100
0020
0000
0031
,
0100
1000
0100
0002
1000
1003
0000
2000
,
0000
3002
0000
0013
0010
0200
0000
1300
,
0010
0001
0010
2000
0001
3001
0000
1001
,
0101
0000
0000
0001
0000
0001
0100
0000
0110
0000
0000
0010
0000
0010
1000
0000
,
1010
0000
0000
1000
0000
1000
0100
0000
1100
0000
0101
0000
1001
0000
0110
0000
,
0110
0000
0100
0001
0000
1000
1010
0000
1001
0000
0001
0010
0000
0100
2100
0000
,
0000
0000
0000
0000
0000
0000
3001
0000
1000
0000
0010
0100
0010
0000
1000
0000
,
0001
1000
0100
1000
0001
0100
0020
0000
1030
0010
0100
0001
1000
0100
0000
0000
,
0000
0000
0000
0110
0000
0000
0000
0000
0001
0011
0000
0010
,
1000
0000
0001
0000
0100
0000
2000
0000
0010
0000
0000
0100
3100
0000
0000
0000
0010
0000
0001
0000
0000
0000
1000
0000
,
1002
0000
0000
0103
0000
1000
0100
0001
1000
0020
0000
0000
,
0032
0000
0000
0013
0000
1000
0001
0000
1000
1200
0000
0000
,
0000
0000
0000
0000
0010
0000
0310
0000
0000
0000
1000
0000
0010
0000
0001
0000
1000
0000
0200
0000
0001
0000
0000
0010
,
0310
0000
0001
0100
0000
0010
0210
0000
0000
0301
0000
1000
,
0100
0000
0000
0000
0000
0000
0000
0000
0001
0000
0000
0000
0100
0000
0000
0000
1000
0000
0000
0000
0010
0000
0000
0000
0002
0000
0000
0000
0000
0000
0000
0000
0000
0000
0000
0000
0013
0000
0000
0100
0000
0000
0001
0000
0000
0100
0000
0000
,
0010
0000
0000
0100
0000
0000
0001
0000
0000
1000
0000
0000
0100
0000
0000
0000
0000
0000
0000
0000
1000
0000
0000
0000
0001
0000
0000
0000
0000
0000
0000
0000
1000
0000
0000
0000
1100
0000
0000
0000
0000
0000
0000
0000
0001
0000
0000
0000
,
0101
0000
0001
1000
0100
0010
0001
0000
0100
0110
0000
1000
,
1010
0000
0001
0012
0000
0000
0100
0000
0010
0013
0000
1000
,
0010
0001
0100
0010
0000
0001
0010
1000
0100
0010
0000
0001
,
0110
0000
1000
0110
0000
0001
0010
0000
0100
1000
0000
0010
,
1001
0000
0100
1001
0000
0001
1000
0000
0100
0010
0000
0100
,
0011
0000
0000
0000
0000
0000
0000
0000
0100
0000
0000
0000
1010
0000
0000
0000
0000
0000
0000
0000
0001
0000
0000
0000
0100
0000
0000
0000
0000
0000
0000
0000
0010
0000
0000
0000
1000
0000
0000
0001
0000
0000
0000
0000
0000
0010
0000
0000
,
0000
0010
0000
0100
1000
0001
1000
0010
0100
0001
0010
0100
2000
0000
0000
0000
,
0000
0000
0000
3000
;

//---------------dance-single - RGTM-CSP----------------
#NOTES:
     dance-single:
     RGTM:
     Challenge:
     17:
     :
0000
0000
0000
0000
,
0000
0000
0000
0000
,
0000
0000
0000
0000
,
0000
0000
0000
0000
,
0000
0000
0000
0000
,
1001
0000
0010
0100
0010
0000
0100
0000
1001
0000
0100
0000
0110
0000
0000
0000
,
1001
0000
0000
0001
1000
0000
1001
0000
0010
0000
0010
0000
0000
0000
0000
0000
,
1001
0000
0000
0000
0100
0000
0010
0000
0100
0000
0000
0000
0010
0000
0000
0000
1001
0000
0000
0000
0010
0000
0000
0000
0110
0000
0000
0000
0000
0000
0001
1000
,
0002
0000
0000
0000
,
1003
0000
1000
0000
1000
0000
0001
0010
0100
1000
0001
0000
0001
0000
0001
0000
,
0001
0000
1000
0010
0100
0001
1000
0000
0010
0000
0010
0000
0010
0000
0010
1000
,
0100
0010
0001
0000
0100
0000
0100
0000
0100
0000
0100
0010
0001
0010
1000
0000
,
0100
0000
0100
0000
0100
0000
0100
1000
0001
1000
0100
0010
1000
0010
0001
0000
,
0101
0000
0110
0000
1010
0000
1000
0010
0100
0001
0010
0000
0011
0000
0110
0000
,
1100
0000
1000
0100
0010
0001
0100
0000
1100
0000
1010
0000
0011
0000
0001
0010
,
0100
1000
0010
0000
0011
0000
0101
0000
1100
0000
1000
0010
0100
0001
1000
0001
,
0020
0000
0000
0000
0000
0000
0000
0000
0130
0000
0010
0000
0001
0000
0010
0000
0100
0000
1000
0000
0001
0000
1000
0000
0010
0000
0100
0000
0010
0100
0010
0100
,
0020
0000
0000
0000
0030
0000
0000
0000
0100
0000
0010
0100
0010
0000
1000
0000
,
0002
0000
2003
0000
0000
0000
3000
0000
0001
1000
0100
1000
0001
0010
0100
0000
,
0020
0000
0000
0000
0030
0000
0000
0000
0100
0000
1000
0001
1000
0000
0020
0000
,
0030
0000
0220
0000
0330
0000
0100
0010
1000
0001
0100
0000
0002
0000
0003
0000
,
2002
0000
0000
0000
3003
0000
0000
0000
1000
0000
0001
1000
0001
0000
0010
0000
,
0100
0000
0010
0000
0100
0000
1000
0000
0001
0000
0100
0001
1000
0001
0100
0000
,
0020
0000
0000
0000
0030
0000
0000
0000
0100
0000
0001
1000
0001
0000
2000
0000
,
3000
0000
0001
0000
0001
0000
0100
0010
0100
0001
1000
0000
0100
0000
0000
0000
,
0010
0000
0020
0000
0000
0000
0130
0000
0010
0000
0001
0010
0001
0000
0010
0000
,
0100
1000
0200
0000
0000
0000
2300
0000
3100
0010
0001
1000
0001
0100
0010
0000
,
2000
0000
0000
0000
3001
0000
2000
0000
3010
0000
0100
0010
0100
0000
0001
0000
,
0000
0000
1000
0100
2000
0000
3001
0010
0100
1000
0001
0000
0200
0000
0300
0000
,
0220
0000
0330
0000
2002
0000
3003
0000
0001
0000
0010
0100
0010
0000
0001
0000
,
1000
0000
0010
0000
2000
0000
3001
0000
0010
0000
0100
1000
0100
0010
0001
1000
,
0002
0000
0000
0000
0103
0000
0010
0000
1000
0000
0010
0100
0010
0000
2000
0000
,
3001
0000
0010
0000
0020
0000
0130
1000
0100
0010
0001
0000
1002
0000
1003
0000
,
0010
0000
0100
0000
0010
0000
1000
0000
0100
0010
0100
0000
1000
0000
0001
0000
,
0010
0000
0100
0000
0010
0000
0001
0100
0001
1000
0010
0100
0010
0000
1000
0000
,
0100
0000
0010
0000
0100
0000
1000
0000
0010
0100
0020
0000
0130
0000
0001
0000
,
0001
0000
1000
0000
0100
0010
0100
1000
0001
0000
1000
0100
0010
0001
1000
0000
,
0010
0000
0100
0000
0010
0000
1000
0000
0100
0010
0100
0000
0010
0000
0001
0000
,
0100
0010
0100
0010
0100
0000
0001
0000
1000
0010
0100
0010
1000
0001
1000
0000
,
0100
0000
0010
0000
0100
0000
1000
0000
0010
0100
0010
0000
0010
0000
1000
0000
,
0001
0000
0001
0000
1000
0001
1000
0001
1000
0000
0020
0000
0230
0000
0301
0000
,
0010
0000
1000
0000
0010
0000
0001
0000
0100
0010
0100
0000
0001
0000
1000
0000
,
0010
0000
0001
0000
0010
0000
1000
0100
1000
0001
0010
0100
0010
0000
0001
0000
,
0100
0000
1000
0000
0100
0000
0001
0000
0010
0100
0020
0000
0130
0000
1000
0000
,
1000
0000
0001
0000
0100
0010
0100
0001
1000
0000
0001
0010
0100
1000
0002
0000
,
0003
0000
2002
0000
3003
0000
1000
0000
0100
0010
0100
0000
1000
0000
0001
0000
,
0100
0000
2000
0000
3100
0000
0001
0000
0100
0010
0100
0001
1000
0001
0020
0000
,
0130
0000
0020
0000
0031
0000
1000
0000
0010
1000
0010
0000
0100
0000
0001
1000
,
0001
0010
0100
0010
0001
1000
0001
0100
0010
0100
0002
0000
0000
0000
0013
0000
,
0100
0010
0100
0000
0001
0100
1000
0000
0020
0000
0001
0000
0100
0000
1030
0000
,
0010
0000
0001
0000
0010
0000
2000
0000
0001
0000
0001
0000
3100
1000
0100
0000
,
0010
0100
0010
0000
1000
0010
0001
0000
0001
0100
1000
0200
0001
0000
1000
0000
,
0010
0000
0001
0000
0310
1000
0001
1000
0100
0010
1000
0010
0001
0000
1001
0000
,
1001
0000
1000
1010
0000
0010
0110
0000
0110
0000
0100
0101
0000
0001
1001
0000
,
1001
0000
1000
1100
0000
0100
0110
0000
0110
0000
0010
0011
0000
0001
1001
0000
,
1010
0011
1001
1100
0101
1001
0110
2002
,
0000
3003
0000
0001
1000
0001
1000
0001
,
1000
0000
0010
0100
0010
1000
0100
0000
0010
0100
0010
0001
0200
0000
0000
0000
,
0000
0000
0000
0300
0000
0000
1001
0000
0000
0000
0000
0000
0000
0000
0000
0000
0001
0000
0100
0000
0000
0000
0100
0000
,
1000
0000
0100
0000
0001
0000
1000
0000
0100
0000
0000
0100
0010
0000
0000
0000
0010
0000
0001
0000
0000
0000
0001
0000
,
0200
0000
0000
0000
0000
0000
0320
0000
0000
0030
0001
0000
0010
0000
0100
0000
0001
0000
0010
0000
0000
0000
0010
0000
,
2000
0000
0000
3010
0000
0010
0001
0100
0010
1000
0000
0000
,
1000
0000
0000
0000
0001
0000
0100
0000
0000
0000
0001
0000
0010
0000
0000
0000
0100
0000
1000
0000
0010
0000
0000
0100
,
0010
0000
0000
0000
0010
0000
1000
0000
0000
0000
1000
0000
0200
0000
0000
0000
0000
0000
0320
0000
0000
0030
1000
0000
,
0010
0000
0000
0000
0000
0000
0000
0000
0100
0000
0000
0000
1000
0000
0000
0000
0000
0000
0000
0000
0010
0000
0000
0000
0002
0000
0000
0000
0000
0000
0000
0000
0000
0000
0000
0000
0013
0000
0000
0100
0000
0000
0010
0000
0000
0100
0000
0000
,
0010
0000
0000
0100
0000
0000
0010
0000
0000
0100
0000
0000
0010
0000
0000
0000
0000
0000
0000
0000
1000
0000
0000
0000
0010
0000
0000
0000
0000
0000
0000
0000
0100
0000
0000
0000
0001
0000
0000
0000
0000
0000
0000
0000
0001
0000
0000
0000
,
1000
0000
1000
1100
0000
0100
0010
0001
1000
0001
0000
1000
,
0010
0000
0000
0000
0010
0000
0210
0000
0000
0000
0302
0000
0023
0000
0000
0030
0100
0000
1000
0000
0000
0000
1000
0000
,
0001
0000
0001
1001
0000
1000
0010
0100
0001
0010
0000
0100
,
0001
0000
0100
1100
0000
1000
0100
0000
1000
0010
0000
0001
,
0010
0000
1000
1010
0000
0010
1000
0100
0010
0001
0000
0010
,
0100
0000
0000
0000
0000
0000
0000
0000
0100
0000
0000
0000
0120
0000
0000
0000
0000
0000
0000
0000
0032
0000
0000
0000
2003
0000
0000
0000
0000
0000
3000
0000
0001
0000
0000
0000
0100
0000
0000
0010
0000
0000
0000
0000
0000
0010
0000
0000
,
0000
0010
0000
0010
0100
0001
0100
0010
1000
0001
0010
0100
2000
0000
0000
0000
,
0000
0000
0000
3000
;

//---------------dance-double - Talkion-BDP----------------
#NOTES:
     dance-double:
     Talkion:
     Easy:
     11:
     :
00000000
00000000
00000000
00000000
,
00000000
00000000
00000000
00000000
,
00000000
00000000
00000000
00000000
,
00000000
00000000
00000000
00000000
,
00000000
00000000
00000000
00000000
,
00010000
00000000
00100000
10000000
00010000
00000000
10000000
00000000
,
22000000
00000000
00000000
33000000
,
10000000
00000000
00010000
00100000
00001000
00000000
00010000
00000000
,
00010200
00000000
00000000
00000000
,
00000310
00000010
00000010
00000000
00000001
00001000
00000100
00000000
,
00010000
00001000
01000000
00000000
00100000
00100000
00100000
00000000
,
10000000
00010000
00100000
00100000
00001000
00010000
00000100
00000000
,
00000010
00000010
00000010
00000000
00000001
00001000
00000100
00010000
,
00001000
00001000
00001000
01000000
00100000
10000000
00010000
00000000
,
10000000
01000000
00010000
00001000
00000010
00000001
00001000
00000001
,
00000100
00001000
00010000
00100000
10000000
00010000
10000000
01000000
,
00020000
00000000
00000000
00000000
,
00031000
00000000
00000000
00000000
00000100
00000010
00001000
00000000
,
00001001
00000000
00000002
00000013
,
00001000
00000000
00000000
00000000
00010000
00001000
00100000
00010000
,
00000000
00010000
00000000
10000000
00100000
00000000
01000000
00000000
,
00010000
00000000
00000000
00000000
00100000
00001000
00010000
00000000
,
00000000
00001000
00001000
00010000
00000100
00001000
00000001
00000000
,
00000100
00000000
00000000
00000000
00000010
00010000
00001000
00100000
,
00000000
00100000
00100000
00010000
20000000
00000000
30100000
00000000
,
01000000
00010000
00000000
00010000
00100000
00000000
00001000
00000000
,
00000010
00000001
00000000
00000001
00000100
00000000
00001000
00000000
,
00010000
00000000
00000000
00010000
01000000
00000000
10000000
00000000
,
00000000
10000000
00010000
00000000
00100000
00001000
00020000
00000000
,
00030100
00000000
00000100
00000000
00000010
00000001
00000100
00000000
,
00001000
00000000
00001000
00000000
00100000
00010000
01000000
00000000
,
00200000
00000000
10300000
00000000
00010000
10000000
01000000
00000000
,
00010000
00000000
00001000
00000000
00010000
00001000
00010000
00000100
,
00000000
00000100
00000000
00000010
00000001
00001000
00000001
00000100
,
00000000
00001000
00000000
00010000
00001000
00100000
00010000
01000000
,
00000000
01000000
00000000
00100000
10000000
00010000
10000000
01000000
,
01000000
00100000
00000000
00001000
00010000
00000200
00000000
00000310
,
00000000
00000010
00000000
00000001
00001000
00000100
00010000
00001000
,
00100000
00200000
00000000
00310000
10000000
00010000
10000000
01000000
,
00000000
01000000
00000000
10000000
00010000
00100000
00001000
00010000
,
00000100
00000100
00000010
00000001
00001000
00000001
00000000
00000100
,
00000000
00000100
00000000
00001000
01000000
00010000
01000000
00001000
,
00000000
00010000
00000000
01000000
10000000
00010000
10000000
00100000
,
00000000
00100000
00000000
00010000
00000010
00001000
00000010
00010000
,
00000000
00000100
00000000
00000010
00000001
00000100
00000010
00010000
,
00000000
00011000
00000000
00001000
00000000
00101000
00000000
00100000
,
00000000
01100000
00000000
01000000
00000000
11000000
00000000
10000000
,
00010000
10000000
00010000
00100000
00001000
00100000
00001000
00010000
,
00000100
00001000
00000001
00000100
00001000
00010000
00000000
00011000
,
00000000
00001000
00000000
00100000
00100000
00010000
00000000
10000000
,
00100000
01000000
00001000
00020000
00000000
00030000
00000000
00011000
,
00000000
00010000
00000000
00000100
00000100
00001000
00000000
00000001
,
00000100
00000010
00010000
00002000
00000000
00003000
00000000
00100000
,
00000000
00100000
00010000
10010000
00000000
10000000
00000000
00100000
,
00000000
00100000
01000000
01001000
00000000
00001000
00000000
00010000
,
00000000
00010000
00000100
00000110
00000000
00000010
00000000
00002002
,
00000000
00000000
00000000
00000000
,
00000000
00000000
00000000
00003003
,
00000000
00000000
00000000
00001001
00000000
00000000
00000000
00000000
00000000
00000001
00000000
00000100
,
00000010
00010000
00001000
01000000
,
01100000
10100000
10000000
00010000
,
00110000
00100000
00001000
00011000
,
00000000
00000000
00001000
00000010
00000000
00000000
00000001
00000000
00000000
00001000
00000000
00000000
,
00000001
00000100
00000110
00010010
,
00010000
00000000
00001000
00100000
00000000
00000000
00020000
00000000
00000000
20030000
00000000
00000000
,
00000000
00000000
00000000
30100000
00000000
00000000
01000000
00000000
00001000
00010000
00000000
00000000
,
00000100
00000000
00000000
00001000
00000000
00000000
00000001
00000000
00000100
00000010
00000000
00000000
,
00010000
00000000
00000000
00001000
00000000
00000000
00100000
00000000
01000000
10000000
00000000
00000000
,
00010000
00000000
00000000
01000000
00000000
00000000
00001000
00010000
00001000
00010000
00000000
00000000
,
00000100
00000000
00000000
00000010
00000000
00000000
00000011
00000000
00000001
00001000
00000000
00000000
,
00000100
00000000
00000000
00010000
00000000
00000000
00011000
00000000
00001000
00100000
00000000
00000000
,
00010000
10010000
11000000
02000000
,
00000000
00000000
00000000
03200000
,
00000000
00000000
00000000
00300000
;

//---------------dance-double - Talkion-DDP----------------
#NOTES:
     dance-double:
     Talkion:
     Medium:
     15:
     :
00000000
00000000
00000000
00000000
,
00000000
00000000
00000000
00000000
,
00000000
00000000
00000000
00000000
,
00000000
00000000
00000000
00000000
,
00000000
00000000
00000000
00000000
,
00001000
00000000
00000000
00010000
00001000
00000000
00000010
00000000
00000001
00000000
00001000
00000000
00000001
00000000
00000000
00000000
,
00002002
00000000
00000000
00003003
,
00000001
00000000
00000000
00000100
00000001
00000000
00001000
00000000
00000200
00000000
00010300
00000000
00001000
00000000
00000000
00000000
,
00201000
00000000
00000000
00000000
,
00310000
00000000
00010000
00000000
10000000
00000000
00100000
01000000
00010000
00100000
00001000
00000000
00000010
00000000
00000010
00000000
,
00000001
00000000
00001000
00000001
00000100
00000010
00001000
00000000
00100000
00000000
00100000
00000000
10000000
00000000
00010000
00100000
,
00001000
00010000
00000100
00000000
00000010
00000000
00000010
00000000
00000001
00000000
00001000
00000001
00000100
00001000
00010000
00000000
,
00001000
00000000
00001000
00000000
00100000
00000000
01000000
10000000
00010000
01000000
00100000
01000000
00001000
00010000
00000100
00000010
,
00000001
00000000
00001000
00000000
00001001
00000000
00000001
00000100
00000010
00010000
00001000
00000000
00100000
00000000
01000000
00000000
,
01100000
00000000
00100000
00010000
10000000
00100000
01000000
00000000
00001000
00000000
00010000
00000000
00011000
00000000
00001000
00000010
,
00000001
00001000
00000010
00000000
00000100
00000000
00000001
00000000
00001001
00000000
00001000
00000100
00010000
00001000
00100000
00010000
,
20000000
00000000
00000000
00000000
30100000
10000000
00100000
10000000
00010000
00100000
00010000
00100000
00001000
00010000
00000200
00000000
,
00000310
00000000
00000000
00000000
00001000
00000010
00000001
00000000
,
00000100
00000200
00000000
00000000
00010300
01000000
00100000
00000000
,
01100000
00000000
00000000
00000000
10000000
00100000
00010000
00000010
,
00000000
00000000
00000010
00000000
00000000
00000000
00000100
00000001
00002000
00000000
00003001
00000000
00000010
00000000
00000000
00000000
,
00000110
00000000
00000000
00000000
00000001
00000100
00001000
00010000
,
00100000
10000000
10000000
00010000
20000000
31000000
00020000
00031000
,
00011000
00000000
00000000
00000000
00000100
00000010
00000001
00001000
,
00000000
00000000
00001000
00000000
00001000
00000000
00000100
00010000
00000100
00010000
00001000
00000000
00200000
00000000
00000000
00000000
,
00310000
10010000
00000000
10000000
00100000
00010000
00001000
00000000
,
00010000
00001000
00020000
00000000
00000000
00000000
00030100
00000000
00000010
00000000
00000010
00000000
00000010
00000000
00000000
00000000
,
00001001
00000000
00000000
00000001
00000100
00001000
00010000
00100000
,
00000000
00000000
00100000
10000000
00010000
00000000
10000000
00000000
02000000
00000000
03010000
00000000
00002000
00000000
00000000
00000000
,
00003010
00000000
00001001
00000000
00000001
00000100
00000010
00001000
,
00000001
00000100
00001000
00000000
00010000
02000000
13000000
00010000
,
20000000
00000000
30100000
00000000
00010000
00001000
00000010
00000001
,
00001000
00000000
00000100
00000000
00000010
00000000
00000001
00001000
00000001
00001000
00000100
00000000
00010000
00000000
00011000
00000000
,
00000000
00101000
00000000
00100000
00010000
00001000
00010000
00100000
,
00000000
00000000
10010000
00000000
00000000
00000000
10000000
01000000
10000000
00000000
00010000
00000000
00100000
00000000
00101000
00000000
,
00000000
00011000
00000000
00001000
00000010
00000001
00000010
00000100
,
00000100
00000000
00010000
00000000
00001000
00000000
01000000
00000000
00010000
00000000
10000000
01000000
00100000
00010000
10000000
00000000
,
00000000
10010000
00000000
00010000
00001000
00000100
00000010
00000002
,
00001000
00001000
00001003
00000001
00000100
00001000
00010000
00011000
,
00000000
01001000
00000000
01000000
00100000
10000000
01000000
00100000
,
00001000
00001000
00001000
00000010
00000001
00002000
00000000
00003100
,
00000000
00001100
00000000
00000100
00001000
00010000
00001000
00000100
,
00000000
00000000
00001001
00000000
00000000
00000000
00000001
00000010
00000001
00000000
00001000
00000000
00000100
00000000
00010100
00000000
,
00000000
00011000
00000000
00010000
01000000
10000000
01000000
00100000
,
00100000
00000000
00001000
00000000
00010000
00000000
00000010
00000000
00001000
00000000
00000001
00000010
00000100
00001000
00000001
00000000
,
00000000
00001001
00000000
00000001
00001000
00010000
00001000
00000001
,
00000010
00000100
00000000
00010000
01000000
10000000
00100000
01000000
,
01000000
00001000
00001000
00010000
00010000
00000100
00000100
00000010
,
00000001
00001000
00010000
00100000
01000000
10000000
00000000
10020000
,
00000000
02030000
00000000
03001000
00001000
00020000
00000000
00030100
,
00000010
00000001
00001000
00000020
00000000
00000030
00000000
00002001
,
00000000
00003020
00000000
00010030
00010000
00002000
00000000
00103000
,
01000000
10000000
00010000
02000000
00000000
03000000
00000000
10000000
,
00010000
10000000
01000000
00010000
00001000
00000100
00000001
00001000
,
00000001
00000010
00001000
00010000
00100000
10000000
00010000
10000000
,
01000000
01010000
00010000
00011000
00001000
00001010
00000010
00000012
,
00000000
00000000
00000000
00000103
00000001
00000100
00000000
00001000
,
00010000
00000000
00002000
00000000
00000000
00000000
00103000
00000000
00010000
00000000
10000000
00100000
10000000
00100000
00000000
00000000
,
00000000
00000000
00000000
01100000
00000000
00000000
00000000
00000000
01000000
00001000
00000000
00001000
,
00010000
00000000
00000000
00010100
00000000
00000000
00000100
00000000
00000100
00000010
00000000
00000010
,
00000002
00000000
00000000
00000103
00000000
00001000
00010000
00000000
00010000
00001000
00000000
00000000
,
00101000
00000000
00000000
00100000
00000000
00100000
01000000
00000000
01000000
20000000
00000000
00000000
,
00000000
00000000
30100000
00010000
00000000
00001000
00010000
00000000
00000000
00011000
00000000
00000000
,
00001000
00000000
00001000
00000010
00000000
00000010
00000002
00000000
00000000
00001003
00000000
00000100
,
00010000
00000000
00010000
01000000
00000000
00000000
01100000
00000000
00000000
00102000
00000000
00000000
,
00000000
00000000
00000000
00013000
00000000
00000100
00001000
00000000
00000001
00000100
00000000
00000000
,
00001100
00000000
00000000
00001000
00000000
00100000
00010000
00000000
10000000
00100000
00000000
00000000
,
01100000
00000000
00000000
01000000
00000000
00001000
00010000
00000000
00000100
00000010
00000000
00000001
,
00001000
00000000
00000100
00020000
00000000
00000000
00031000
00100000
00010000
10000000
00000000
00000000
,
10010000
00000000
00000000
00010000
00000000
01000000
00001000
00000000
00010000
00000100
00000000
00000010
,
00000001
00000000
00000000
00001000
00000000
00000001
00000100
00000000
00000010
00010000
00000000
00010000
,
00001000
00000000
00000000
00000000
00000000
00000000
00000000
00000000
00001000
00000000
00000000
00000000
00100000
00000000
00000000
00000000
00000000
00000000
00000000
00000000
00100000
00000000
00000000
00000000
00010000
00000000
00000000
00000000
00000000
00000000
00000000
00000000
00010000
00000000
00000000
00000000
10000000
00000000
00000000
00000000
00000000
00000000
00000000
00000000
00000000
00100000
00000000
00000000
,
00000000
00100000
00000000
00000000
02010000
00000000
00000000
00000000
00000000
00000000
00000000
00000000
03002000
00000000
00000000
00000000
,
00000000
00000000
00000000
00003000
;

//---------------dance-double - Talkion-EDP----------------
#NOTES:
     dance-double:
     Talkion:
     Hard:
     18:
     :
00000000
00000000
00000000
00000000
,
00000000
00000000
00000000
00000000
,
00000000
00000000
00000000
00000000
,
00000000
00000000
00000000
00000000
,
00000000
00000000
00000000
00000000
,
10000000
00000000
00010000
10000000
01000000
00000000
01000000
00000000
01000000
00000000
00010000
00000000
00001000
00000000
00000000
00000000
,
00001200
00000000
00000010
00000010
00000001
00000001
00000300
00000000
,
00000001
00000000
00000000
00000000
00001000
00000000
00000001
00000000
00000100
00000000
00000000
00000000
00000100
00000000
00000000
00000000
00000100
00000000
00000000
00000000
00001000
00000000
00000000
00000000
00010000
00000000
00000000
00000000
00000000
00000000
00001000
00100000
,
00020000
00000000
00000000
00000000
,
00130000
00000000
00100000
00000000
00100000
00000000
00010000
10000000
00100000
00010000
00001000
00000000
00000010
00000000
00000010
00000000
,
00000010
00000000
00000001
00000010
00001000
00010000
00000100
00000000
00001000
00000000
00001000
00000000
00001000
00000000
00010000
00100000
,
01000000
10000000
00100000
00000000
01000000
00000000
01000000
00000000
01000000
00000000
00010000
00100000
00001000
00000010
00000001
00001000
,
00000010
00000000
00000010
00000000
00000010
00000000
00000001
00000010
00001000
00000001
00000010
00000100
00010000
00001000
00100000
01000000
,
10000000
00000000
10000000
00000000
10000000
00000000
00010000
10000000
00100000
00010000
00001000
00000000
00000010
00000000
00000010
00000000
,
00000010
00000000
00000100
00010000
00001000
00100000
00010000
00000000
00110000
00000000
01100000
00000000
11000000
00000000
10000000
00010000
,
01000000
00001000
00010000
00000000
00010100
00000000
00000110
00000000
00000011
00000000
00000001
00000010
00001000
00010000
01000000
10000000
,
00020000
00000000
00000000
00000000
00000000
00000000
00000000
00000000
01030000
00000000
00100000
00000000
01000000
00000000
00100000
00000000
10000000
00000000
00010000
00000000
00100000
00000000
00001000
00000000
00010000
00000000
00000100
00000000
00001000
00000001
00000100
00000010
,
00002000
00000000
00000000
00000000
00003000
00000000
00000000
00000000
00000100
00000000
00000100
00010000
00001000
00000000
00100000
00000000
,
00010000
00000000
00020000
00000000
00000000
00000000
00030000
00000000
10000000
00100000
01000000
00010000
10000000
00100000
01000000
00000000
,
00002000
00000000
00000000
00000000
00003000
00000000
00000000
00000000
00000100
00000000
00000001
00001000
00000100
00000000
00020000
00000000
,
00030000
00000000
00021000
00000000
00000000
00000000
01030000
00100000
00010000
10000000
00100000
00000000
01000000
00000000
00000000
00000000
,
02020000
00000000
00000000
00000000
03030000
00000000
00000000
00000000
01000000
00000000
01000000
00001000
00010000
00000000
00000010
00000000
,
00001000
00000000
00000001
00000000
00000001
00000000
00000001
00000000
00001000
00000000
00000100
00010000
00001000
00010000
00001000
00000000
,
00200000
00000000
00000000
00000000
00300000
00000000
00000000
00000000
01000000
00000000
00100000
00010000
10000000
00000000
10010000
00000000
,
00000000
00000000
10000000
00000000
10000000
00000000
10000000
00100000
01000000
00010000
00100000
00000000
00002000
00000000
00000000
00000000
,
00003010
00000000
00000012
00000000
00000000
00000000
00000103
00000000
00000010
00000000
00000010
00010000
00001000
00000000
00100000
00000000
,
00010000
10000000
00200000
00000000
00000000
00000000
01300000
00010000
00100000
00001000
00100000
00001000
00010000
00000100
00001000
00000000
,
00001200
00000000
00000000
00000000
00000300
00000000
00000200
00000000
00000301
00000000
00000100
00000010
00000001
00000000
00001000
00000000
,
00000000
00000000
00000100
00010000
00001000
00000000
00100000
00010000
10000000
00100000
01000000
00000000
00020000
00000000
00030000
00000000
,
02020000
00000000
03030000
00000000
02002000
00000000
03003000
00000000
00001000
00000000
00010000
00000100
00001000
00000000
00000001
00000000
,
00000100
00000000
00001000
00000000
00010000
00000000
00100000
00000000
10000000
00000000
00010000
10000000
01000000
10000000
00010000
01000000
,
00002000
00000000
00000000
00000000
00003100
00000000
00000001
00000000
00001000
00000000
00000100
00000010
00000100
00000000
00020000
00000000
,
00000000
00000000
00031000
00000000
00100000
00000000
00010000
10000000
00100000
10000000
00010000
00000000
00100000
00000000
00001000
00000000
,
00000010
00000000
00000001
00000000
00000100
00000000
00000010
00000000
00010000
00000100
00001000
00000000
00000010
00000000
00010000
00000000
,
00100000
00000000
10000000
00000000
01000000
00000000
00100000
00010000
10000000
00010000
01000000
00001000
00010000
00000000
00001000
00000000
,
00000100
00000000
00000001
00000000
00001000
00000000
00000100
00000000
00010000
00001000
00100000
00000000
00001000
00000000
00010000
00000000
,
00010000
00000000
01000000
00000000
10000000
00010000
01000000
00100000
01000000
00000000
00001000
00010000
00000100
00001000
00000001
00000000
,
00000100
00000000
00001000
00000000
00010000
00000000
01000000
00000000
10000000
00010000
01000000
00000000
00100000
00000000
00010000
00000000
,
00001000
00010000
00001000
00010000
00000100
00000000
00000010
00000000
00000001
00001000
00000100
00010000
00001000
01000000
00010000
00000000
,
10000000
00000000
00100000
00000000
00010000
00000000
00001000
00000000
00000010
00000100
00001000
00000000
00000001
00000000
00000100
00000000
,
00000010
00000000
00000010
00000000
00010000
00001000
00100000
00010000
10000000
00100000
01000000
00000000
00001000
00010000
00001000
00000000
,
00000100
00000000
00000001
00000000
00000010
00000000
00000100
00000000
00010000
00000010
00001000
00000000
00000100
00000000
00010000
00000000
,
01000000
00000000
10000000
00000000
00100000
00000000
01000000
00010000
10000000
00010000
00100000
00001000
00010000
00000000
00001000
00000000
,
00000010
00000000
00000001
00000000
00001000
00000000
00000010
00000000
00010000
00001000
01000000
00000000
00001000
00000000
00010000
00000000
,
00010000
00000000
00100000
00000000
10000000
00010000
00100000
01000000
00100000
00000000
00001000
00010000
00000010
00001000
00000002
00000000
,
00000003
00000000
00002002
00000000
00003003
00000000
00001000
00000000
00000100
00010000
00001000
00000000
00100000
00000000
00110000
00000000
,
01000000
00000000
11000000
00000000
10000000
00000000
00010000
00000000
01000000
00001000
00010000
00000010
00001000
00000001
00000100
00000000
,
00001000
00000000
00010000
00000000
00100000
00000000
10000000
00000000
01000000
00000000
00010000
00000000
00001000
00000000
00000010
00000001
,
00000010
00000001
00001000
00000010
00001000
00000010
00010000
00001000
00100000
00010000
01000000
00000000
00000000
00000000
01200000
00000000
,
00000000
20300000
00000000
31000000
01000000
00020000
00000000
00030010
,
00000100
00000001
00001000
00000200
00000010
00000310
00000000
00000120
,
00000000
00000032
00000000
00000103
00000100
00002000
00000000
00103000
,
01000000
10000000
00010000
02000000
00100000
03100000
00000000
10100000
,
00000000
00101000
00001000
00001010
00000000
00000101
00000001
00000011
,
00000000
00001010
00001000
00101000
00100000
00010000
10000000
10100000
,
00100000
01010000
00011000
00001100
00000100
00000110
00000011
00002001
,
00000000
00000000
00000000
00000000
00000000
00000000
00003100
00000000
00010000
00000000
00001000
00010000
00001000
00000000
00100000
00000000
,
00010000
10000000
00100000
01000000
00010000
00100000
00002000
00000000
00013000
00000100
00001000
00000001
00000100
00000010
00000000
00000000
,
00000000
00000000
00000000
00000110
00000000
00000000
00000000
00000000
00000010
00001000
00000000
00100000
,
10000000
00000000
00010000
00000000
10000000
00000000
02000000
00000000
00010000
00000000
00000000
00100000
03100000
00000000
00000000
00000000
00001000
00000000
00010000
00000000
00000000
00000000
00000010
00000000
,
00000200
00000000
00000000
00001300
00000000
00100000
01000000
10000000
00010000
00200000
00000000
00000000
,
00302000
00000000
00000000
00003010
00000000
00000001
00000100
00000000
00010000
02000000
00000000
00000000
,
00000000
00000000
00000000
00000000
00100000
00000000
03100000
00000000
00000000
00000000
10000000
00000000
00010000
00000000
00100000
00000000
00001000
00000000
00020000
00000000
00000100
00000000
00000000
00000010
,
00030010
00000000
00000100
00000001
00000000
00001000
00020000
00000000
00000000
01030000
00000000
00100000
,
10000000
00000000
00000000
00000000
00000000
00000000
00000000
00000000
00010000
00000000
00000000
00000000
00100000
00000000
00000000
00000000
00001000
00000000
00000000
00000000
00000010
00000000
00000000
00000000
00000002
00000000
00000000
00000000
00000000
00000000
00000000
00000000
00000000
00000000
00000000
00000000
00001003
00000000
00000000
00000100
00000000
00000000
00010000
00000000
00000000
00000100
00000000
00000000
,
00001000
00000000
00000000
00000100
00000000
00000000
00010000
00000000
00000000
00000100
00000000
00000000
00001000
00000000
00000000
00000000
00000000
00000000
00000000
00000000
00000001
00000000
00000000
00000000
00000100
00000000
00000000
00000000
00000000
00000000
00000000
00000000
00001000
00000000
00000000
00000000
00011000
00000000
00000000
00000000
00000000
00000000
00000000
00000000
00010000
00000000
00000000
00000000
,
01000000
00000000
10000000
10010000
00000000
00010000
01000000
00001000
00000100
00000010
00000000
00001000
,
00000100
00000000
00010000
00021000
00000000
00000000
01000000
00000000
00001000
00031000
00000000
01000000
,
00100000
10000000
00010000
00002000
00000000
00000000
00003100
00000010
00000001
00000100
00000000
00001000
,
00010000
00000000
01000000
00100000
00000000
00010000
10010000
00000000
10000000
10100000
00000000
00100000
,
01100000
00000000
01000000
01001000
00000000
00001000
00011000
00000000
00010000
00001000
00000000
00000001
,
00001000
00000000
00000000
00000000
00000000
00000000
00000000
00000000
00010000
00000000
00000000
00000000
00100000
00000000
00000000
00000000
00000000
00000000
00000000
00000000
10000000
00000000
00000000
00000000
00010000
00000000
00000000
00000000
00000000
00000000
00000000
00000000
10000000
00000000
00000000
00000000
01000000
00000000
00000000
00010000
00000000
00000000
00000000
00000000
00000000
00010000
00000000
00000000
,
00000000
00010000
00000000
00001000
00010000
00000100
00001000
00000001
00000100
00000010
00000100
00000010
00002000
00000000
00000000
00000000
,
00000000
00000000
00000000
00003000
;

//---------------dance-double - Kekkle-CDP----------------
#NOTES:
     dance-double:
     Kekkle:
     Challenge:
     17:
     :
00000000
00000000
00000000
00000000
,
00000000
00000000
00000000
00000000
,
00000000
00000000
00000000
00000000
,
00000000
00000000
00000000
00000000
,
00000000
00000000
00000000
00000000
,
10010000
00000000
10000000
01000000
10000000
00000000
00010000
00000000
01001000
00000000
00001000
00000000
00011000
00000000
00000000
00000000
,
00010100
00000000
00000000
00000100
00001000
00000000
00001001
00000000
00000010
00000000
00000010
00000000
00000000
00000000
00000000
00000000
,
00001001
00000000
00000000
00000000
00000001
00000000
00000100
00000000
00000001
00000000
00000000
00000000
00001000
00000000
00000000
00000000
00010010
00000000
00000000
00000000
00010000
00000000
00000000
00000000
00011000
00000000
00000000
00000000
00000000
00000000
00001000
01000000
,
00002000
00000000
00000000
00000000
,
00103000
00000000
00100000
00000000
00100000
00000000
00010000
10000000
00100000
01000000
00010000
00000000
00010000
00000000
00010000
00000000
,
00010000
00000000
01000000
00001000
00010000
00000100
00001000
00000000
00000100
00000000
00000100
00000000
00000100
00000000
00000100
00000010
,
00000001
00001000
00000010
00000000
00001000
00000000
00001000
00000000
00001000
00000000
00001000
00000010
00000001
00000010
00000100
00000000
,
00001000
00000000
00001000
00000000
00001000
00000000
00001000
00010000
00100000
10000000
00100000
01000000
10000000
01000000
00010000
00000000
,
10010000
00000000
11000000
00000000
01100000
00000000
00100000
00001000
00010000
00000010
00001000
00000000
00001010
00000000
00001001
00000000
,
00000101
00000000
00000100
00000001
00001000
00000100
00010000
00000000
00011000
00000000
00101000
00000000
01100000
00000000
01000000
10000000
,
00100000
01000000
00001000
00000000
00011000
00000000
00010010
00000000
00000110
00000000
00000100
00000001
00001000
00000100
00000010
00000100
,
00020000
00000000
00000000
00000000
00000000
00000000
00000000
00000000
00031000
00000000
01000000
00000000
00100000
00000000
10000000
00000000
00100000
00000000
01000000
00000000
00001000
00000000
00010000
00000000
00000100
00000000
00001000
00000000
00000001
00001000
00000001
00001000
,
00000002
00000000
00000000
00000000
00000003
00000000
00000000
00000000
00001000
00000000
00000100
00001000
00000100
00000000
00010000
00000000
,
00002000
00000000
02003000
00000000
00000000
00000000
03000000
00000000
00010000
10000000
01000000
00100000
00010000
10000000
00010000
00000000
,
02000000
00000000
00000000
00000000
03000000
00000000
00000000
00000000
00001000
00000000
00010000
00000100
00010000
00000000
00000200
00000000
,
00000300
00000000
00000220
00000000
00000330
00000000
00000010
00000001
00001000
00000010
00001000
00000000
00000020
00000000
00000030
00000000
,
00020020
00000000
00000000
00000000
00030030
00000000
00000000
00000000
00010000
00000000
00001000
00010000
00001000
00000000
01000000
00000000
,
00010000
00000000
01000000
00000000
00010000
00000000
00100000
00000000
01000000
00000000
10000000
00010000
01000000
00100000
01000000
00000000
,
00002000
00000000
00000000
00000000
00003000
00000000
00000000
00000000
00010000
00000000
00000100
00010000
00000100
00000000
00002000
00000000
,
00003000
00000000
00000001
00000000
00000001
00000000
00000100
00000010
00001000
00000010
00010000
00000000
00001000
00000000
00000000
00000000
,
00100000
00000000
00200000
00000000
00000000
00000000
00310000
00000000
10000000
00000000
00100000
01000000
00100000
00000000
01000000
00000000
,
00001000
00010000
00002000
00000000
00000000
00000000
00203000
00000000
00301000
00010000
00000010
00001000
00000010
00000100
00000001
00000000
,
00002000
00000000
00000000
00000000
00003001
00000000
00002000
00000000
00003100
00000000
00010000
00001000
00010000
00000000
00001000
00000000
,
00000000
00000000
00100000
01000000
00200000
00000000
00310000
10000000
00010000
01000000
00100000
00000000
02000000
00000000
03000000
00000000
,
02200000
00000000
03300000
00000000
20020000
00000000
30030000
00000000
00010000
00000000
00100000
00001000
00100000
00000000
00001000
00000000
,
00010000
00000000
00000010
00000000
00000200
00000000
00000301
00000000
00001000
00000000
00000100
00000010
00000001
00001000
00000010
00000100
,
00000020
00000000
00000000
00000000
00010030
00000000
00001000
00000000
01000000
00000000
00010000
10000000
00010000
00000000
00200000
00000000
,
01300000
00000000
10000000
00000000
20000000
00000000
31000000
00100000
00010000
00100000
00001000
00000000
00021000
00000000
00030010
00000000
,
00001000
00000000
00000001
00000000
00000010
00000000
00000100
00000000
00001000
00000001
00001000
00000000
00000001
00000000
00000100
00000000
,
00000010
00000000
00010000
00000000
00000010
00000000
00001000
00000010
00010000
00001000
00010000
00000010
00010000
00000000
00001000
00000000
,
01000000
00000000
00010000
00000000
00100000
00000000
01000000
00000000
10000000
00010000
20000000
00000000
30100000
00000000
01000000
00000000
,
01000000
00000000
00001000
00000000
00100000
00001000
00010000
00001000
00010000
00000000
00000010
00001000
00000010
00000100
00000001
00000000
,
00001000
00000000
00000100
00000000
00000010
00000000
00000100
00000000
00010000
00001000
00010000
00000000
00001000
00000000
01000000
00000000
,
00100000
10000000
00100000
10000000
00100000
00000000
01000000
00000000
00010000
01000000
00001000
00010000
00001000
01000000
00001000
00000000
,
00010000
00000000
00000100
00000000
00001000
00000000
00000001
00000000
00000100
00000010
00000100
00000000
00000100
00000000
00000001
00000000
,
00001000
00000000
00000100
00000000
00000100
00000000
00010000
00001000
00010000
00000000
00002000
00000000
00000000
00000000
00013000
00000000
,
00001000
00000000
00010000
00000000
00100000
00000000
01000000
00000000
00010000
10000000
00010000
00000000
00100000
00000000
01000000
00000000
,
00010000
00000000
00001000
00000000
00100000
00000000
00001000
00010000
00000010
00001000
00000010
00010000
00000010
00000000
00000100
00000000
,
00001000
00000000
00000100
00000000
00000001
00000000
00001000
00000000
00000100
00000010
00000200
00000000
00001300
00000000
00000001
00000000
,
00000001
00000000
00000100
00000000
00000010
00010000
00001000
00010000
00000010
00000000
00010000
00001000
01000000
00010000
02000000
00000000
,
03000000
00000000
20020000
00000000
30030000
00000000
10000000
00000000
01000000
00100000
01000000
00000000
00100000
00000000
00001000
00000000
,
00010000
00000000
02000000
00000000
03010000
00000000
00001000
00000000
00100000
00001000
00010000
00000010
00001000
00000010
00020000
00000000
,
00031000
00000000
00020000
00000000
00030010
00000000
00000100
00000000
00000001
00001000
00000001
00000000
00000010
00000000
00000100
00010000
,
00001000
00010000
00001000
00100000
00010000
10000000
00010000
01000000
00100000
10000000
00020000
00000000
00000000
00000000
10030000
00000000
,
01000000
00100000
01000000
00000000
00010000
00001000
01000000
00000000
00002000
00000000
00000100
00000000
00010000
00000000
01003000
00000000
,
00001000
00000000
00010000
00000000
00001000
00000000
00000200
00000000
00000001
00000000
00000001
00000000
00000310
00001000
00000010
00000000
,
00010000
00001000
00010000
00000000
00100000
00010000
00001000
00000000
00000010
00001000
00010000
00002000
00000010
00000000
00010000
00000000
,
00100000
00000000
00010000
00000000
00003010
00000100
00001000
00000001
00001000
00000010
00000100
00001000
00010000
00000000
00011000
00000000
,
00011000
00000000
00001000
01000000
00000000
00100000
10000000
00000000
10010000
00000000
00010000
00100000
00000000
00001000
00010000
00000000
,
00010010
00000000
00000010
00000001
00000000
00000010
00001000
00000000
00010010
00000000
00010000
00001000
00000000
00010000
00100000
00000000
,
01100000
10100000
10010000
00010000
00101000
00011000
00010100
00000200
,
00000000
00000000
00000000
00001300
00000001
00001000
00000001
00001000
,
00000001
00000000
00000100
00000010
00001000
00000010
00010000
00000000
00001000
00010000
00001000
00100000
00020000
00000000
00000000
00000000
,
00000000
00000000
00000000
00030000
00000000
00000000
10010000
00000000
00000000
00000000
00000000
00000000
00000000
00000000
00000000
00000000
10000000
00000000
01000000
00000000
00000000
00000000
01000000
00000000
,
00010000
00000000
00001000
00000000
01000000
00000000
00001000
00000000
00010000
00000000
00000000
00010000
00000010
00000000
00000000
00000000
00000010
00000000
00000100
00000000
00000000
00000000
00000100
00000000
,
00000002
00000000
00000000
00000103
00000000
00001000
00000100
00000010
00010000
00001000
00000000
00000000
,
00012000
00000000
00000000
00103000
00000000
00100000
01000000
10000000
00010000
01000000
00000000
00000000
,
01000000
00000000
00000000
00000000
00001000
00000000
00010000
00000000
00000000
00000000
00000010
00000000
00001000
00000000
00000000
00000000
00000001
00000000
00000010
00000000
00000100
00000000
00000000
00001000
,
00000001
00000000
00000001
00000100
00000000
00000100
00002000
00000000
00000000
00013000
00000000
00100000
,
00010000
00000000
00000000
00000000
00000000
00000000
00000000
00000000
00100000
00000000
00000000
00000000
10000000
00000000
00000000
00000000
00000000
00000000
00000000
00000000
01000000
00000000
00000000
00000000
00020000
00000000
00000000
00000000
00000000
00000000
00000000
00000000
00000000
00000000
00000000
00000000
01030000
00000000
00000000
00100000
00000000
00000000
01000000
00000000
00000000
00100000
00000000
00000000
,
01000000
00000000
00000000
00100000
00000000
00000000
01000000
00000000
00000000
00100000
00000000
00000000
01000000
00000000
00000000
00000000
00000000
00000000
00000000
00000000
10000000
00000000
00000000
00000000
00010000
00000000
00000000
00000000
00000000
00000000
00000000
00000000
00100000
00000000
00000000
00000000
00001000
00000000
00000000
00000000
00000000
00000000
00000000
00000000
00001000
00000000
00000000
00000000
,
00000010
00000000
00000010
00000001
00000000
00000001
00000100
00000010
00010000
00001000
00000000
00001000
,
00100000
00000000
00100000
02000000
00000000
10000000
13000000
00000000
00010000
01000000
00000000
01000000
,
00001000
00000000
00001000
00000100
00000000
00000100
00000001
00001000
00000100
00000010
00000000
00000000
,
00011000
00100000
00011000
00000001
,
00011000
00000000
00000000
10000000
00000000
00000000
00011000
00000000
00000000
00000001
00000000
00000001
,
00000100
00000000
00000000
00000000
00000000
00000000
00000000
00000000
00000100
00000000
00000000
00000000
00010000
00000000
00000000
00000000
00000000
00000000
00000000
00000000
00010000
00000000
00000000
00000000
01000000
00000000
00000000
00000000
00000000
00000000
00000000
00000000
01000000
00000000
00000000
00000000
00010000
00000000
00000000
10000000
00000000
00000000
00000000
00000000
00000000
10000000
00000000
00000000
,
00000000
10000000
00000000
10000000
01000000
00100000
00010000
00100000
00001000
00010000
00000010
00001000
00000020
00000000
00000000
00000000
,
00000000
00000000
00000000
00000030
;
