#TITLE:urban streams;
#ARTIST:saiiko2;
#BANNER:urban streams.png;
#BACKGROUND:urban streams-bg.png;
#MUSIC:urban streams.ogg;
#OFFSET:0.003;
#SAMPLESTART:99.692;
#SAMPLELENGTH:15;
#BPMS:0=130;

//---------------dance-single - NewbStepper-bSP----------------
#NOTES:
     dance-single:
     NewbStepper:
     Beginner:
     2:
     0.068086,0.151646,0.014443,0.014443,0,66,64,2,2,0,0,0.068086,0.151646,0.014443,0.014443,0,66,64,2,2,0,0:
0000
0000
0000
0000
,
0000
0000
0000
0000
,
0000
0000
0000
0000
,
0000
0000
0000
0000
,
0000
0000
0000
0000
,
0000
0000
0000
0000
,
0000
0000
0000
0000
,
0000
0000
0000
0000
,
0000
0000
0000
0000
,
1000
0000
0000
0000
,
0000
0000
0000
0000
,
0001
0000
0000
0000
,
0000
0000
0000
0000
,
1000
0000
0000
0000
,
1000
0000
0000
0000
,
0001
0000
0001
0000
,
0000
0000
0000
0000
,
1000
0000
0000
0000
,
0000
0000
0000
0000
,
0100
0000
0000
0000
,
0000
0000
0000
0000
,
0010
0000
0000
0000
,
0000
0000
0000
0000
,
0001
0000
0000
0000
,
0000
0000
0000
0000
,
1000
0000
0000
0000
,
1000
0000
0000
0000
,
0001
0000
0000
0000
,
0001
0000
0000
0000
,
0100
0000
0000
0100
,
0000
0000
0100
0000
,
0010
0000
0010
0000
,
0020
0000
0000
0030
0000
0000
1000
0000
,
1000
0000
0000
0000
,
0001
0000
0000
0000
,
1000
0000
0000
0000
,
0001
0000
0000
0000
,
0100
0100
0000
0000
,
0010
0010
0000
0000
,
1000
1000
0000
0000
,
0001
0001
0000
0000
,
1001
0000
0000
0000
,
0000
0000
0000
0000
,
0000
0000
0000
0000
,
0000
0000
0000
0000
,
0001
0000
0000
0000
,
0100
0000
0000
0000
,
0010
0000
0000
0000
,
1000
0000
0000
0000
,
0001
0000
0000
0000
,
0001
0000
0000
0000
,
1000
0000
0000
0000
,
1000
0000
0000
0000
,
0200
0000
0300
0000
,
1000
0000
0000
0000
,
0100
0000
0000
0000
,
0010
0000
0000
0000
,
0001
0000
0000
0000
,
1000
0000
0000
0000
,
0010
0000
0000
0000
,
0100
0000
0000
0000
,
0001
0000
0000
0000
,
1000
0000
0000
0000
,
0001
0000
0000
0000
,
0100
0000
0000
0000
,
0010
0000
0000
0000
,
1000
0000
1000
0000
,
0100
0000
0100
0000
,
0010
0000
0010
0000
,
0001
0000
0001
0000
,
1001
0000
0000
0000
;

//---------------dance-single - NewbStepper-ESP----------------
#NOTES:
     dance-single:
     NewbStepper:
     Hard:
     15:
     0.551911,0.869801,0.368284,0.216638,0.577701,535,484,51,30,0,0,0.551911,0.869801,0.368284,0.216638,0.577701,535,484,51,30,0,0:
0000
0000
0000
0000
,
0000
0000
0000
0000
,
0000
0000
0000
0000
,
0000
0000
0000
0000
,
0000
0000
0000
0000
,
0000
0000
0000
0000
,
0000
0000
0000
0000
,
0000
0000
0000
0000
,
0000
0000
0000
0000
,
0001
0000
0000
0001
0000
0000
1000
0000
0000
1000
0000
0000
0200
0000
0000
0000
,
0000
0320
0000
0032
0000
0000
2003
0000
,
3010
0000
0100
0002
0000
2003
0000
3200
,
0000
0300
1001
0000
,
1000
0000
0000
1000
0000
0000
0001
0000
0000
0001
0000
0000
0100
0000
0010
0000
,
1000
0000
0000
1000
0000
0000
0001
0000
0000
0001
0000
0000
0010
0000
0100
0000
,
1000
0010
0100
0001
0010
0100
0001
0100
,
2000
0000
0000
3000
,
1001
0000
1000
0010
0000
1000
0100
0000
0001
0000
0100
0000
0010
0000
0001
0000
,
0100
1000
0100
0001
0100
1000
0100
0001
,
0010
0000
0001
1000
0001
0000
0100
0000
0010
0000
1000
0000
0100
0000
0001
0000
,
0100
1000
0100
0001
0100
1000
0010
0000
,
1000
0100
0010
0001
0100
1000
0001
0010
,
1000
0010
0001
1000
0100
0001
0010
0100
,
0020
0000
0031
0200
0000
0320
0000
2030
,
0000
3002
0000
0203
0000
1300
0100
0001
,
0100
0000
0010
1000
0001
0000
0100
0000
0001
0000
0010
0001
1000
0000
0001
0000
,
2000
0000
3001
0100
1000
0100
0001
0010
,
0100
0000
0010
0001
1000
0000
0100
0000
1000
0000
0010
1000
0001
0000
1000
0000
,
0002
0000
1003
0100
0010
0000
0100
0000
,
1000
0000
0010
1000
0000
0000
0110
0000
0000
0100
0000
0100
0001
0000
0011
0000
,
0000
0100
0000
0100
1000
0000
1010
0000
0000
1001
0000
0000
0101
0000
0000
0000
,
1000
0010
0100
0001
0010
0100
1000
0001
,
1000
0001
1000
0001
1000
0001
1000
0000
0000
0010
0000
0000
0000
0000
0000
1001
0000
0000
1001
0000
0000
0000
0000
0000
,
1000
0000
0000
0010
0100
0000
0101
0000
0000
0000
1001
0000
0001
0010
0100
0000
,
1200
0000
0000
0000
0000
0000
0000
0000
0000
0000
0000
0000
0001
0000
0000
0000
0000
0000
0000
0000
0000
0000
0000
0000
0310
0000
0000
0000
0000
0000
0001
0000
0000
0000
0000
0000
1000
0000
0000
0010
0000
0000
0100
0000
0001
0000
0100
0000
,
0001
0000
0000
0010
0100
0000
1000
0010
0100
0000
1000
0000
0100
0000
0001
0000
,
0021
0000
0000
0000
0000
0000
0000
0000
0031
0010
0001
0010
0100
1000
0100
1000
,
0001
0101
1000
1100
0001
0011
1000
1010
,
0100
0000
1001
0000
0010
0000
1001
0000
1000
0010
1000
0010
0100
0001
0100
0001
,
1000
1100
0001
0101
1000
1010
0001
0011
,
0010
0100
0010
0100
1000
0001
1000
0001
0100
0010
0100
0010
1000
0100
0010
0001
,
1000
0000
0000
1000
0000
0000
0001
0000
0000
0001
0000
0000
0200
0000
0000
0000
,
0300
0000
0001
0010
1000
0000
0020
0000
,
0000
0000
0000
0030
,
0000
0000
0000
2002
0000
0000
0000
0000
3003
0000
0000
0000
1000
0000
0001
0000
,
0011
0000
0000
1001
0000
0000
1010
0000
0110
0000
0000
0000
1001
0000
0000
0000
,
2200
0000
3300
0001
1000
0010
0001
0010
,
1010
0000
0000
1001
0000
0000
0011
0000
0110
0000
0000
0000
1001
0000
0000
0000
,
0101
0000
0000
1001
0000
0000
1100
0000
0110
0000
0000
0000
1001
0000
0001
0000
,
0101
0000
0000
1010
0000
0000
1001
0000
1000
0000
0100
0000
0001
0000
0100
0000
,
0110
0000
0000
1001
0000
0000
1010
0000
0210
0000
0000
0000
0300
0000
0010
1000
,
0001
0000
0000
0100
0000
0000
0010
0000
1000
0000
0000
0100
0000
0000
0010
0000
,
0002
0000
2000
0000
,
3003
0000
0000
0000
,
1001
0000
0001
0100
0000
1000
0000
0100
0000
0001
0000
0010
0000
0100
1000
0010
,
0000
0000
0100
0000
0001
0010
0000
1000
0000
0010
0001
0100
0010
1000
0100
0010
,
0001
0000
0100
0000
1000
0000
0100
0000
0001
0000
1000
0000
0100
0000
0001
0000
0100
0000
1000
0000
0000
0001
0000
0000
,
1000
0000
0010
0100
0000
0001
0000
1000
0000
0010
1000
0001
0010
0100
1000
0000
,
1001
0000
1000
0100
0000
0001
0000
0100
0000
1000
0000
0010
0000
0100
0001
0010
,
0100
0000
0000
1000
0000
0010
0100
0010
1000
0100
0010
0001
0100
0010
1000
0001
,
0010
1000
0010
0001
0000
1000
0010
0000
0100
0001
0000
1000
0000
0000
0010
0000
,
0200
0000
0300
0000
1000
0100
0001
0010
,
0110
0000
1000
0001
0000
0010
0000
1000
0000
0001
0000
0100
0000
1000
0100
0010
,
0000
0000
0100
0000
1000
0010
0000
0001
0000
0010
1000
0100
0010
0001
1000
0000
,
0001
0000
0010
0000
0001
0000
0010
0000
0001
0000
0010
0000
0001
0000
0000
0100
0000
0000
0010
0000
0000
1000
0000
0000
0100
0000
1000
0000
0100
0000
1000
0000
0100
0000
1000
0000
0100
0000
0000
0000
0000
0000
0010
0000
0000
0000
0000
0000
,
0001
0000
1000
0010
0000
0001
0000
1000
0000
0100
0000
0001
0100
0000
0010
0000
,
0110
0000
0001
1000
0000
0010
0000
0001
0000
1000
0000
0100
0000
0001
0100
0010
,
1000
0100
0010
0100
0001
0100
0010
0100
1000
0010
0100
0010
0001
0010
0100
0010
,
1000
0100
0001
0100
1000
0100
0010
0001
0100
1000
0100
0001
0100
0010
1000
0100
,
0001
1000
0010
0001
0000
1000
0000
0001
1000
0010
0100
0001
0010
0100
1000
0000
,
0001
0000
0000
0001
0000
0000
1000
0000
0000
1000
0000
0000
0200
0000
0000
0000
,
0300
0000
1000
0010
0001
0000
0020
0000
,
0000
0000
0000
0000
,
0030
0000
0000
0000
;

//---------------dance-single - NewbStepper-DSP----------------
#NOTES:
     dance-single:
     NewbStepper:
     Medium:
     10:
     0.360031,0.527152,0.115540,0.303293,0.068602,349,333,16,42,0,0,0.360031,0.527152,0.115540,0.303293,0.068602,349,333,16,42,0,0:
0000
0000
0000
0000
,
0000
0000
0000
0000
,
0000
0000
0000
0000
,
0000
0000
0000
0000
,
0000
0000
0000
0000
,
0000
0000
0000
0000
,
0000
0000
0000
0000
,
0000
0000
0000
0000
,
0000
0000
0000
0000
,
2000
0000
0000
3002
0000
0000
0203
0000
,
0000
0320
0000
2030
0000
0000
3002
0000
,
0203
0000
2300
3200
0000
0302
0000
2003
,
0000
0000
3001
0000
,
0010
0000
0000
0010
0000
0000
0001
0000
0000
0001
0000
0000
1000
0000
0000
0000
,
0010
0000
0000
0010
0000
0000
1000
0000
0000
1000
0000
0000
0001
0000
0000
0000
,
1000
0100
1000
0100
0010
0001
0010
0001
,
2000
0000
0000
3000
,
0001
0000
1000
0010
0100
0001
1000
0200
,
0000
0302
0000
0203
0000
0310
0001
0010
,
0200
0000
0000
2300
0000
0000
3002
0000
,
0000
0000
0203
0000
,
0320
0000
1030
0200
0000
0320
0000
2030
,
0000
3001
0100
1000
0010
0001
0010
1000
,
0200
0000
1300
0002
0000
2003
0000
3020
,
0000
0032
0000
2003
0000
3100
0001
0010
,
0100
0000
1000
0010
0001
0000
0010
0000
,
1000
0000
0001
0010
1000
0000
0010
0000
,
0002
0000
0000
2003
0000
0000
3200
0000
,
0000
0000
0310
0001
,
1000
0100
0010
0001
0100
0010
1000
0001
,
0100
1000
0100
0002
0000
1003
0010
1000
,
0001
0100
0001
0100
0010
1000
0010
1000
,
1100
0000
0000
1100
0000
0000
1100
0000
0000
0000
1001
0000
1001
0000
0000
0000
,
0010
0000
0000
0010
0000
0000
0010
0000
0000
0000
0001
0000
0100
0000
0001
0000
,
1000
0000
0001
0100
1000
0100
0001
1000
,
0010
0000
0000
0010
0000
0000
0010
0000
0000
0000
1000
0000
0100
0000
1000
0000
,
0001
0000
0000
0000
1001
0000
0000
0000
1000
0000
0100
0000
1000
0010
1000
0000
,
0001
0101
0000
1100
0000
1010
0000
0011
,
0000
0000
0110
0000
0000
0000
1001
0000
0001
0000
0100
0000
0001
0010
0001
0000
,
1000
1100
0000
0101
0000
0011
0000
1010
,
1000
1000
0100
0100
0010
0010
0001
0001
,
1000
0000
0000
0001
0000
0000
0200
0000
,
0300
0000
0001
1000
0100
0000
0020
0000
,
0000
0000
0000
0030
,
0000
0000
0000
0000
0000
0000
0001
1000
,
0010
0000
0000
0010
0000
0000
1000
0000
0100
0000
0000
0000
0010
0000
0000
0000
,
0020
0000
0030
0001
0001
0100
1000
0100
,
0001
0000
0000
1000
0000
0000
0100
0000
0010
0000
0000
0000
0001
0000
0000
0000
,
1000
0000
0000
0001
0000
0000
0100
0000
0010
0000
0000
0000
1000
0000
0001
0000
,
0010
0000
0000
0001
0000
0000
0100
0000
1000
0000
0100
0000
0010
0000
1000
0000
,
0001
0000
0000
0100
0000
0000
0010
0000
2000
0000
0000
0000
3000
0000
0001
0100
,
0001
0000
0000
0100
0000
0000
0010
0000
1000
0000
0000
0100
0000
0000
0010
0000
,
0002
0000
2000
0000
,
3003
0000
0000
0000
,
1000
0100
1000
0000
0100
0001
0100
0000
,
0001
0010
0001
0000
0010
1000
0010
0000
,
1000
0100
0001
0100
1000
0010
0001
0010
,
1000
0100
0010
0001
0100
0010
1000
0000
,
0001
0100
0001
0000
0100
1000
0100
0000
,
1000
0010
1000
0000
0010
0001
0010
0000
,
0001
0000
0000
0100
0000
0000
0010
0000
1000
0000
0000
0100
0000
0000
0010
0000
,
0002
0000
0003
0000
1000
0100
0010
0001
,
1000
0010
0100
1000
0100
0010
1000
0100
,
0010
0100
1000
0001
0010
0100
0001
0100
,
0010
0001
0100
0001
0010
0100
1000
0010
,
0001
0010
1000
0100
0010
0001
0100
0000
,
0001
0100
0010
0000
1000
0100
0010
0000
,
0001
0100
0010
0100
1000
0100
0010
0100
,
0001
0010
0100
0010
1000
0010
0100
0010
,
0001
0001
0100
0100
0010
0010
1000
1000
,
0001
0000
0000
1000
0000
0000
0200
0000
,
0300
0000
1000
0001
0100
0000
0020
0000
,
0000
0000
0000
0000
,
0030
0000
0000
0000
;

//---------------dance-single - NewbStepper-BSP----------------
#NOTES:
     dance-single:
     NewbStepper:
     Easy:
     5:
     0.194974,0.237218,0.014443,0.151646,0,189,187,2,21,0,0,0.194974,0.237218,0.014443,0.151646,0,189,187,2,21,0,0:
0000
0000
0000
0000
,
0000
0000
0000
0000
,
0000
0000
0000
0000
,
0000
0000
0000
0000
,
0000
0000
0000
0000
,
0000
0000
0000
0000
,
0000
0000
0000
0000
,
0000
0000
0000
0000
,
0000
0000
0000
0000
,
0002
0000
0000
0000
,
0003
0000
0000
0000
,
2000
0000
0000
0000
,
3000
0000
0000
0000
,
0001
1000
0001
0000
,
0100
0010
0100
0000
,
0001
1000
0100
0010
,
0002
0000
0000
0003
,
1000
1000
0100
0000
,
0001
0001
0100
0000
,
1000
0010
0100
0002
,
0000
0003
2000
3000
,
0001
0100
0010
1000
,
0200
0300
0020
0030
,
0001
0100
1000
0100
,
0002
0003
2000
3000
,
0001
0010
0001
0000
,
0010
1000
0010
0000
,
1000
0100
1000
0000
,
0100
0001
0100
0000
,
0001
0010
0001
0001
,
1000
0010
1000
1000
,
0002
0003
2000
3000
,
2002
0000
0000
3003
,
1000
1000
1000
0000
,
0001
0001
0001
0000
,
0100
0100
0100
0000
,
0010
0010
0010
0000
,
1000
0010
0001
0010
,
1000
0100
0001
0100
,
1000
0010
0001
0010
,
1000
0100
0001
0100
,
1000
0000
0000
0001
0000
0000
0200
0000
,
0300
0001
0001
0200
,
0000
0000
0000
0000
,
0300
0000
0000
0000
,
0001
0100
0001
0010
,
0010
0000
0001
1000
,
0010
0010
1000
0100
,
0100
0001
0100
1000
,
0010
1000
0100
0000
,
0010
0001
0100
0000
,
0001
0100
1000
0100
,
0001
0000
1000
0000
,
2002
0000
0000
3003
,
1000
0100
0010
0001
,
1000
0100
0010
0001
,
1000
0010
0100
0001
,
1000
0010
0200
0300
,
0001
0100
0010
1000
,
0001
0100
0010
1000
,
0001
0010
0100
1000
,
0002
0000
0003
0000
,
1000
0100
0010
0100
,
0001
0100
1000
0001
,
0100
0010
0100
1000
,
0100
0001
1000
0010
,
0100
0001
0010
0100
,
0010
1000
0010
0001
,
1000
0010
0100
0010
,
0001
0010
1000
0100
,
1000
0000
0000
0001
0000
0000
0200
0000
,
0300
0001
0001
0200
,
0000
0000
0000
0000
,
0300
0000
0000
0000
;

//---------------dance-double - NewbStepper-EDP----------------
#NOTES:
     dance-double:
     NewbStepper:
     Hard:
     15:
     0.519931,0.869801,0.231080,0.187753,0.570480,504,472,32,26,0,0,0.519931,0.869801,0.231080,0.187753,0.570480,504,472,32,26,0,0:
00000000
00000000
00000000
00000000
,
00000000
00000000
00000000
00000000
,
00000000
00000000
00000000
00000000
,
00000000
00000000
00000000
00000000
,
00000000
00000000
00000000
00000000
,
00000000
00000000
00000000
00000000
,
00000000
00000000
00000000
00000000
,
00000000
00000000
00000000
00000000
,
00000000
00000000
00000000
00000000
,
00010000
00000000
00000000
00010000
00000000
00000000
00001000
00000000
00000000
00001000
00000000
00000000
00200000
00000000
00000000
00000000
,
00000000
00320000
00000000
20030000
00000000
00000000
32000000
00000000
,
03010000
00000000
00001000
00010000
00000000
00000010
00000000
00002000
,
00000000
00003000
00001001
00000000
,
00000001
00000000
00000000
00000001
00000000
00000000
00001000
00000000
00000000
00001000
00000000
00000000
00000100
00000000
00000010
00000000
,
00000001
00000000
00000000
00000001
00000000
00000000
00001000
00000000
00000000
00001000
00000000
00000000
00000010
00000000
00010000
00000000
,
00001000
00010000
00100000
10000000
01000000
00010000
00001000
00100000
,
01000000
10000000
00100000
00010000
00002000
00000000
00003000
00000000
,
00010000
00000000
00000000
00011000
00000000
00000000
00001000
00000000
00000010
00000000
00000001
00000000
00000100
00000000
00001000
00000000
,
00000100
00000001
00000010
00000100
00001000
00000010
00000100
00010000
,
01000000
00010000
00100000
10000000
00100000
00010000
01000000
00100000
,
00001000
00100000
00010000
00001000
00000010
00000100
00001000
00000010
,
00000001
00000010
00001000
00000100
00000010
00000001
00000100
00001000
,
00010000
00100000
10000000
01000000
00010000
00001000
00010000
00100000
,
02000000
00000000
03010000
20000000
00000000
30200000
00000000
00320000
,
00000000
00032000
00000000
00003020
00000000
00000031
00000100
00001000
,
00010000
00000000
00100000
10000000
00100000
00000000
10000000
00000000
01000000
00000000
00100000
00010000
00100000
00000000
00001000
00000000
,
00010000
00000000
00000010
00001000
00000010
00000000
00010000
00000000
00001000
00000000
01000000
00010000
01000000
00000000
00001000
00000000
,
00010000
00000000
00000100
00001000
00000100
00000000
00010000
00000000
00001000
00000000
00000010
00000001
00000010
00000000
00000001
00000000
,
00000100
00000000
00000010
00001000
00000010
00000000
00000100
00000000
00001000
00000000
00010000
00001000
00010000
00000000
00100000
00000000
,
10100000
00000000
00000000
10010000
00000000
00000000
01010000
00000000
00000000
01000000
00000000
01000000
00001000
00000000
00011000
00000000
,
00000000
00000100
00000000
00000100
00010000
00000000
00011000
00000000
00000000
00010100
00000000
00000000
00001100
00000000
00000000
00000000
,
00001000
00000100
00000010
00000001
00000100
00001000
00010000
00001000
,
00010000
00001000
00010000
00001000
00010000
00001000
00010000
00000000
00000000
00001000
00000000
00000000
00000000
00000000
00000000
01001000
00000000
00000000
01001000
00000000
00000000
00000000
00000000
00000000
,
01010000
00000000
00000000
00010000
00100000
00000000
01000000
00000000
00000000
00000000
10000000
00000000
01000000
00000000
00010000
00000000
,
00012000
00000000
00000000
00000000
00100000
00000000
00000000
00000000
00013000
00000000
00001000
00000000
00000010
00000001
00000010
00000100
,
00001000
00000000
00000000
00001000
00000010
00000000
00000100
00000000
00000000
00000000
00000001
00000000
00000100
00000000
00001000
00000000
,
00021000
00000000
00000000
00000000
00000000
00000000
00000000
00000000
00030010
00001000
00000010
00001000
00000001
00000010
00000001
00000010
,
00000100
00000110
00000000
00011000
00000000
01100000
00000000
00011000
,
00000000
00000000
00000110
00000000
00000000
00000000
00011000
00000000
00001000
00100000
00001000
00100000
00010000
01000000
00010000
01000000
,
00100000
01100000
00000000
00011000
00000000
00000110
00000000
00011000
,
00010000
00000010
00010000
00000010
00001000
00000100
00001000
00000100
00010000
00001000
00010000
00001000
00100000
00010000
00100000
00010000
,
01000000
00000000
00000000
01000000
00000000
00000000
00010000
00000000
00000000
00010000
00000000
00000000
20000000
00000000
00000000
00000000
,
30000000
00000000
00100000
00010000
00001000
00000000
00000020
00000000
,
00000000
00000000
00000000
00000030
,
00000000
00000000
00000000
00002002
00000000
00000000
00000000
00000000
00003003
00000000
00000000
00000000
00000001
00000000
00001000
00000000
,
00001010
00000000
00000000
00010010
00000000
00000000
00010000
00000000
00001000
00000000
00000000
00000000
01000000
00000000
00000000
00000000
,
02020000
00000000
03030000
00010000
10000000
00100000
00010000
00100000
,
10100000
00000000
00000000
10000000
00000000
00000000
01000000
00000000
00010000
00000000
00000000
00000000
00011000
00000000
00000000
00000000
,
00000011
00000000
00000000
00000001
00000000
00000000
00000100
00000000
00001000
00000000
00000000
00000000
00011000
00000000
00010000
00000000
,
00100000
00000000
00000000
10000000
00000000
00000000
01000000
00000000
10000000
00000000
00100000
00000000
00010000
00000000
00001000
00000000
,
00000010
00000000
00000000
00000001
00000000
00000000
00000100
00000000
00000020
00000000
00000000
00000000
00000030
00000000
00001000
00000100
,
00000010
00000000
00000000
00000001
00000000
00000000
00000100
00000000
00001000
00000000
00000000
00010000
00000000
00000000
01000000
00000000
,
20000000
00000000
00020000
00000000
,
30030000
00000000
00000000
00000000
,
00010000
00000000
00000000
10000000
00000000
01000000
00000000
00010000
00000000
00001000
00000000
00000010
00000000
00000001
00000000
00000100
,
00000000
00000000
00000010
00000000
00001000
00000001
00000000
00000100
00000000
00001000
00010000
00001000
00100000
00010000
00100000
00010000
,
10000000
00000000
01000000
00000000
00010000
00000000
01000000
00000000
10000000
00000000
00010000
00000000
01000000
00000000
10000000
00000000
01000000
00000000
00010000
00000000
00000000
00100000
00000000
00000000
,
00001000
00000000
00010000
00001000
00000000
00000010
00000000
00000001
00000000
00000100
00000010
00001000
00000100
00000010
00000001
00000000
,
00001000
00000000
00000000
00000001
00000000
00000100
00000000
00001000
00000000
00010000
00000000
00100000
00000000
10000000
00010000
10000000
,
00010000
00000000
00000000
01000000
00000000
00100000
10000000
00010000
10000000
01000000
00100000
01000000
00000000
00010000
00001000
00010000
,
00000100
00010000
00000000
00001000
00000000
00000000
00000010
00000000
00000001
00000100
00000000
00000010
00000000
00000000
00010000
00000000
,
00002000
00000000
00003000
00000000
00010000
01000000
10000000
00100000
,
10000000
00000000
00000000
00010000
00000000
10000000
00000000
00100000
00000000
00010000
00000000
00001000
00000000
00000100
00000000
00000001
,
00000000
00000000
00000010
00000000
00000100
00001000
00000000
00000001
00000000
00001000
00000010
00000100
00000001
00001000
00000100
00000000
,
00010000
00000000
00000100
00000000
00010000
00000000
00000100
00000000
00010000
00000000
00000100
00000000
00010000
00000000
00000000
00001000
00000000
00000000
00100000
00000000
00000000
00010000
00000000
00000000
10000000
00000000
00100000
00000000
10000000
00000000
00100000
00000000
10000000
00000000
00100000
00000000
10000000
00000000
00000000
00000000
00000000
00000000
01000000
00000000
00000000
00000000
00000000
00000000
,
00010000
00000000
00001000
00000100
00000000
00000001
00000000
00001000
00000000
00000010
00000000
00000100
00000001
00000000
00000010
00000000
,
00000001
00000000
00000000
00001000
00000000
00000001
00000000
00000010
00000000
00001000
00000000
00010000
00000000
01000000
10000000
00010000
,
10000000
01000000
00100000
01000000
10000000
01000000
00010000
00001000
00100000
00001000
00010000
00000010
00010000
00001000
00000010
00000001
,
00000100
00000010
00000100
00000001
00000100
00001000
00010000
00000100
00010000
00001000
01000000
00001000
00010000
00100000
10000000
01000000
,
00100000
00010000
01000000
00100000
00000000
10000000
00000000
01000000
00010000
00001000
00000010
00000001
00000100
00000010
00001000
00000000
,
00000100
00000000
00000000
00000100
00000000
00000000
00001000
00000000
00000000
00001000
00000000
00000000
00000002
00000000
00000000
00000000
,
00000003
00000000
00000010
00001000
00010000
00000000
00200000
00000000
,
00000000
00000000
00000000
00000000
,
00300000
00000000
00000000
00000000
;

//---------------dance-double - NewbStepper-DDP----------------
#NOTES:
     dance-double:
     NewbStepper:
     Medium:
     11:
     0.356937,0.527152,0.129983,0.296072,0.057770,346,328,18,41,0,0,0.356937,0.527152,0.129983,0.296072,0.057770,346,328,18,41,0,0:
// measure 0
00000000
00000000
00000000
00000000
,  // measure 1
00000000
00000000
00000000
00000000
,  // measure 2
00000000
00000000
00000000
00000000
,  // measure 3
00000000
00000000
00000000
00000000
,  // measure 4
00000000
00000000
00000000
00000000
,  // measure 5
00000000
00000000
00000000
00000000
,  // measure 6
00000000
00000000
00000000
00000000
,  // measure 7
00000000
00000000
00000000
00000000
,  // measure 8
00000000
00000000
00000000
00000000
,  // measure 9
20000000
00000000
00000000
30020000
00000000
00000000
00230000
00000000
,  // measure 10
00000000
00320000
00000000
02030000
00000000
00000000
03002000
00000000
,  // measure 11
00023000
00000000
00032000
00003200
00000000
00000302
00000000
00002003
,  // measure 12
00000000
00000000
00003001
00000000
,  // measure 13
00000010
00000000
00000000
00000010
00000000
00000000
00000001
00000000
00000000
00000001
00000000
00000000
00000100
00000000
00000000
00000000
,  // measure 14
00001000
00010000
00100000
10000000
,  // measure 15
00010000
01000000
00010000
01000000
00100000
10000000
00100000
10000000
,  // measure 16
02000000
00000000
00000000
03000000
,  // measure 17
00010000
00000000
00001000
00100000
00010000
01000000
00001000
00020000
,  // measure 18
00000000
00032000
00000000
00003020
00000000
00000031
00000100
00000001
,  // measure 19
00002000
00000000
00000000
00003002
00000000
00000000
00000203
00000000
,  // measure 20
00000000
00000000
00002300
00000000
,  // measure 21
00103000
00000000
00010000
02000000
00000000
03200000
00000000
20300000
,  // measure 22
00000000
30010000
01000000
00100000
00010000
00100000
10000000
01000000
,  // measure 23
00020000
00000000
00031000
00000200
00000000
00000320
00000000
00002030
,  // measure 24
00000000
00003002
00000000
00000203
00000000
00001300
00010000
00100000
,  // measure 25
00010000
00000000
00001000
00100000
01000000
00000000
00010000
00000000
,  // measure 26
00001000
00000000
01000000
00100000
00010000
00000000
00001000
00000000
,  // measure 27
00200000
00000000
00000000
02300000
00000000
00000000
23000000
00000000
,  // measure 28
00000000
00000000
31000000
00010000
,  // measure 29
00001000
00000100
00000010
00001000
00000100
00000010
00010000
00001000
,  // measure 30
00000010
00000001
00000100
00000020
00000000
00010030
00001000
00010000
,  // measure 31
00100000
01000000
00100000
01000000
00010000
10000000
00010000
10000000
,  // measure 32
11000000
00000000
00000000
11000000
00000000
00000000
11000000
00000000
00000000
00000000
10010000
00000000
10010000
00000000
00000000
00000000
,  // measure 33
00100000
00000000
00000000
00100000
00000000
00000000
00100000
00000000
00000000
00000000
00001000
00000000
00010000
00000000
00000100
00000000
,  // measure 34
00001000
00000000
00000001
00000100
00001000
00000100
00000001
00001000
,  // measure 35
00000010
00000000
00000000
00000010
00000000
00000000
00000010
00000000
00000000
00000000
00010000
00000000
00001000
00000000
01000000
00000000
,  // measure 36
00010000
00000000
00000000
00000000
10010000
00000000
00000000
00000000
10000000
00000000
01000000
00000000
10000000
00100000
10000000
00000000
,  // measure 37
00010000
01010000
00000000
01001000
00000000
00011000
00000000
00010100
,  // measure 38
00000000
00011000
00000000
00101000
00000000
00011000
00000000
00010010
,  // measure 39
00000000
00001100
00000000
00010100
00000000
00011000
00000000
01001000
,  // measure 40
00001000
00001000
00100000
00100000
00010000
00010000
10000000
10000000
,  // measure 41
01000000
00000000
00000000
00010000
00000000
00000000
00002000
00000000
,  // measure 42
00003000
00000000
00000010
00000100
00001000
00000000
00000002
00000000
,  // measure 43
00000000
00000000
00000000
00000003
,  // measure 44
00000000
00000000
00000000
00000000
00000000
00000000
00001000
00000100
,  // measure 45
00000010
00000000
00000000
00000100
00000000
00000000
00000001
00000000
00000100
00000000
00000000
00000000
00001000
00000000
00000000
00000000
,  // measure 46
00002000
00000000
00003000
00000010
00000010
00010000
00001000
00010000
,  // measure 47
00100000
00000000
00000000
10000000
00000000
00000000
01000000
00000000
00010000
00000000
00000000
00000000
00001000
00000000
00000000
00000000
,  // measure 48
00000010
00000000
00000000
00000001
00000000
00000000
00000100
00000000
00001000
00000000
00000000
00000000
00010000
00000000
00001000
00000000
,  // measure 49
00100000
00000000
00000000
01000000
00000000
00000000
00010000
00000000
00001000
00000000
00100000
00000000
01000000
00000000
10000000
00000000
,  // measure 50
00010000
00000000
00000000
10000000
00000000
00000000
00100000
00000000
00020000
00000000
00000000
00000000
00030000
00000000
00001000
00010000
,  // measure 51
00001000
00000000
00000000
00000100
00000000
00000000
00000010
00000000
00001000
00000000
00000000
00000001
00000000
00000000
00000010
00000000
,  // measure 52
00000200
00000000
00020000
00000000
,  // measure 53
00030300
00000000
00000000
00000000
,  // measure 54
00001000
00010000
00001000
00000000
00010000
01000000
00010000
00000000
,  // measure 55
01000000
10000000
01000000
00000000
10000000
00100000
10000000
00000000
,  // measure 56
00010000
01000000
00100000
10000000
01000000
00010000
00001000
00100000
,  // measure 57
00010000
00100000
00001000
00010000
00000010
00010000
00001000
00000000
,  // measure 58
00010000
00001000
00010000
00000000
00001000
00000100
00001000
00000000
,  // measure 59
00000100
00000001
00000100
00000000
00000001
00000010
00000001
00000000
,  // measure 60
00001000
00000000
00000000
00000100
00000000
00000000
00000010
00000000
00000001
00000000
00000000
00000100
00000000
00000000
00001000
00000000
,  // measure 61
00020000
00000000
00030000
00000000
00001000
00010000
00100000
10000000
,  // measure 62
00010000
00100000
01000000
00100000
00010000
01000000
00100000
00010000
,  // measure 63
00100000
01000000
00001000
00010000
00000010
00001000
00000100
00000010
,  // measure 64
00000100
00001000
00000010
00000100
00001000
00000100
00000010
00001000
,  // measure 65
00000001
00000100
00001000
00010000
00000010
00001000
00000100
00000000
,  // measure 66
00010000
00001000
00000100
00000000
00001000
00010000
01000000
00000000
,  // measure 67
00100000
10000000
00100000
01000000
00100000
00010000
00100000
00001000
,  // measure 68
00010000
00100000
00010000
00001000
00010000
00000010
00001000
00000010
,  // measure 69
00000100
00000010
00000001
00000010
00001000
00000100
00000010
00000001
,  // measure 70
00000100
00000000
00000000
00001000
00000000
00000000
00020000
00000000
,  // measure 71
00030000
00000000
00100000
01000000
00010000
00000000
20000000
00000000
,  // measure 72
00000000
00000000
00000000
00000000
,  // measure 73
30000000
00000000
00000000
00000000
;

//---------------dance-double - NewbStepper-BDP----------------
#NOTES:
     dance-double:
     NewbStepper:
     Easy:
     5:
     0.186721,0.237218,0.014443,0.151646,0,181,179,2,21,0,0,0.186721,0.237218,0.014443,0.151646,0,181,179,2,21,0,0:
// measure 0
00000000
00000000
00000000
00000000
,  // measure 1
00000000
00000000
00000000
00000000
,  // measure 2
00000000
00000000
00000000
00000000
,  // measure 3
00000000
00000000
00000000
00000000
,  // measure 4
00000000
00000000
00000000
00000000
,  // measure 5
00000000
00000000
00000000
00000000
,  // measure 6
00000000
00000000
00000000
00000000
,  // measure 7
00000000
00000000
00000000
00000000
,  // measure 8
00000000
00000000
00000000
00000000
,  // measure 9
20000000
00000000
00000000
00000000
,  // measure 10
30000000
00000000
00000000
00000000
,  // measure 11
00020000
00000000
00000000
00000000
,  // measure 12
00030000
00000000
00000000
00000000
,  // measure 13
01000000
00001000
01000000
00000000
,  // measure 14
00001000
00010000
00001000
00000000
,  // measure 15
00010000
00001000
00000100
00000010
,  // measure 16
00002000
00000000
00000000
00003000
,  // measure 17
00000001
00000001
00000100
00000000
,  // measure 18
00000010
00000010
00001000
00000000
,  // measure 19
00000100
00010000
00001000
02000000
,  // measure 20
00000000
03000000
00200000
00300000
,  // measure 21
10000000
01000000
00100000
00010000
,  // measure 22
02000000
03000000
00002000
00003000
,  // measure 23
00010000
00001000
00000100
00000010
,  // measure 24
00002000
00003000
00000002
00000003
,  // measure 25
00001000
00000010
00001000
00000000
,  // measure 26
00000100
00010000
00000100
00000000
,  // measure 27
00010000
00001000
00010000
00000000
,  // measure 28
00001000
01000000
00001000
00000000
,  // measure 29
01000000
00100000
01000000
00100000
,  // measure 30
10000000
00010000
10000000
00010000
,  // measure 31
00200000
00300000
00002000
00003000
,  // measure 32
00022000
00000000
00000000
00033000
,  // measure 33
00100000
00000000
00000000
00000000
,  // measure 34
00000010
00000000
00000000
00000000
,  // measure 35
01000000
00000000
00000000
00000000
,  // measure 36
00000100
00000000
00000000
00000000
,  // measure 37
00001000
00000100
00000010
00000001
,  // measure 38
00000100
00000010
00001000
00010000
,  // measure 39
01000000
00100000
10000000
01000000
,  // measure 40
00100000
00010000
01000000
00100000
,  // measure 41
00010000
00000000
00000000
00000100
00000000
00000000
00002000
00000000
,  // measure 42
00003000
00000001
00000001
00000020
,  // measure 43
00000000
00000000
00000000
00000000
,  // measure 44
00000030
00000000
00000000
00000000
,  // measure 45
00000001
00000100
00000001
00000010
,  // measure 46
00000010
00000000
00000100
00010000
,  // measure 47
00001000
00010000
01000000
00100000
,  // measure 48
10000000
00100000
00010000
10000000
,  // measure 49
00100000
10000000
01000000
00000000
,  // measure 50
00100000
00010000
01000000
00000000
,  // measure 51
00001000
00010000
00001000
00000010
,  // measure 52
00000001
00000000
00001000
00000000
,  // measure 53
00002002
00000000
00000000
00003003
,  // measure 54
00000001
00000100
00000010
00001000
,  // measure 55
00000010
00000100
00001000
00010000
,  // measure 56
00001000
00100000
00010000
10000000
,  // measure 57
00100000
01000000
00020000
00030000
,  // measure 58
10000000
01000000
00100000
00010000
,  // measure 59
00100000
01000000
00010000
00001000
,  // measure 60
00010000
00000010
00001000
00000001
,  // measure 61
00000020
00000000
00000030
00000000
,  // measure 62
00000001
00000100
00000010
00000100
,  // measure 63
00001000
00010000
00001000
00100000
,  // measure 64
00001000
00010000
00100000
01000000
,  // measure 65
00100000
10000000
01000000
00100000
,  // measure 66
00010000
01000000
10000000
01000000
,  // measure 67
00100000
01000000
00010000
00100000
,  // measure 68
00001000
00010000
00001000
00000010
,  // measure 69
00000100
00000010
00000001
00000010
,  // measure 70
00001000
00000000
00000000
01000000
00000000
00000000
00020000
00000000
,  // measure 71
00030000
10000000
10000000
00200000
,  // measure 72
00000000
00000000
00000000
00000000
,  // measure 73
00300000
00000000
00000000
00000000
;
