#VERSION:0.83;
#TITLE:trendset;
#ARTIST:dj vortivask;
#BANNER:trendset.png;
#BACKGROUND:trendset-bg.png;
#JACKET:trendset-jacket.png;
#MUSIC:trendset.ogg;
#SAMPLESTART:66.957;
#SAMPLELENGTH:15;
#BPMS:0=86;
#STOPS:192=0.698;
#TIMESIGNATURES:0=4=4,192=3=4,195=4=4;

//---------------dance-single - Pandemonium X-bSP----------------
#NOTEDATA:;
#CHARTNAME:Pandemonium X-bSP;
#STEPSTYPE:dance-single;
#DESCRIPTION:Pandemonium X-bSP;
#DIFFICULTY:Beginner;
#METER:1;
#CREDIT:Pandemonium X;
#NOTES:
0000
0000
0000
0000
,
0000
0000
0000
0000
,
0000
0000
0000
0000
,
0000
0000
0000
0000
,
1000
0000
0000
0000
,
0001
0000
0000
0000
,
1000
0000
0000
0000
,
0010
0000
0000
0000
,
0100
0000
0000
0000
,
0001
0000
0000
0000
,
0010
0000
0000
0000
,
0001
0000
0001
0000
,
1000
0000
0000
0000
,
0100
0000
0000
0000
,
1000
0000
0000
0000
,
0001
0000
0001
0000
,
0100
0000
0000
0000
,
0010
0000
0000
0000
,
1000
0000
0000
0000
,
0001
0000
0000
0000
,
0010
0000
0000
0000
,
0100
0000
0000
0000
,
1000
0000
0000
0000
,
0001
0000
0000
0000
,
0110
0000
0100
0000
,
0100
0000
0000
0000
,
0001
0000
0001
0000
,
1000
0000
0000
0000
,
0100
0000
0100
0000
,
0010
0000
0000
0000
,
0001
0000
1000
0000
,
0010
0000
0000
0000
,
1001
0000
1000
0000
,
0001
0000
0000
0000
,
0100
0000
0010
0000
,
1000
0000
0000
0000
,
0001
0000
0010
0000
,
0001
0000
0000
0000
,
1000
0000
0010
0000
,
0100
0000
0000
0000
,
0110
0000
0000
0000
,
1000
0000
0000
0000
,
0001
0000
0000
0000
,
0100
0000
0000
0000
,
0010
0000
0000
0000
,
1000
0000
0000
0000
,
0100
0000
0000
0000
,
0010
0000
0000
0000
,
0000
1001
0000
0000
;

//---------------dance-single - Pandemonium X-BSP----------------
#NOTEDATA:;
#CHARTNAME:Pandemonium X-BSP;
#STEPSTYPE:dance-single;
#DESCRIPTION:Pandemonium X-BSP;
#DIFFICULTY:Easy;
#METER:3;
#CREDIT:Pandemonium X;
#NOTES:
0000
0000
0000
0000
,
0000
0000
0000
0000
,
0000
0000
0000
0000
,
0000
0000
0000
0000
,
1000
0000
0000
0000
,
0100
0000
0000
0000
,
1000
0000
0000
0000
,
0002
0000
0000
0003
,
0100
0000
0010
1000
,
0100
0000
1000
0001
,
0100
0000
0001
0010
,
0100
0000
0010
1001
,
0110
0000
0010
1000
,
0100
0000
1000
0001
,
0100
0000
0010
0100
,
0001
0000
1000
1001
,
0120
0000
0000
0030
,
0200
0000
0000
0300
,
0002
0000
0000
0003
,
0200
0000
0000
0300
,
1010
0000
0010
0000
,
1001
0000
0001
0000
,
1100
0000
0100
0000
,
1001
0000
0010
0000
,
0100
0001
0010
0000
,
0100
0000
0010
0000
,
0001
1000
0100
0000
,
1000
0000
0001
0000
,
0100
0010
0100
0000
,
0001
0000
1000
0000
,
0100
0010
0100
0000
,
0010
0000
0001
0000
,
1001
0000
1000
0000
,
0001
0000
0100
0010
,
0100
0000
0010
0000
,
1000
0000
0100
0010
,
0001
0000
1000
0000
,
0001
0000
0100
0010
,
1000
0000
0001
0000
,
0010
0000
0001
0000
,
0200
0000
0000
0300
,
0020
0000
0000
0030
,
2000
0000
0000
3000
,
0002
0000
0000
0003
,
0002
0000
0000
0003
,
2000
0000
0000
3000
,
0020
0000
0000
0030
,
0200
0000
0000
0300
,
0000
1001
0000
0000
;

//---------------dance-single - Pandemonium X-DSP----------------
#NOTEDATA:;
#CHARTNAME:Pandemonium X-DSP;
#STEPSTYPE:dance-single;
#DESCRIPTION:Pandemonium X-DSP;
#DIFFICULTY:Medium;
#METER:6;
#CREDIT:Pandemonium X;
#NOTES:
0000
0000
0000
0000
,
0000
0000
0000
0000
,
0000
0000
0000
0000
,
0000
0000
0000
0000
,
1000
0001
1000
1000
,
0001
1000
0001
0001
,
0100
0010
0100
0100
,
0020
0000
0000
0030
,
1001
1000
0010
0100
,
0001
0000
0010
0000
0100
0010
0001
0100
,
0010
1000
0001
0100
,
0001
0000
0010
0000
0100
0010
0010
0010
,
0100
1000
0010
0100
,
0010
0000
1000
0000
0001
1000
0001
0010
,
0100
0010
0001
1000
,
0010
0000
0010
0000
0100
0010
0010
0010
,
2001
0000
0000
0000
0000
0000
0000
3000
,
0020
0000
0000
0000
0000
0000
0000
0030
,
0200
0000
0000
0000
0000
0000
0000
0300
,
0002
0000
0000
0000
0000
0010
0010
0013
,
0100
1000
0000
1000
0000
0001
0000
0001
,
0000
0100
0000
0100
0000
0010
0000
0010
,
0000
1000
0000
0010
0000
0100
0000
0001
,
0000
0010
0000
0100
0000
0010
0000
0001
,
1000
0000
0001
0000
0100
0001
0010
0000
,
0100
0000
0010
0000
0001
0010
1000
0010
,
0001
0000
1000
0000
0010
1000
0100
0000
,
1000
0000
0001
0000
1000
0100
0001
0100
,
0010
0000
1000
0000
0010
1000
0100
0000
,
0010
0000
0001
0000
0010
0010
0100
0000
,
0010
0000
0001
0000
1000
0100
0001
0000
,
0100
0000
0010
0000
0001
1000
0010
0000
,
1000
0100
0010
0001
0010
0100
1000
0000
,
0001
1000
0010
1000
,
0010
0100
0001
1000
0010
0100
0001
1000
,
0100
1000
0010
1000
,
0001
0010
0001
1000
0001
0100
0001
1000
,
0001
0010
0001
1000
,
1000
0010
1000
0001
1000
0100
1000
0001
,
1000
0000
0010
0000
0100
0000
0001
0010
,
0200
0000
0000
0300
,
2000
0000
0000
3000
,
0020
0000
0000
0030
,
0200
0000
0000
0300
,
0002
0000
0000
0003
,
0020
0000
0000
0030
,
0200
0000
0000
0300
,
2000
0000
0000
0000
,
3000
0110
0000
0000
;

//---------------dance-single - Pandemonium X-ESP----------------
#NOTEDATA:;
#CHARTNAME:Pandemonium X-ESP;
#STEPSTYPE:dance-single;
#DESCRIPTION:Pandemonium X-ESP;
#DIFFICULTY:Hard;
#METER:10;
#CREDIT:Pandemonium X;
#NOTES:
0000
0000
0000
0000
,
0000
0000
0000
0000
,
0000
0000
0000
0000
,
0000
0000
0000
0000
,
1000
0000
0000
0001
0010
0000
0001
0000
1000
0000
0000
0010
0100
0000
0000
0000
,
0001
0000
0000
1000
0100
0000
1000
0000
0010
0000
0000
0100
0001
0000
0000
0000
,
0010
0000
0000
0100
1000
0000
0001
0000
0100
0000
0010
0000
0100
0000
0000
0000
,
0010
0000
0000
0100
0001
0000
0010
0000
0001
0000
0000
1000
0010
0000
0000
0000
,
0100
0000
0001
0000
0010
0001
0010
0001
0010
0000
0001
0000
0100
0000
1000
0000
,
0100
0000
0010
0000
1000
0000
0100
0010
0100
0000
1000
0000
0100
0000
0001
0000
,
0100
0000
1000
0010
1000
0010
1000
0010
1000
0000
0001
1000
0001
0000
0010
0000
,
0100
0000
0010
0001
0010
0000
0000
0001
0100
0001
1000
0001
0100
0000
0010
0000
,
1000
0000
0100
0010
0100
0000
0010
0100
0010
0000
0100
0000
1000
0000
0001
0000
,
0100
0000
0010
1000
0010
0000
1000
0010
1000
0000
0001
0000
0010
0000
1000
0000
,
0010
0000
0100
1000
0100
0000
1000
0100
1000
0000
0001
0000
0100
0000
0001
0000
,
0010
0000
0100
0010
0001
0000
0010
0001
1000
0000
0001
0000
0100
0000
0001
0000
,
0020
0001
0100
0031
,
2000
0010
0001
3010
,
0200
1000
0001
1300
,
0020
1000
0001
1030
,
0100
0000
0010
0001
1000
0000
0001
0000
0000
0000
1000
0001
0100
0000
0010
0000
,
0000
0000
1000
0001
0010
0000
0100
0000
0000
0000
0001
0010
0100
0000
1000
0000
,
0000
0000
0001
0100
1000
0000
0100
0000
0000
0000
0010
1000
0100
0000
0010
0000
,
0000
0000
0100
0010
0001
0000
1000
0000
0000
0000
0001
0010
1000
0010
0001
0100
,
1000
0100
0001
0100
1000
0100
0001
0100
,
0010
1000
0010
0001
0010
1000
0010
0100
,
0001
1000
0100
1000
0001
0100
0001
1000
,
0001
0010
0001
1000
0010
1000
0001
1000
,
0001
0010
1000
0010
0100
1000
0100
0001
,
0100
1000
0100
0010
0100
1000
0001
1000
,
0010
0001
0010
0100
1000
0100
0001
0100
,
0010
0100
0001
1000
0100
0010
0001
1000
,
0010
0010
0000
1000
0000
0001
1000
0000
0010
1000
0000
0100
0000
0000
0010
0100
,
0000
0000
0100
0010
0000
0000
0001
0000
0001
0100
0000
0010
0000
0000
1000
0100
,
1000
0000
0000
0001
0000
1000
0000
0000
0000
0000
0000
0000
0000
0000
0000
0000
,
0010
0000
0000
0100
0000
0001
0000
0000
0010
0100
0000
0010
0000
0000
0001
1000
,
0100
0100
0000
1000
0000
0010
0100
0000
0001
0010
0000
1000
0000
0000
0010
0100
,
0000
0000
0010
0001
0000
1000
0010
0000
0100
0001
0000
1000
0000
0000
0001
1000
,
0010
1000
0000
0001
0000
0010
0000
0000
0000
0000
0000
0000
0000
0000
0000
0000
,
0100
0000
0000
0010
0000
0001
0000
0000
1000
0001
0000
0100
0000
0000
0010
1000
,
1001
0000
0000
0001
0100
0000
0001
0000
0010
0000
0000
0100
0010
0000
0000
0000
,
0100
0000
0000
1000
0100
0000
1000
0000
0010
0000
0000
0100
0001
0000
0000
0000
,
0001
0000
0000
1000
0001
0000
1000
0000
0010
0000
0001
0000
0010
0000
0000
0000
,
1000
0000
0000
0010
1000
0000
0001
0000
0100
0000
0000
0001
0010
0000
0000
0000
,
0200
1000
0010
0301
,
0200
0001
0010
1300
,
0020
1000
0100
0031
,
0020
0000
0000
0000
,
0030
2002
3003
0000
;

//---------------dance-single - Kekkle-CSP----------------
#NOTEDATA:;
#CHARTNAME:Kekkle-CSP;
#STEPSTYPE:dance-single;
#DESCRIPTION:Kekkle-CSP;
#DIFFICULTY:Challenge;
#METER:12;
#CREDIT:Kekkle;
#NOTES:
0000
0000
0000
0000
,
0000
0000
0000
0000
,
0000
0000
0000
0000
,
0000
0000
0000
0000
,
1000
0000
0000
0010
0001
0000
0010
0000
0100
0000
0000
0001
1000
0000
0000
0000
,
0001
0000
0000
0010
1000
0000
0010
0000
0100
0000
0000
1000
0001
0000
0000
0000
,
0100
0000
0000
0010
0001
0000
0010
0000
1000
0000
0100
0000
0001
0000
0000
0000
,
0100
0000
0000
0010
1000
0000
0010
0000
0001
0000
0000
0100
0020
0000
0000
0000
,
1030
0000
0001
0010
1000
0001
1000
0010
0001
0000
1000
0010
0001
0000
1000
0100
,
0002
0000
0000
0000
1003
0000
0001
0010
1000
0001
1000
0000
0001
0100
2000
0000
,
3001
0000
1000
0010
0001
1000
0001
0010
1000
0000
0001
0010
1000
0000
0001
0100
,
2000
0000
0000
3001
0010
0000
0100
1000
0001
0100
0101
0000
1100
0000
0101
0000
,
0002
0000
1003
0100
0001
1000
0001
0100
1000
0000
0001
0100
1000
0000
0001
0010
,
2000
0000
0000
0000
3001
0000
1000
0100
0001
1000
0001
0000
1000
0010
0002
0000
,
1003
0000
0001
0100
1000
0001
1000
0100
0001
0000
1000
0100
0001
0000
1000
0010
,
0002
0000
0000
1003
0100
0000
0010
0001
1000
0010
0001
0010
1000
1000
0001
0001
,
0200
1000
0000
0001
0000
1000
0000
0301
,
2000
0100
0000
0001
0000
0100
0000
3001
,
0020
1000
0000
0001
0000
1000
0000
0031
,
2000
0010
0000
0001
0000
0010
0010
3010
,
0100
0000
0001
1000
0100
0001
1000
0010
0001
0000
0010
0001
1001
0000
1000
0000
,
0001
0000
1000
0001
0100
1000
0001
0010
1000
0000
0010
1000
1001
0000
0001
0000
,
1000
0000
0001
1000
0010
0001
1000
0100
0001
0000
0100
0001
1001
0000
1000
0000
,
0001
0000
1000
0001
0010
1000
0001
0100
1000
0001
0100
0010
1000
1000
0001
0001
,
2000
0000
3001
0100
1000
0001
1000
0100
0001
0000
1000
0100
0001
0000
1000
0010
,
0002
0000
0000
0000
1003
0000
0001
0100
1000
0001
1000
0000
0001
0010
2000
0000
,
3001
0000
1000
0100
0001
1000
0001
0100
1000
0000
0001
0100
1000
0000
0001
0010
,
2000
0000
0000
3001
0100
0000
0010
1000
0001
0010
0011
0000
1010
0000
0011
0000
,
0002
0000
1003
0010
0001
1000
0001
0010
1000
0000
0001
0010
1000
0000
0001
0100
,
2000
0000
0000
0000
3001
0000
1000
0010
0001
1000
0001
0000
1000
0100
0002
0000
,
1003
0000
0001
0010
1000
0001
1000
0010
0001
0000
1000
0010
0001
0000
1000
0100
,
0002
0000
0000
1003
0010
0000
0100
0001
1000
0100
0001
0100
0010
0010
0100
0100
,
1000
0001
0100
1000
0001
1000
0100
0100
0200
0000
0310
1000
0001
0010
1000
0010
,
0002
0000
0103
0010
1000
0000
0001
0010
1000
0001
1000
0001
0100
1000
0020
0000
,
1030
0001
0010
1000
0001
1000
0010
0010
0020
0000
0130
1000
0001
0100
1000
0100
,
0002
0000
0013
0100
1000
0000
0001
0100
1000
0100
0110
0000
1001
1000
1001
0000
,
0001
1000
0100
0001
1000
0001
0100
0100
0200
0000
0310
0001
1000
0010
0001
0010
,
2000
0000
3100
0010
0001
0000
1000
0010
0001
1000
0001
1000
0100
0001
0020
0000
,
0031
1000
0010
0001
1000
0001
0010
0010
0020
0000
0130
0001
1000
0100
0001
0100
,
2000
0000
3010
0100
0001
0000
1000
0100
0001
0100
1000
0001
0100
0100
0010
0010
,
1000
0000
0000
0100
0001
0000
0100
0000
0010
0000
0000
0001
1000
0000
0000
0000
,
0001
0000
0000
0100
1000
0000
0100
0000
0010
0000
0000
1000
0001
0000
0000
0000
,
0010
0000
0000
0100
0001
0000
0100
0000
1000
0000
0010
0000
0001
0000
0000
0000
,
0010
0000
0000
0100
1000
0000
0100
0000
0001
0000
0000
0010
0100
0000
0000
0000
,
2000
0000
0000
0001
0010
0000
0001
0000
0100
0000
0000
0001
0010
0000
0000
0000
,
3002
0000
0000
1000
0010
0000
1000
0000
0100
0000
0000
1000
0010
0000
0000
0000
,
0203
0000
0000
0001
0010
0000
1000
0000
0001
0000
0010
0000
1000
0000
0000
0000
,
0320
0000
0000
1000
0100
0000
0001
0000
0100
0000
0000
1000
0100
0000
0000
0000
,
0030
2002
3003
0000
;

//---------------dance-double - Pandemonium X-BDP----------------
#NOTEDATA:;
#CHARTNAME:Pandemonium X-BDP;
#STEPSTYPE:dance-double;
#DESCRIPTION:Pandemonium X-BDP;
#DIFFICULTY:Easy;
#METER:4;
#CREDIT:Pandemonium X;
#NOTES:
00000000
00000000
00000000
00000000
,
00000000
00000000
00000000
00000000
,
00000000
00000000
00000000
00000000
,
00000000
00000000
00000000
00000000
,
10000000
00000000
00000000
00000000
,
01000000
00000000
00000000
00000000
,
00100000
00000000
00000000
00000000
,
00002000
00000000
00000000
00003000
,
00010000
00000000
00000100
00001000
,
00000010
00000000
00000100
00000001
,
00001000
00000000
00000100
00010000
,
00100000
00000000
01000000
10000000
,
00010000
00000000
00100000
00001000
,
00010000
00000000
00000100
00001000
,
00000010
00000000
00000100
00000001
,
00000010
00000000
00000010
00000000
,
00000200
00000000
00000000
00000300
,
00020000
00000000
00000000
00030000
,
00002000
00000000
00000000
00003000
,
02000000
00000000
00000000
03000000
,
00000000
00100000
00000000
00100000
00000000
00100000
00000000
00100000
,
00000000
10000000
00000000
10000000
00000000
10000000
00000000
10000000
,
00000000
00010000
00000000
00010000
00000000
00010000
00000000
00010000
,
00000000
00100000
00000000
00100000
00000000
00100000
00000000
00100000
,
00001000
00000000
00010000
00000000
00000100
00001000
00000100
00000000
,
00001000
00000010
00000100
00000000
,
00000001
00001000
00000000
00000000
,
00000100
00010000
00001000
01000000
,
00100000
00000000
10000000
00000000
00010000
10000000
00010000
00000000
,
10000000
01000000
00010000
01000000
,
10000000
00100000
00000000
00000000
,
01000000
00001000
00010000
00000100
,
00001000
00000000
00000010
00000000
00000100
00000001
00000100
00000000
,
00000001
00001000
00000100
00010000
,
00001000
01000000
00000000
00000000
,
00100000
00000000
10000000
00000000
,
01000000
00000000
00100000
00000000
00010000
00100000
00010000
00000000
,
00001000
00010000
00000100
00001000
,
00000010
00000100
00000000
00000000
,
00000001
00001000
00000010
00001000
,
00000100
00001000
00000100
00000100
,
00010000
00001000
01000000
01000000
,
00100000
10000000
01000000
00100000
,
00010000
00100000
00001000
00001000
,
00020000
00000000
00000000
00030000
,
00000200
00000000
00000000
00000300
,
00002000
00000000
00000000
00003000
,
00000020
00000000
00000000
00000000
,
00000030
00001001
00000000
00000000
;

//---------------dance-double - Pandemonium X-DDP----------------
#NOTEDATA:;
#CHARTNAME:Pandemonium X-DDP;
#STEPSTYPE:dance-double;
#DESCRIPTION:Pandemonium X-DDP;
#DIFFICULTY:Medium;
#METER:7;
#CREDIT:Pandemonium X;
#NOTES:
00000000
00000000
00000000
00000000
,
00000000
00000000
00000000
00000000
,
00000000
00000000
00000000
00000000
,
00000000
00000000
00000000
00000000
,
10000000
01000000
00100000
00110000
,
00001000
00000100
00000010
00000011
,
00000001
00000100
00000010
00001010
,
00020000
00000000
00000000
00030000
,
00001000
00000000
01000000
00000000
00100000
10000000
01000000
00000000
,
00100000
00000000
00010000
00000000
00100000
00001000
00010000
00000100
,
00001000
00000000
00000010
00000000
00000100
00000001
00000010
00000000
,
00000100
00000000
00000010
00000000
00000001
00000010
00000100
00001000
,
00000100
00000000
00010000
00000000
00001000
01000000
00100000
00000000
,
01000000
00000000
00010000
00000000
00100000
00010000
10000000
01000000
,
00100000
00000000
01000000
00000000
00100000
00001000
00010000
00000000
,
00000100
00000000
00001000
00000000
00000010
00000100
00000001
00001000
,
00000200
00000000
00000000
00000000
,
00020300
00000000
00000000
00000000
,
00032000
00000000
00000000
00000000
,
02003000
00000000
00000000
00000000
00000000
00100000
00100000
00100000
,
03000000
00010000
00000000
10000000
00000000
01000000
00000000
00100000
,
00000000
00010000
00000000
00100000
00000000
00001000
00000000
00010000
,
00000000
00000100
00000000
00001000
00000000
00000010
00000000
00000100
,
00000000
00000001
00000000
00000010
00000000
00001000
00000000
00000010
,
00000001
00001000
00000100
00000000
00010000
00000000
00011000
00000000
,
00001000
01000000
00100000
00000000
10000000
00000000
10100000
00000000
,
10000000
00010000
00100000
01000000
00000000
00000000
00000000
00000000
,
00100000
00001000
00010000
00000000
00001000
00010000
00000100
00001000
,
00000010
00000100
00000001
00000000
00000010
00000100
00001000
00000000
,
00001100
00000000
00000100
00000000
00010000
00000100
00001000
00000000
,
00000100
00010000
00001000
01000000
00000000
00000000
00000000
00000000
,
00100000
10000000
01000000
00000000
00100000
00010000
00100000
00001000
,
00010000
00000100
00000000
00001000
00000000
00000000
00000010
00000000
00000100
00000000
00000000
00000001
00000000
00000000
00001000
00000000
,
00000000
00000000
00000100
00000000
00000000
00000000
00010000
00000000
00001000
00000000
00000000
01000000
00000000
00000000
00100000
00000000
,
10000000
00000000
00000000
01000000
00000000
00100000
00000000
00000000
00000000
00000000
00000000
00000000
00000000
00000000
00000000
00000000
,
01000000
00000000
00000000
10000000
00000000
00010000
00000000
00000000
00100000
00000000
00000000
00001000
00000000
00000000
00010000
00000000
,
00000100
00001000
00000000
00000001
00000000
00000001
00000000
00000000
00000100
00000000
00000000
00000001
00000000
00000000
00000010
00000000
,
00000000
00000000
00000100
00000010
00000000
00000000
00000000
00000000
00000100
00001000
00000000
00000001
00000000
00000000
00000100
00000000
,
00000010
00000000
00000000
00010000
00000000
00001000
00000000
00000000
00000000
00000000
00000000
00000000
00000000
00000000
00000000
00000000
,
00100000
00000000
00000000
01000000
00000000
10000000
00000000
00000000
00100000
00000000
00000000
01000000
00000000
00000000
00010000
00000000
,
10000000
01000000
00100000
00110000
,
00100000
00001000
00010000
00010100
,
00001000
00000000
00000100
00000000
00000010
00000001
00000100
00000000
,
00000001
00000100
00000010
00001010
,
00002000
00000000
00000000
00000000
,
00003200
00000000
00000000
00000000
,
00020300
00000000
00000000
00000000
,
00032000
00000000
00000000
00000000
,
00003000
10100000
00000000
00000000
;

//---------------dance-double - Pandemonium X-EDP----------------
#NOTEDATA:;
#CHARTNAME:Pandemonium X-EDP;
#STEPSTYPE:dance-double;
#DESCRIPTION:Pandemonium X-EDP;
#DIFFICULTY:Hard;
#METER:10;
#CREDIT:Pandemonium X;
#NOTES:
00000000
00000000
00000000
00000000
,
00000000
00000000
00000000
00000000
,
00000000
00000000
00000000
00000000
,
00000000
00000000
00000000
00000000
,
10000000
00000000
00000000
00100000
01000000
00000000
00010000
00000000
00100000
00000000
00000000
00001000
00010000
00000000
00000000
00000000
,
00000100
00000000
00000000
00001000
00000100
00000000
00001000
00000000
00000001
00000000
00000000
00000100
00000001
00000000
00000000
00000000
,
00000100
00000000
00000000
00000010
00001000
00000000
00000100
00000000
00010000
00000000
00001000
00000000
01000000
00000000
00000000
00000000
,
00200000
00000000
00000000
00300000
,
10000000
01000000
00010000
01000000
00100000
00001000
00010000
00000100
,
00001000
00000010
00000001
00000010
00001000
00000100
00000010
00000001
,
00001000
00000010
00010000
00001000
00100000
00010000
01000000
00001000
,
00010000
00001000
00010000
00000100
00001000
00000010
00000110
00001001
,
00000001
00000100
00000010
00001000
00000100
00010000
00001000
00100000
,
00010000
10000000
01000000
00100000
01000000
10000000
00010000
00100000
,
00001000
00010000
00000100
00010000
00000100
00001000
00000010
00000100
,
00000001
00000000
00001000
00000000
00000100
00000000
00010000
00000000
00001000
00000000
00100000
00000000
01000000
10000000
00100000
01000000
,
00020000
01000000
00100000
01030000
,
00200000
00001000
00010000
00301000
,
00020000
00001000
00000100
00031000
,
00000200
00000000
00001000
00000000
00000310
00001000
00001000
00001000
,
00000000
00000010
00000000
00000100
00000000
00000011
00000000
00001100
,
00000000
00000100
00000000
00010000
00000000
00011000
00000000
00101000
,
00000000
00001000
00000000
00100000
00000000
11000000
00000000
10010000
,
00000000
01000000
00100000
00000000
00000000
00000000
10000000
00000000
00000000
00000000
01000000
00100000
00000000
01000000
00100000
00000000
,
00010000
00100000
00000000
00001000
00000000
00010000
00000100
00000000
00001000
00000010
00000000
00000100
00000000
00000000
00000001
00001000
,
00000000
00000000
00000010
00001000
00000000
00000000
00000100
00000000
00010000
00001000
00000000
01000000
00000000
00000000
00100000
10000000
,
01000000
00000000
00000000
00100000
00000000
01000000
00000000
00000000
00000000
00000000
00000000
00000000
00000000
00000000
00000000
00000000
,
01000000
00100000
00000000
00010000
00000000
00100000
00000000
00000000
00001000
00010000
00000000
00000100
00000000
00000000
00001000
00000010
,
00000100
00000001
00000000
00000100
00000000
00000010
00001000
00000000
00000100
00010000
00000000
00001000
00000000
00000000
00100000
01000000
,
00000000
00000000
00100000
00010000
00000000
00000000
01000000
00000000
00100000
10000000
00000000
00010000
00000000
00000000
00100000
01000000
,
10000000
01000000
00000000
00100000
00000000
00010000
00000000
00000000
00000000
00000000
00000000
00000000
00000000
00000000
00000000
00000000
,
00100000
00000000
00001000
00010000
00000000
00000100
00000000
00000000
00001000
00000100
00000000
00000010
00000000
00000000
00000001
00000010
,
00000100
00001000
00000000
00000200
00000000
00010000
00010300
00000000
00001000
01000000
00000000
00200000
00000000
00000000
10000000
10300000
,
00000000
00000000
01000000
20000000
00000000
00000000
30100000
00000000
01000000
01000000
00000000
00010000
00000000
00000000
00100000
01000000
,
20000000
00000000
00000000
00010000
00000000
30010000
00000000
00000000
00000000
00000000
00000000
00000000
00000000
00000000
00000000
00000000
,
00100000
00002000
00000000
00010000
00000000
00013000
00000000
00000000
00010000
00000020
00000000
00000100
00000000
00000000
00001030
00000001
,
00000010
00000020
00000000
00000100
00000000
00000100
00000130
00000000
00000010
00000002
00000000
00001000
00000000
00000000
00000100
00000103
,
00000000
00000000
00000010
00020000
00000000
00000000
00031000
00000000
00010000
00001000
00000000
00000000
00200000
00000000
01000000
01300000
,
10000000
00020000
00000000
00100000
00000000
00130000
00000000
00000000
00000000
00000000
00000000
00000000
00000000
00000000
00000000
00000000
,
00100000
00002000
00000000
01000000
00000000
01003000
00000000
00000000
00001000
00010000
00000000
00001000
00010000
00000100
00010000
00000100
,
00001000
00000000
00000000
00000010
00000100
00000000
00000001
00000000
00001000
00000000
00000000
00000100
00000010
00000000
00000000
00000000
,
00000100
00000000
00000000
00000010
00000001
00000000
00000100
00000000
00000010
00000000
00000000
00001000
00000001
00000000
00000000
00000000
,
00001000
00000000
00000000
00000100
00010000
00000000
00001000
00000000
01000000
00000000
10000000
00000000
01000000
00000000
00000000
00000000
,
00100000
00000000
00000000
10000000
00100000
00000000
01000000
00000000
00010000
00000000
00000000
00100000
00001000
00000000
00000000
00000000
,
00020000
00000000
00000000
00000000
,
00030200
00000000
00000000
00000000
,
00002300
00000000
00000000
00000000
,
00003020
00000000
00000000
00000000
,
00000030
00022000
00033000
00000000
;

//---------------dance-double - RGTM-CDP----------------
#NOTEDATA:;
#CHARTNAME:RGTM-CDP;
#STEPSTYPE:dance-double;
#DESCRIPTION:RGTM-CDP;
#DIFFICULTY:Challenge;
#METER:13;
#CREDIT:RGTM;
#NOTES:
00000000
00000000
00000000
00000000
,
00000000
00000000
00000000
00000000
,
00000000
00000000
00000000
00000000
,
00000000
00000000
00000000
00000000
,
10000000
00000000
00000000
01000000
00010000
00000000
00100000
00000000
10000000
00000000
00000000
01000000
00010000
00000000
00000000
00000000
,
00001000
00000000
00000000
00000100
00000001
00000000
00000010
00000000
00001000
00000000
00000000
00000100
00000001
00000000
00000000
00000000
,
00001000
00000000
00000000
00000001
00000010
00000000
00001000
00000000
00000100
00000000
00000001
00000000
00000010
00000000
00000000
00000000
,
00002000
00000000
00000000
00013000
,
00011000
00000000
00010000
00100000
01000000
00001000
00010000
00100000
20000000
00000000
31000000
00010000
00000200
00000000
00000310
00001000
,
00200000
00000000
01300000
00000000
00200000
00000000
00310000
00000010
00000001
00000010
00001000
00000010
00000001
00000100
00010000
00000100
,
00000002
00000000
00000013
00001000
00010000
00000010
00000100
00001000
00020000
00000000
00030100
00001000
02000000
00000000
03100000
00010000
,
00000020
00000000
00000130
00000010
00000020
00000000
00000130
00010000
00001000
01000000
01100000
00000000
10010000
00000000
01100000
00000000
,
00011000
00000000
00001000
00000010
00000100
00010000
00001000
00000010
00000002
00000000
00000103
00001000
02000000
00000000
03100000
00010000
,
00000020
00000000
00000130
00000000
00000020
00000000
00001030
00100000
10000000
00100000
00010000
00100000
10000000
01000000
00001000
01000000
,
20000000
00000000
30100000
00010000
00001000
00100000
01000000
00010000
00002000
00000000
01003000
00010000
00000200
00000000
00000310
00001000
,
00200000
00000000
01300000
00100000
00200000
00000000
01300000
00001000
00010000
00000000
00001000
00000010
00000001
00000100
00001000
00010000
,
00021000
00100000
00000000
10000000
00000000
00000010
00000000
00000001
,
00032000
00000010
00000000
00000001
00000000
00100000
00000000
10000000
,
00023000
00100000
00000000
00000010
00000000
01000000
00000000
00000100
,
00032000
00000010
00000000
00100000
00000000
00000100
00010000
01000000
,
00013000
00000000
00001000
00010000
00100000
10000000
00100000
01000000
00001000
00000000
00010000
00001000
00000100
00000000
00000001
00000100
,
00001000
00000000
00010000
00001000
00000100
00000001
00000100
00000010
00010000
00000000
00001000
00010000
00100000
00000000
10000000
00100000
,
00010000
00000000
00001000
00010000
01000000
10000000
01000000
00100000
00001000
00000000
00010000
00001000
00000010
00000000
00000001
00000010
,
00001000
00000000
00010000
00001000
00000010
00000001
00000010
00000100
00010000
00001000
00010000
01000000
10000000
00100000
00010000
00001000
,
00011000
00000000
00001000
00000010
00000100
00010000
00001000
00000010
00000002
00000000
00000103
00001000
02000000
00000000
03100000
00010000
,
00000020
00000000
00000130
00000000
00000020
00000000
00001030
00100000
10000000
00100000
00010000
00100000
10000000
01000000
00001000
01000000
,
20000000
00000000
30100000
00010000
00001000
00100000
01000000
00010000
00002000
00000000
01003000
00010000
00000200
00000000
00000310
00001000
,
00200000
00000000
01300000
00100000
00200000
00000000
01300000
00001000
00010000
00000100
00000110
00000000
00001001
00000000
00000110
00000000
,
00011000
00000000
00010000
00100000
01000000
00001000
00010000
00100000
20000000
00000000
31000000
00010000
00000200
00000000
00000310
00001000
,
00200000
00000000
01300000
00000000
00200000
00000000
00310000
00000010
00000001
00000010
00001000
00000010
00000001
00000100
00010000
00000100
,
00000002
00000000
00000013
00001000
00010000
00000010
00000100
00001000
00020000
00000000
00030100
00001000
02000000
00000000
03100000
00010000
,
00000020
00000000
00000130
00000010
00000020
00000000
00000130
00010000
00001000
00000000
00010000
01000000
10000000
00100000
00010000
00001000
,
00011000
00000000
00010000
01000000
00100000
00001000
00010000
01000000
20000000
00000000
30100000
00010000
00000020
00000000
00000130
00001000
,
02000000
00000000
03100000
00000000
02000000
00000000
03010000
00000100
00000001
00000100
00001000
00000100
00000001
00000010
00010000
00000010
,
00000002
00000000
00000103
00001000
00010000
00000100
00000010
00001000
00020000
00000000
00030010
00001000
00200000
00000000
01300000
00010000
,
00000200
00000000
00000310
00000100
00000200
00000000
00000310
00010000
00001000
00100000
01100000
00000000
10010000
00000000
01100000
00000000
,
00011000
00000000
00001000
00000100
00000010
00010000
00001000
00000100
00000002
00000000
00000013
00001000
00200000
00000000
01300000
00010000
,
00000200
00000000
00000310
00000000
00000200
00000000
00001300
01000000
10000000
01000000
00010000
01000000
10000000
00100000
00001000
00100000
,
20000000
00000000
31000000
00010000
00001000
01000000
00100000
00010000
00002000
00000000
00103000
00010000
00000020
00000000
00000130
00001000
,
02000000
00000000
03100000
01000000
02000000
00000000
03100000
00001000
00010000
00000000
00001000
00000010
00000001
00000100
00001000
00010000
,
00011000
00000000
00000000
00010000
00100000
00000000
10000000
00000000
01000000
00000000
00000000
00010000
00100000
00000000
00000000
00000000
,
10000000
00000000
00000000
01000000
00010000
00000000
00100000
00000000
10000000
00000000
00000000
01000000
00010000
00000000
00000000
00000000
,
00001000
00000000
00000000
00000010
00000001
00000000
00000100
00000000
00001000
00000000
00000010
00000000
00000001
00000000
00000000
00000000
,
00000100
00000000
00000000
00000000
00000000
00000000
00001000
00000000
00000010
00000000
00000000
00000000
00000001
00000000
00000000
00000000
00000100
00000000
00000000
00000000
00000000
00000000
00001000
00000000
00010000
00001000
00010000
00000000
00001000
00000000
00100000
00000000
,
02000000
00000000
00000000
10000000
00100000
00000000
00010000
00000000
00001000
00000000
00000000
10000000
00100000
00000000
00000000
00000000
,
03020000
00000000
00000000
00001000
00100000
00000000
00001000
00000000
01000000
00000000
00000000
00001000
00100000
00000000
00000000
00000000
,
00032000
00000000
00000000
00010000
00000010
00000000
00010000
00000000
00000100
00000000
00010000
00000000
00000010
00000000
00000000
00000000
,
00003200
00000000
00000000
00000001
00000010
00000000
00001000
00000000
00010000
00000000
00000000
00000001
00000010
00000000
00000000
00000000
,
00000300
00022000
00033000
00000000
;
