#TITLE:thunder;
#ARTIST:Lion MUSASHI;
#BANNER:thunder.png;
#BACKGROUND:thunder-bg.png;
#MUSIC:thunder.ogg;
#OFFSET:-0.836;
#SAMPLESTART:99.951;
#SAMPLELENGTH:15;
#BPMS:0=135;

//---------------dance-single - Kekkle-ESP----------------
#NOTES:
     dance-single:
     Kekkle:
     Hard:
     13:
     0.487515,0.644177,0.015338,0.337426,0.337426,445,443,2,44,0,0,0.487515,0.644177,0.015338,0.337426,0.337426,445,443,2,44,0,0:
0000
0000
0000
0000
,
0000
0000
0000
0000
,
0001
0100
0020
0000
1030
0100
0020
0000
,
0031
0000
0100
0000
0020
0000
0000
0000
1030
0001
1000
0001
1000
0000
0100
0000
,
0010
0001
0200
0000
0310
1000
0200
0000
,
0310
0000
0001
0000
0200
0000
0000
0310
1000
0000
0001
1000
0001
0000
0010
0000
,
0100
0000
1000
0000
0020
0000
0000
0000
0130
0000
0001
0000
0020
0000
0130
1000
,
0000
1000
0001
0000
0100
0010
0100
0010
0000
0010
1000
0000
0001
1000
0001
1000
,
0001
0000
0010
0000
0100
0000
1000
0001
1000
0000
0010
0000
0100
0000
0001
1000
,
0001
0000
0100
0000
0010
0000
1000
0001
1000
0000
0100
0010
0100
0000
1000
0000
,
0001
0000
0100
0010
0100
0000
0001
0000
1000
0000
0100
0010
0100
0000
1000
0000
,
0001
0000
0100
0010
0100
0000
0010
0000
1000
0001
1000
0001
1000
0000
0100
0000
,
0220
0000
0330
0000
0010
0000
0001
1000
0001
0000
1000
0010
1000
0000
0010
0000
,
0220
0000
0330
0000
0100
0000
0001
1000
0001
0000
0010
0001
0010
0000
0100
0000
,
1000
0001
0100
0100
0001
1000
0100
0100
,
0010
0001
0010
0000
0001
1000
0001
1000
0000
1000
0010
0000
0100
0010
0100
0010
,
0200
0000
0000
0000
,
0302
0000
0000
0000
,
2003
0000
0000
0000
,
3200
0000
0000
0000
,
0302
0000
0000
0000
,
2003
0000
0000
0000
,
3020
0000
0000
0000
,
0032
0000
0000
0000
,
2003
0000
0000
0000
0000
0000
0000
3010
,
0200
0000
0000
0000
0301
1000
0100
0010
,
0002
2003
3020
0230
,
0302
0000
0000
2003
0000
0000
3200
0000
,
0320
0000
0000
0000
,
0032
1000
0000
0000
,
0203
0000
0000
0000
,
0020
0000
0000
0330
,
0010
0000
1000
0000
0001
0000
0000
0010
0100
0000
1000
0000
0010
0000
0100
0000
,
0001
0000
1000
0000
0100
0000
0000
0010
0001
0000
1000
0001
1000
0000
0010
0000
,
0100
0000
0010
0000
1000
0000
0000
0001
0010
0000
0100
0000
1000
0000
0001
0000
,
0010
0000
0001
0000
1000
0000
0010
0000
0100
0001
0100
0001
0100
0000
0010
0000
,
1000
0000
0001
0000
0010
0000
0000
0100
1000
0000
0010
0000
0100
0000
0001
0000
,
0100
0000
0010
0000
1000
0000
0000
0001
0010
0000
0100
0000
1000
0000
0100
0000
,
0010
0000
0001
0000
0100
0000
0000
0010
1000
0000
0001
0000
0010
0000
0010
0000
,
0100
1000
0100
0000
0010
0001
0010
0001
0000
0001
1000
0000
0010
0100
0010
0100
,
0010
0000
1000
0000
0001
0000
0010
0100
0010
0000
0001
0000
1000
0000
0010
0000
,
0100
0000
0010
0000
1000
0000
0001
0010
0001
0000
0010
0000
0100
0000
1000
0000
,
0010
0000
0100
0000
0001
0000
1000
0100
1000
0000
0010
0000
0100
0000
0001
0000
,
0010
0000
0100
0000
1000
0000
0010
0100
0010
0000
1000
0001
1000
0000
0100
0000
,
0010
0000
0001
0000
1000
0000
0010
0100
0010
0000
1000
0000
0100
0000
0010
0000
,
0100
0000
1000
0000
0010
0000
0100
0001
0100
0000
0010
0000
1000
0000
0100
0000
,
0010
0000
0001
0000
0010
0000
0100
1000
0100
0000
1000
0000
0010
0000
0100
0000
,
0001
1000
0100
0000
0010
0001
0010
0100
0000
0100
1000
0000
0001
0100
0001
0100
,
0002
0000
0000
1000
,
0023
0000
0000
0100
,
0032
0000
0000
1000
,
0203
0000
0000
1000
,
0320
0000
0000
1000
,
0230
0000
0000
0001
,
0320
0000
0000
2030
,
0002
0000
0000
3003
,
0001
0000
1000
0000
0100
0000
0010
0001
0010
0000
0001
0010
0001
0000
1000
0000
,
0010
0000
0100
0000
0010
0000
1000
0001
1000
0000
0001
1000
0001
0000
0010
0000
,
0100
0000
0010
0000
0001
0000
1000
0100
1000
0000
0100
1000
0100
0000
0010
0000
,
0001
0000
1000
0000
0010
0000
0100
0001
0100
0000
0001
0100
0001
0000
1000
0001
,
1000
0000
0100
0000
0010
0000
0001
0100
0001
0000
0100
0001
0100
0000
0010
0000
,
1000
0000
0001
0000
0010
0000
0100
1000
0100
0000
1000
0100
1000
0000
0010
0000
,
0100
0000
0001
0000
1000
0000
0100
0010
0100
0000
0010
0100
0010
0000
0001
0000
,
1000
0010
1000
0000
0010
0100
0001
0100
0000
0100
0010
0000
1000
0001
1000
0001
,
0010
0000
0100
0000
1000
0000
0000
0001
0100
0000
0010
1000
0010
0000
0100
0000
,
0001
0000
1000
0000
0100
0000
0000
0010
0001
0000
1000
0001
1000
0000
0010
0000
,
0100
0000
0001
0000
0010
0000
0000
0100
1000
0000
0100
0010
0100
0000
0010
0000
,
0001
0000
1000
0000
0010
0000
0100
0000
0001
1000
0001
1000
0001
0000
2000
0000
,
0002
0000
0000
0000
,
0000
0000
0000
0000
,
3003
0000
0000
0000
;

//---------------dance-single - Kekkle-DSP----------------
#NOTES:
     dance-single:
     Kekkle:
     Medium:
     10:
     0.353859,0.449773,0.099694,0.299082,0,323,310,13,39,0,0,0.353859,0.449773,0.099694,0.299082,0,323,310,13,39,0,0:
// measure 0
0000
0000
0000
0000
,  // measure 1
0000
0000
0000
0000
,  // measure 2
0001
1000
0002
0000
1003
0001
2000
0000
,  // measure 3
3001
1000
0002
0000
1003
0010
0100
0001
,  // measure 4
1000
0100
2000
0000
3100
1000
0200
0000
,  // measure 5
1300
0100
2000
0000
3100
0010
0100
1000
,  // measure 6
0001
0100
0002
0000
0103
0001
0200
0000
,  // measure 7
0301
0100
0002
0000
1003
0001
1000
0010
,  // measure 8
0100
0001
1000
0000
0100
1000
0001
0000
,  // measure 9
0100
0001
1000
0100
0010
0100
1000
0000
,  // measure 10
0010
0100
0001
0000
0010
0100
1000
0000
,  // measure 11
0010
0100
0001
0010
0100
1000
0010
0000
,  // measure 12
0110
0000
0100
0000
0001
1000
0100
0000
,  // measure 13
0110
0000
0010
0000
0001
1000
0010
0000
,  // measure 14
0100
0001
0100
0010
1000
0001
1000
0100
,  // measure 15
0010
0001
1000
0100
0010
0100
1000
0010
,  // measure 16
0200
0000
0000
0000
,  // measure 17
0302
0000
0000
0000
,  // measure 18
2003
0000
0000
0000
,  // measure 19
3200
0000
0000
0000
,  // measure 20
0320
0000
0000
0000
,  // measure 21
0032
0000
0000
0000
,  // measure 22
2003
0000
0000
0000
,  // measure 23
3020
0000
0000
0030
,  // measure 24
0210
0000
0000
0000
,  // measure 25
0302
0000
0000
0000
,  // measure 26
2003
0000
0000
0000
,  // measure 27
3200
0000
0000
0000
,  // measure 28
0320
0000
0000
0000
,  // measure 29
0032
0000
0000
0000
,  // measure 30
2003
0000
0000
0000
,  // measure 31
0002
0000
0000
3003
,  // measure 32
0001
1000
0010
0000
0100
0010
0100
0001
,  // measure 33
1000
0100
0010
0000
0001
1000
1001
0000
,  // measure 34
0001
0100
0010
0000
1000
0010
0100
0001
,  // measure 35
0010
0001
0100
0000
0010
0100
0110
0000
,  // measure 36
0010
1000
0001
0000
0010
0100
0010
0001
,  // measure 37
1000
0010
0100
0000
0001
1000
1001
0000
,  // measure 38
0001
0010
0100
0000
0010
0001
1000
0010
,  // measure 39
0100
0100
0010
0010
1000
0001
0010
0000
,  // measure 40
0100
1000
0001
0100
0010
1000
0010
0000
,  // measure 41
0100
0001
0101
0000
1000
0100
1100
0000
,  // measure 42
1000
0010
0100
0001
1000
0100
0010
0000
,  // measure 43
0001
1000
1001
0000
0001
0100
0101
0000
,  // measure 44
0001
1000
0100
0010
0100
1000
0010
0000
,  // measure 45
0100
0010
0110
0000
0100
0001
0101
0000
,  // measure 46
0001
1000
0100
0010
0100
1000
0001
0100
,  // measure 47
0010
0010
1000
1000
0001
0010
0100
0000
,  // measure 48
2000
0000
0000
0000
,  // measure 49
3002
0000
0000
0000
,  // measure 50
0203
0000
0000
0000
,  // measure 51
0320
0000
0000
0000
,  // measure 52
2030
0000
0000
0000
,  // measure 53
3002
0000
0000
0000
,  // measure 54
0023
0000
0000
0000
,  // measure 55
0200
0000
0000
0330
,  // measure 56
0100
0010
0001
1000
0100
0010
0001
1000
,  // measure 57
0010
0100
0001
1000
0010
0100
0001
1000
,  // measure 58
0001
0010
0100
1000
0001
0010
0100
1000
,  // measure 59
0001
0100
0010
1000
0001
0100
0010
1000
,  // measure 60
0100
0010
0001
1000
0010
0100
0010
1000
,  // measure 61
0001
0010
0100
0010
0001
1000
0010
0100
,  // measure 62
0001
0100
0010
1000
0001
0010
0100
1000
,  // measure 63
0001
0010
0001
1000
0010
0100
0010
0100
,  // measure 64
0002
0000
1003
0000
0100
0010
0100
1000
,  // measure 65
0002
0000
0103
0000
0010
1000
0010
0100
,  // measure 66
0002
0000
1003
0000
0100
0010
0001
1000
,  // measure 67
0020
0000
0130
0000
0001
1000
0100
0000
,  // measure 68
0220
0000
0000
0000
,  // measure 69
0330
0000
0000
0000
;

//---------------dance-single - Kekkle-BSP----------------
#NOTES:
     dance-single:
     Kekkle:
     Easy:
     7:
     0.282649,0.375770,0.015338,0.291413,0,258,256,2,38,0,0,0.282649,0.375770,0.015338,0.291413,0,258,256,2,38,0,0:
0000
0000
0000
0000
,
0000
0000
0000
0000
,
0001
0002
1003
2000
,
3001
0002
0100
0103
,
0010
0020
0130
0200
,
0310
0020
1000
1030
,
0001
0002
0013
0020
,
0031
0002
0013
0100
,
0010
0001
0010
0000
0001
0010
0001
0000
,
0010
0001
0010
0000
0001
1000
0001
1000
,
0010
1000
0010
0000
1000
0010
1000
0000
,
0010
1000
0010
0000
1000
0001
1000
0000
,
2002
0000
3003
0000
0001
0100
0010
0000
,
0220
0000
0330
0000
0100
0010
1000
0000
,
0001
0010
0001
0000
1000
0010
1000
0000
,
0010
0100
0010
0000
1000
0001
1000
0001
,
2000
0000
0000
3000
,
0020
0000
0000
0030
,
0200
0000
0000
0300
,
0002
0000
0000
0003
,
2000
0000
0000
3000
,
0200
0000
0000
0300
,
0020
0000
0000
0030
,
0002
0000
0000
0003
,
2000
0000
0000
3000
,
0020
0000
0000
0030
,
0200
0000
0000
0300
,
0002
0000
0000
0003
,
2000
0000
0000
3000
,
0200
0000
0000
0300
,
2000
0000
0000
0000
,
0002
0000
0000
3003
,
0001
0000
1000
0000
0001
0100
0001
0000
,
0100
0000
0010
0000
1000
0010
1000
0000
,
0001
0000
0010
0000
0001
0010
0001
0000
,
1000
0000
0010
0000
0100
0010
0100
0010
,
0100
0000
0001
0000
1000
0001
1000
0000
,
0100
0000
0010
0000
0001
0010
0001
0000
,
1000
0000
0010
0000
0100
0010
0100
0000
,
0010
1000
0010
0000
1000
0001
1000
0000
,
0001
0000
0010
0000
0001
0010
0001
0000
,
1000
0000
0010
1000
0010
1000
0010
0000
,
0100
0000
0001
0000
1000
0100
1000
0000
,
0001
0000
0100
0010
0100
0001
1000
0001
,
1000
0000
0100
0000
0010
0001
0010
0000
,
0001
0000
1000
0010
1000
0010
1000
0000
,
0001
0000
0010
0000
0100
1000
0100
0000
,
0010
0001
0010
0001
1000
0001
1000
0001
,
0200
0000
0000
0000
,
0320
0000
0000
0000
,
2030
0000
0000
0000
,
3002
0000
0000
0000
,
0023
0000
0000
0000
,
0230
0000
0000
0000
,
2300
0000
0000
0000
,
0002
0000
0000
3003
,
0001
0100
0001
0000
1000
0000
0001
1000
,
0001
1000
0001
0000
0010
0000
0100
0010
,
0100
0010
0100
0000
1000
0000
0001
1000
,
0001
1000
0001
0000
0100
0000
0010
1000
,
0010
1000
0010
0000
0100
0000
0001
1000
,
0001
1000
0001
0000
0010
0000
0100
1000
,
0100
1000
0100
0000
0010
0000
0001
1000
,
0001
1000
0001
0000
0100
0010
0100
0010
,
0100
0000
0001
0000
1000
0100
1000
0000
,
0001
0000
0100
0010
0100
0010
0100
0000
,
0001
0000
1000
0000
0100
0010
0100
0000
,
1000
0000
0001
0100
0001
0100
0001
0100
,
0002
0000
0000
0000
,
0000
0000
0000
0000
,
0003
0000
0000
0000
;

//---------------dance-double - Kekkle-EDP----------------
#NOTES:
     dance-double:
     Kekkle:
     Hard:
     12:
     0.431642,0.590495,0.076688,0.329757,0.172547,394,384,10,43,0,0,0.431642,0.590495,0.076688,0.329757,0.172547,394,384,10,43,0,0:
00000000
00000000
00000000
00000000
,
00000000
00000000
00000000
00000000
,
10000000
00100000
02000000
00000000
03001000
00010000
02000000
00000000
,
03100000
00000000
00001000
00000000
00020000
00000000
00000000
00000000
00030010
00001000
00000010
00001000
00000010
00000000
00000100
00000000
,
00000001
00000010
00000200
00000000
00010300
00001000
00000200
00000000
,
00001300
00000000
00010000
00000000
00200000
00000000
00000000
00000000
10300000
00000000
00010000
10000000
00010000
00000000
00100000
00000000
,
01000000
10000000
00200000
00000000
01300000
00001000
00020000
00000000
,
00031000
00000000
01000000
00000000
00010000
00000000
00010000
01000000
00000000
01000000
00001000
00000000
00010000
00000000
00001000
00000000
,
00000100
00000001
00001001
00000000
00001000
00000100
00010100
00000000
,
00010000
00001000
01001000
00000000
01000000
00100000
10000000
00010000
,
00100000
01000000
01100000
00000000
00100000
00001000
00011000
00000000
,
00010000
00000010
00000110
00000000
00000100
00000001
00001000
00000100
,
00000220
00000330
00000010
00000001
00001000
00000100
00010000
00001000
,
02002000
03003000
01000000
00100000
10000000
00010000
00100000
00001000
,
00010000
00000100
00000010
00000100
00010000
00001000
00000010
00000001
,
00001000
00000010
00001000
00000000
00000010
00000000
00000010
00010000
00000000
00010000
00001000
00000000
01000000
00010000
01000000
00000000
,
01200000
00000000
00000000
00000000
,
20300000
00000000
00000000
00000000
,
32000000
00000000
00000000
00000000
,
03020000
00000000
00000000
00000000
,
00032000
00000000
00000000
00000000
,
00003020
00000000
00000000
00000000
,
00000032
00000000
00000000
00000000
,
00000203
00000000
00000000
00000000
,
00000320
00000000
00000000
00000000
00000000
00000000
00000000
00010030
,
00002000
00000000
00000000
00000000
00000000
00000000
01003000
00010000
,
00200000
02300000
23000000
30200000
,
00320000
00000000
00000000
00032000
00000000
00000000
00023000
00000000
,
00030020
00000000
00000000
00000000
,
00002030
00000001
00000000
00000000
,
00003200
00000000
00000000
00000000
,
00020000
00000000
00000000
00030300
,
00010000
00000000
00001000
00000000
01000000
00000000
00000000
00010000
00100000
00000000
01000000
00000000
10000000
00000000
01000000
00000000
,
00100000
00000000
00001000
00000000
00010000
00000000
00000000
00001000
00000100
00000000
00000010
00000000
00001000
00000000
00000001
00000000
,
00000010
00000000
00000100
00000000
00010000
00000000
00000000
00001000
00010000
00000000
00100000
00000000
01000000
00000000
00010000
00000000
,
10000000
00000000
01000000
00000000
00100000
00000000
00000000
01000000
10000000
00000000
01000000
00000000
00100000
00000000
00001000
00000000
,
00010000
00000000
00001000
00000000
00000100
00000000
00000000
00000010
00001000
00000000
00000001
00000000
00000010
00000000
00000100
00000000
,
00010000
00000000
00001000
00000000
00010000
00000000
00000000
00001000
01000000
00000000
00010000
00000000
00100000
00000000
01000000
00000000
,
00100000
00000000
00001000
00000000
00010000
00000000
00000000
00001000
00010000
00000000
00000010
00000000
00001000
00000000
00000001
00000000
,
00000010
00000100
00000010
00000000
00000001
00000000
00000001
00001000
00000000
00001000
00000010
00000000
00010000
00001000
00010000
00000000
,
00001000
00000000
01000000
00000000
00010000
00000000
00100000
01000000
00100000
00000000
01000000
00000000
10000000
00000000
00000000
00000000
,
00100000
00000000
01000000
00000000
00100000
00000000
00010000
00001000
00010000
00000000
00100000
00000000
01000000
00000000
00000000
00000000
,
00001000
00000000
00010000
00000000
00000100
00000000
00000010
00000001
00000010
00000000
00000100
00000000
00001000
00000000
00000000
00000000
,
00000001
00000000
00000100
00000000
00000010
00000000
00010000
00001000
00010000
00000000
00000100
00000000
00001000
00000000
00010000
00000000
,
00100000
00000000
01000000
00000000
00100000
00000000
00010000
10000000
00010000
00000000
01000000
00000000
00100000
00000000
00000000
00000000
,
00010000
00000000
00001000
00000000
00010000
00000000
00000010
00001000
00000010
00000000
00000100
00000000
00000001
00000000
00000000
00000000
,
00000010
00000000
00000100
00000000
00001000
00000000
00000100
00010000
00000100
00000000
00001000
00000000
00000100
00000000
00000000
00000000
,
00010000
00001000
00010000
00000000
00001000
00000000
00001000
01000000
00000000
01000000
00010000
00000000
10000000
00010000
10000000
00010000
,
20000000
00000000
00000000
00000000
,
30020000
00000000
00000000
00000000
,
00230000
00000000
00000000
00000000
,
00302000
00000000
00000000
00010000
,
00003200
00000000
00000000
00000010
,
00000302
00000000
00000000
00000100
,
00002003
00000000
00000000
00010000
,
00020000
00000000
00000000
00033000
,
00010000
00000000
01000000
00000000
00100000
00000000
10000000
00000000
00010000
00000000
00100000
01000000
00100000
00000000
00001000
00000000
,
00010000
00000000
00001000
00000000
00000100
00000000
00000010
00000000
00001000
00000000
00000001
00000010
00000001
00000000
00000010
00000000
,
00000100
00000000
00001000
00000000
00000100
00000000
00010000
00000000
00001000
00000000
01000000
00010000
01000000
00000000
00100000
00000000
,
10000000
00000000
00010000
00000000
00100000
00000000
01000000
00000000
00100000
00000000
00001000
00010000
00001000
00010000
00001000
00000000
,
00010000
00000000
00000100
00000000
00001000
00000000
00000010
00000000
00000100
00000000
00000001
00001000
00000001
00000000
00000010
00000000
,
00000100
00000000
00000010
00000000
00001000
00000000
00010000
00000000
00001000
00000000
01000000
00001000
01000000
00000000
00010000
00000000
,
10000000
00000000
01000000
00000000
00100000
00000000
00010000
00000000
01000000
00000000
00001000
00010000
00001000
00000000
00010000
00000000
,
00000100
00001000
00000100
00000000
00001000
00000000
00001000
00000010
00000000
00000010
00000100
00000000
00000001
00001000
00000001
00001000
,
00000001
00000010
00000100
00010000
00001000
00000100
00001000
00010000
,
00100000
10000000
00010000
00100000
01000000
00100000
00001000
00000000
,
00010000
00001000
00000100
00000001
00000100
00000010
00010000
00001000
,
00010000
00100000
01000000
00001000
00010000
00000100
00010000
00001000
,
00022000
00000000
00000000
00000000
,
00000000
00000000
00000000
00000000
,
00033000
00000000
00000000
00000000
;

//---------------dance-double - Kekkle-DDP----------------
#NOTES:
     dance-double:
     Kekkle:
     Medium:
     12:
     0.335235,0.456292,0.030675,0.191719,0,306,302,4,25,0,0,0.335235,0.456292,0.030675,0.191719,0,306,302,4,25,0,0:
00000000
00000000
00000000
00000000
,
00000000
00000000
00000000
00000000
,
10000000
01000000
00010000
00000000
01000000
00100000
00010000
00000000
,
10000000
00100000
01000000
00000000
00010000
00001000
00000001
00000000
,
00001000
00000001
00000100
00000000
00001000
00000100
00000001
00000000
,
00001000
00000010
00000100
00000000
00000001
00000100
00001000
00010000
,
00100000
10000000
01000000
00000000
00010000
01000000
10000000
00000000
,
00010000
00001000
00000001
00001000
00000010
00000010
00000100
00000100
,
00000001
00000100
00001000
00000000
00010000
00100000
10000000
00000000
,
10000000
01000000
00010000
00000000
00001000
00000010
00000001
00000000
,
00000001
00000100
00001000
00000000
00010000
01000000
10000000
00000000
,
10000000
00100000
00010000
00000000
00001000
00000010
00000001
00000000
,
00001001
00000000
00001000
00000000
00010000
00001000
00010000
00000000
,
10010000
00000000
10000000
00000000
00010000
00001000
00010000
00000000
,
00000010
00000100
00000010
00000100
00001000
00000001
00001000
00000001
,
00000100
00000010
00010000
00001000
01000000
00010000
10000000
00000000
,
20010000
00000000
00000000
00000000
,
30020000
00000000
00000000
00000000
,
00032000
00000000
00000000
00000000
,
00003002
00000000
00000000
00000000
,
00000203
00000000
00000000
00000000
,
00020300
00000000
00000000
00000000
,
00032000
00000000
00000000
00000000
,
00203000
00000000
00000000
00000000
,
20300000
00000000
00000000
00000000
,
30020000
00000000
00000000
00000000
,
00032000
00000000
00000000
00000000
,
00003002
00000000
00000000
00000000
,
00000203
00000000
00000000
00000000
,
00002300
00000000
00000000
00000000
,
02003000
00000000
00000000
00000000
,
00200000
00000000
00000000
03300000
,
00100000
10000000
00010000
00000000
00001000
00010000
00001000
00000000
,
00000001
00000010
00001000
00000000
00010000
00001000
00010000
00000000
,
00100000
10000000
00010000
00000000
00100000
00010000
10000000
00000000
,
01000000
00010000
00001000
00000010
00000001
00001000
00010000
00000000
,
00001000
00010000
00100000
00000000
00010000
10000000
01000000
00000000
,
00010000
00001000
00000010
00000000
00000001
00001000
00000010
00000000
,
00000100
00001000
00010000
00000000
01000000
00010000
00001000
00000000
,
00000010
00000001
00001000
00010000
00001000
00010000
10000000
00000000
,
01000000
00100000
00001000
00000010
00000100
00001000
00000001
00000000
,
00000100
00000010
00001000
00010000
01000000
10000000
01000000
00000000
,
00100000
00010000
00001000
00000100
00000001
00001000
00000001
00000000
,
00000100
00001000
01000000
00000000
00100000
00010000
00000010
00000000
,
00000100
00000001
00001000
00010000
00001000
00000010
00010000
00000000
,
00001000
01000000
10000000
01000000
00010000
10000000
00010000
00000000
,
00100000
01000000
10000000
00010000
00001000
00000100
00000001
00000000
,
00000100
00000010
00000100
00010000
00001000
01000000
00100000
00100000
,
20000000
00000000
00000000
00000000
,
30020000
00000000
00000000
00000000
,
00032000
00000000
00000000
00000000
,
00023000
00000000
00000000
00000000
,
00030200
00000000
00000000
00000000
,
00000302
00000000
00000000
00000000
,
00002003
00000000
00000000
00000000
,
00020000
00000000
00000000
00033000
,
00010000
01000000
10000000
01000000
00001000
00010000
00001000
00000100
,
00000001
00001000
00010000
00001000
00010000
10000000
01000000
00000000
,
00100000
00001000
00010000
00001000
00000100
00000001
00001000
00000001
,
00000100
00001000
00010000
10000000
01000000
00010000
10000000
00000000
,
01000000
00010000
00001000
00000010
00000001
00001000
00010000
00001000
,
00000010
00001000
00010000
01000000
00100000
10000000
00010000
00000000
,
00100000
01000000
00010000
00001000
00000010
00001000
00010000
01000000
,
10000000
00100000
01000000
00001000
00010000
00001000
00000100
00000000
,
00000001
00001000
00000001
00000000
00001000
00010000
00001000
00000000
,
00010000
10000000
00010000
00000000
10000000
00000000
10010000
00000000
,
00010000
00001000
00010000
00000000
00001000
00000001
00001000
00000000
,
00000001
00000010
00000001
00000000
00000010
00001000
00000010
00000000
,
00002000
00000000
00000000
00000000
,
00000000
00000000
00000000
00000000
,
00003000
00000000
00000000
00000000
;

//---------------dance-double - Kekkle-BDP----------------
#NOTES:
     dance-double:
     Kekkle:
     Easy:
     7:
     0.274980,0.375770,0,0.276076,0,251,251,0,36,0,0,0.274980,0.375770,0,0.276076,0,251,251,0,36,0,0:
00000000
00000000
00000000
00000000
,
00000000
00000000
00000000
00000000
,
10000000
20000000
00100000
30200000
,
01000000
02300000
00001000
03001000
,
00010000
00020000
00000010
00030020
,
00000100
00000230
00000001
00000301
,
00001000
00002000
00000100
00003200
,
00010000
00020300
00001000
00031000
,
01000000
00001000
01000000
00000000
00001000
01000000
00001000
00000000
,
01000000
00001000
01000000
00000000
00010000
01000000
00010000
01000000
,
00100000
01000000
00100000
00000000
01000000
00100000
01000000
00000000
,
00100000
01000000
00100000
00000000
01000000
00001000
01000000
00001000
,
00020000
00000000
00030000
00000000
00000010
00000100
00000010
00000100
,
00000020
00000000
00000030
00000000
00001000
00000001
00001000
00000001
,
00000100
00000010
00000100
00000000
00000010
00010000
00000010
00000000
,
00010000
00001000
00010000
00000000
00001000
01000000
00001000
00000000
,
02000000
00000000
00000000
03000000
,
00200000
00000000
00000000
00300000
,
20000000
00000000
00000000
30000000
,
00020000
00000000
00000000
00030000
,
00200000
00000000
00000000
00300000
,
00002000
00000000
00000000
00003000
,
00020000
00000000
00000000
00030000
,
00000020
00000000
00000000
00000030
,
00000200
00000000
00000000
00000300
,
00000002
00000000
00000000
00000003
,
00002000
00000000
00000000
00003000
,
00000200
00000000
00000000
00000300
,
00020000
00000000
00000000
00030000
,
00002000
00000000
00000000
00003000
,
02000000
00000000
00000000
03000000
,
00200000
00000000
00000000
00300000
,
10000000
00000000
00010000
00000000
10000000
01000000
10000000
00000000
,
01000000
00000000
00100000
00000000
00010000
00100000
00010000
00000000
,
00100000
00000000
00001000
00000000
00010000
00001000
00010000
00000000
,
00000010
00000000
00001000
00000010
00001000
00000010
00001000
00000000
,
00000001
00000000
00000010
00000000
00000100
00000010
00000100
00000000
,
00000010
00000000
00000100
00000000
00010000
00000100
00010000
00000000
,
00001000
00000000
00010000
00000000
00001000
01000000
00001000
00000000
,
01000000
00100000
01000000
00000000
00010000
10000000
00010000
00000000
,
10000000
00000000
01000000
00000000
00100000
00010000
00100000
00000000
,
00010000
00000000
00100000
00000000
00001000
00010000
00001000
00000000
,
00010000
00000000
00000010
00000000
00001000
00000001
00001000
00000000
,
00000001
00000000
00000010
00000000
00000100
00000010
00000100
00000000
,
00000010
00000000
00000001
00000000
00001000
00000100
00001000
00000000
,
00000100
00000000
00010000
00000000
00001000
00010000
00001000
00000000
,
01000000
00000000
00010000
00000000
10000000
00010000
10000000
00000000
,
01000000
00100000
01000000
00100000
01000000
00100000
00001000
00010000
,
00002000
00000000
00000000
00000000
,
00023000
00000000
00000000
00000000
,
00030020
00000000
00000000
00000000
,
00000230
00000000
00000000
00000000
,
00000302
00000000
00000000
00000000
,
00002003
00000000
00000000
00000000
,
00003200
00000000
00000000
00000000
,
00020300
00000000
00000000
00030000
,
00001000
00000000
01000000
00000000
00010000
00000000
10000000
00010000
,
10000000
00010000
10000000
00000000
01000000
00000000
00100000
00001000
,
00100000
00001000
00100000
00000000
00001000
00000000
00010000
00001000
,
00010000
00001000
00010000
00000000
00000010
00000000
00001000
00000010
,
00001000
00000010
00001000
00000000
00000001
00000000
00001000
00000100
,
00001000
00000100
00001000
00000000
00000100
00000000
00010000
00001000
,
00010000
00001000
00010000
00000000
00001000
00000000
01000000
00010000
,
01000000
00010000
01000000
00000000
00010000
00000000
10000000
00000000
,
01000000
00000000
00100000
00000000
01000000
00100000
01000000
00000000
,
10000000
00000000
00010000
01000000
00010000
01000000
00010000
00000000
,
00100000
00000000
00001000
00000000
00010000
00001000
00010000
00000000
,
00000010
00000000
00001000
00000001
00001000
00000001
00001000
00000001
,
00002000
00000000
00000000
00000000
,
00000000
00000000
00000000
00000000
,
00003000
00000000
00000000
00000000
;

//---------------dance-single - Kekkle-bSP----------------
#NOTES:
     dance-single:
     Kekkle:
     Beginner:
     3:
     0.136942,0.214726,0.046013,0.391107,0,125,119,6,51,0,0,0.136942,0.214726,0.046013,0.391107,0,125,119,6,51,0,0:
0000
0000
0000
0000
,
0000
0000
0000
0000
,
0002
0003
2000
3000
,
0002
0003
1000
0000
,
0020
0030
0200
0300
,
0020
0030
1000
0000
,
0002
0003
2000
3000
,
0002
0003
1000
0000
,
0010
0000
0110
0000
,
0100
0000
0110
0000
,
0001
0000
1001
0000
,
1000
0000
1001
0000
,
0110
0000
0100
0000
,
0110
0000
0010
0000
,
0100
0000
0001
0000
,
1000
0000
0001
0000
,
2000
0000
3000
0000
,
0002
0000
0003
0000
,
2000
0000
3000
0000
,
0020
0000
0030
0000
,
0200
0000
0300
0000
,
0002
0000
0003
0000
,
0200
0000
0300
0000
,
0002
0000
0003
0000
,
2000
0000
3000
0000
,
0200
0000
0300
0000
,
0020
0000
0030
0000
,
0002
0000
0003
0000
,
0020
0000
0030
0000
,
0200
0000
0300
0000
,
2000
0000
3000
0000
,
0002
0000
0003
0000
,
2000
3000
0001
0000
,
0200
0300
0010
0000
,
2000
3000
0001
0000
,
0020
0030
0100
0000
,
2000
3000
0001
0000
,
0200
0300
0010
0000
,
2000
3000
0100
0000
,
0020
0030
0001
0000
,
2000
3000
0010
0000
,
0200
0300
0001
0000
,
0020
0030
0100
0000
,
2000
3000
0001
0000
,
0200
0300
0010
0000
,
2000
3000
0001
0000
,
0200
0300
0010
0000
,
0200
0300
0001
0000
,
0020
0000
0030
0000
,
0002
0000
0003
0000
,
2000
0000
3000
0000
,
0020
0000
0030
0000
,
0200
0000
0300
0000
,
0002
0000
0003
0000
,
0020
0000
0030
0000
,
0200
0000
0300
0000
,
1000
0000
0001
1000
,
0001
0000
1000
0001
,
1000
0000
0001
1000
,
0001
0000
0100
0000
,
0010
0000
0100
0010
,
0100
0000
0010
0100
,
0010
0000
0100
0010
,
0100
0000
0001
0000
,
1000
0000
0001
0010
,
0001
0000
0010
0001
,
0010
0000
0001
1000
,
0001
0000
1000
0002
,
2000
0000
0000
0000
,
0000
0000
0000
0000
,
3003
0000
0000
0000
;
