#VERSION:0.83;
#TITLE:symbolic;
#ARTIST:TaQ;
#BANNER:symbolic.png;
#BACKGROUND:symbolic-bg.png;
#JACKET:symbolic-jacket.png;
#MUSIC:symbolic.ogg;
#OFFSET:1.165387;
#SAMPLESTART:93.286;
#SAMPLELENGTH:15;
#BPMS:0=155,88=77.5,90=155,94=77.5,96=155,100=77.5,102=155,106=77.5,108=155;
#TIMESIGNATURES:0=4=4,88=2=4,90=4=4,94=2=4,96=4=4,100=2=4,102=4=4,106=2=4,108=4=4;

//---------------dance-single - NewbStepper-ESP----------------
#NOTEDATA:;
#CHARTNAME:NewbStepper-ESP;
#STEPSTYPE:dance-single;
#DESCRIPTION:NewbStepper-ESP;
#DIFFICULTY:Hard;
#METER:14;
#RADARVALUES:0.703437,0.775893,0.716529,0.074986,0.208293,591,505,86,9,0,0,0,0,0,0.703437,0.775893,0.716529,0.074986,0.208293,591,505,86,9,0,0,0,0,0;
#CREDIT:NewbStepper;
#NOTES:
// measure 0
0000
0000
0000
0000
,  // measure 1
0000
0000
0000
0000
,  // measure 2
0000
0000
0000
0000
,  // measure 3
0000
0000
0000
0000
,  // measure 4
0000
0000
0000
0000
0000
0000
0001
1000
,  // measure 5
0100
0000
0011
0000
0001
0100
0110
1000
,  // measure 6
0001
0000
0011
0000
1100
0001
0010
0100
,  // measure 7
1000
0001
0100
0000
1010
0000
1000
0100
,  // measure 8
0110
0000
0001
0100
0110
1000
0001
0000
,  // measure 9
1000
0010
0110
0000
0101
0001
0010
1000
,  // measure 10
1010
0010
0001
0100
0100
0010
0110
1000
,  // measure 11
0001
0010
0110
0000
1100
1000
0010
0001
,  // measure 12
0011
0200
0000
0000
0000
0010
0000
0310
,  // measure 13
1001
0010
0101
0000
1000
0100
0001
0000
,  // measure 14
0100
1000
0010
0010
0100
0001
0110
0000
,  // measure 15
1001
0010
1100
0000
0001
0100
1000
0000
,  // measure 16
0100
0001
0010
0010
0100
1000
0010
0100
,  // measure 17
0000
0100
1001
0000
0100
1000
0010
0001
,  // measure 18
0010
1010
1000
0100
0101
0001
1000
0010
,  // measure 19
0001
0100
1010
0000
0100
0001
0010
1000
,  // measure 20
0010
0001
0101
0010
0110
0000
0001
1000
,  // measure 21
0020
1000
0000
1030
,  // measure 22
0200
1000
1000
1300
0020
0000
0001
0000
,  // measure 23
0000
0000
0031
0000
0200
0001
0001
0301
,  // measure 24
0000
0010
0101
0000
0010
1000
0100
0010
,  // measure 25
0002
1000
1000
1003
0000
0010
1100
0000
,  // measure 26
0001
0000
0100
0000
0010
0000
1000
0001
2000
0000
0000
0000
3000
0000
0000
0010
,  // measure 27
1000
0001
0000
0001
0100
0000
0000
0000
0010
1000
0000
1000
0100
0000
0000
0000
,  // measure 28
0010
0001
0000
0001
0100
0000
0000
0000
0001
1000
0000
1000
0100
0000
0000
0000
,  // measure 29
0010
0001
0000
0001
0100
0000
0000
0000
0010
1000
0000
1000
0100
0000
0000
0000
,  // measure 30
0001
0100
0000
0100
1000
0000
0000
0000
0010
0100
0000
0100
0010
0000
0000
0000
,  // measure 31
1000
0100
1100
0010
0001
0100
0101
0010
,  // measure 32
1000
0001
1001
0100
0001
1000
1001
0100
,  // measure 33
0001
0010
0011
0100
1000
0010
1010
0100
,  // measure 34
0001
0000
0000
0000
0000
0000
0000
0000
0000
0000
0000
0000
1000
0001
1000
0001
,  // measure 35
1000
0100
1100
0000
0001
0100
0101
0000
,  // measure 36
1000
0010
1010
0000
0001
0010
0011
0100
,  // measure 37
1000
0010
1010
0000
0001
0010
0011
0000
,  // measure 38
1000
0100
1100
0000
0001
0100
0101
0010
,  // measure 39
1001
0100
0001
0010
1001
0100
1000
0010
,  // measure 40
0110
0001
1000
0001
0010
1000
0010
0001
,  // measure 41
1001
0100
1000
0010
1001
0100
0001
0010
,  // measure 42
0001
0100
1000
0001
0010
1000
0001
0000
,  // measure 43
1000
0010
0101
0000
0000
0001
0110
0000
,  // measure 44
1000
0010
0110
0001
1000
0100
0001
0101
,  // measure 45
0000
1000
1100
0000
0010
0100
0110
0001
,  // measure 46
1001
1000
0100
0001
0100
0010
1001
0000
,  // measure 47
0001
0010
1100
0000
0000
1000
0110
0000
,  // measure 48
0001
0010
0110
1000
0001
0100
1000
1100
,  // measure 49
0000
0001
0101
0000
0010
0100
0110
1000
,  // measure 50
1001
0001
0100
1000
0100
0010
1000
1010
,  // measure 51
0010
0100
0101
0000
0010
0110
1001
0000
,  // measure 52
0021
0100
0000
0130
,  // measure 53
0010
0100
1100
0000
0010
0110
1001
0000
,  // measure 54
1020
0100
0000
0130
,  // measure 55
1000
0100
1100
0000
0000
0011
0000
0000
,  // measure 56
1000
0100
0010
0001
1000
0000
1001
0000
,  // measure 57
0010
0001
0100
0010
1000
0001
0010
0001
,  // measure 58
0100
0010
0000
0100
0010
0000
1000
0010
0000
1000
0010
0000
0100
0001
0000
0100
,  // measure 59
0001
0010
0110
1000
0010
0100
0001
0100
,  // measure 60
1001
0000
0010
0000
0100
0000
0001
0000
0010
0000
0100
0000
1000
0001
1000
0001
,  // measure 61
1000
0010
0110
0001
0010
0100
1000
0100
,  // measure 62
1001
0000
0010
0000
0100
0000
1000
0000
0010
0000
0100
0000
0001
1000
0001
1000
,  // measure 63
0001
0010
0011
0100
1000
1100
0010
0100
,  // measure 64
0110
0000
0001
0000
0100
0000
0010
0000
1000
0000
0100
0000
0010
0001
0010
0001
,  // measure 65
1000
1000
0100
0100
0010
0010
0001
0001
,  // measure 66
0000
1000
0100
0000
0010
0001
0000
0100
0010
0100
0010
1000
0010
1000
0010
1000
,  // measure 67
0010
1000
1001
0010
1000
0100
0001
0100
,  // measure 68
1000
0000
0010
0000
0010
0000
0100
0000
0101
0000
0010
0000
1000
0100
1000
0100
,  // measure 69
0010
0001
1001
0010
0001
0100
1000
0100
,  // measure 70
0001
0000
0010
0000
0010
0000
0100
0000
1100
0000
0010
0000
0001
0100
0001
0100
,  // measure 71
0010
1000
1001
0100
0001
0010
1000
0010
,  // measure 72
0001
0000
0100
0000
0100
0000
0010
0000
1010
0000
0100
0000
0001
0010
0001
0010
,  // measure 73
0100
0000
1000
0000
0010
0000
0001
0000
1000
0000
0100
0000
0001
0000
1000
0010
,  // measure 74
1000
0010
0100
0010
0100
0010
0100
0010
0100
0000
0000
0000
0000
0000
0000
0000
;

//---------------dance-single - NewbStepper-DSP----------------
#NOTEDATA:;
#CHARTNAME:NewbStepper-DSP;
#STEPSTYPE:dance-single;
#DESCRIPTION:NewbStepper-DSP;
#DIFFICULTY:Medium;
#METER:10;
#RADARVALUES:0.468958,0.527607,0.333269,0.199962,0,394,354,40,24,0,0,0,0,0,0.468958,0.527607,0.333269,0.199962,0,394,354,40,24,0,0,0,0,0;
#CREDIT:NewbStepper;
#NOTES:
// measure 0
0000
0000
0000
0000
,  // measure 1
0000
0000
0000
0000
,  // measure 2
0000
0000
0000
0000
,  // measure 3
0000
0000
0000
0000
,  // measure 4
0000
0000
0000
0000
0000
0000
1000
0010
,  // measure 5
1000
1100
0010
0001
,  // measure 6
0100
1000
0100
0001
0010
0000
1001
0000
,  // measure 7
0001
0010
0001
0000
0100
1000
0100
0000
,  // measure 8
0001
0010
0100
1000
0001
0000
1000
0010
,  // measure 9
0000
0010
0110
0000
1000
0100
1000
0000
,  // measure 10
0001
0100
0001
1000
0001
0010
0001
0000
,  // measure 11
1000
0010
0110
0000
0001
0100
0001
0000
,  // measure 12
1000
0200
0000
0000
0300
0010
0000
0010
,  // measure 13
0001
0100
1010
0000
0001
0100
0010
0000
,  // measure 14
1000
0100
0010
0001
0010
0100
1000
0000
,  // measure 15
0010
1001
0010
1001
,  // measure 16
0010
0001
0010
0100
0010
0000
0001
1000
,  // measure 17
0000
1000
0010
0000
1000
0100
0010
0000
,  // measure 18
0001
0100
0010
1000
0010
0100
0001
0000
,  // measure 19
0010
1001
0010
1001
,  // measure 20
0010
0010
0010
0010
,  // measure 21
0001
0101
0000
0000
,  // measure 22
2000
3200
0320
0032
1003
0000
1100
0000
,  // measure 23
0001
0100
0110
0000
0002
0203
0320
2030
,  // measure 24
3000
0001
0001
0000
1000
0010
1010
0000
,  // measure 25
0200
0302
0023
0230
0300
1000
1000
0000
,  // measure 26
0001
0010
0011
0000
2002
0000
3003
0000
,  // measure 27
0010
1000
0010
1000
,  // measure 28
0100
0001
0010
1000
,  // measure 29
0001
0100
0001
0000
1000
0100
1000
0000
,  // measure 30
0010
1000
0100
0010
0001
0000
1001
0000
,  // measure 31
0010
0001
0010
0001
,  // measure 32
0100
1000
0010
0001
,  // measure 33
1000
0100
1000
0000
0001
0100
0001
0000
,  // measure 34
0010
0000
0000
1001
,  // measure 35
0010
1100
0010
0101
,  // measure 36
0010
0000
1001
0000
0010
0100
0010
0000
,  // measure 37
0100
0011
0100
1010
,  // measure 38
0100
0000
1001
0000
0010
0100
0010
1000
,  // measure 39
0001
0100
1000
0000
0001
0010
1000
0000
,  // measure 40
0001
0100
1000
0100
0001
0000
1001
0000
,  // measure 41
1000
0100
0001
0000
1000
0010
0001
0000
,  // measure 42
1000
0100
0001
0100
1000
0000
1001
0000
,  // measure 43
0010
0000
0201
0000
0000
0010
0310
0000
,  // measure 44
1000
0000
0001
0000
1000
0010
1000
0000
,  // measure 45
0100
0000
1020
0000
0000
0100
0130
0000
,  // measure 46
1000
0000
0001
0000
1000
0001
1001
0000
,  // measure 47
0010
0000
1200
0000
0000
0010
0310
0000
,  // measure 48
0001
0000
1000
0000
0001
0010
0001
0000
,  // measure 49
0100
0000
0021
0000
0000
0100
0130
0000
,  // measure 50
0001
1000
0001
1000
0001
1000
0001
0100
,  // measure 51
0010
0020
0000
0030
,  // measure 52
1000
0000
0001
0000
,  // measure 53
0010
0020
0000
0030
,  // measure 54
0001
0000
1000
0000
,  // measure 55
0010
1000
0010
0000
0000
0000
0000
0000
,  // measure 56
0200
0000
0301
0000
,  // measure 57
0010
0001
0010
0001
1000
0010
1000
0010
,  // measure 58
0100
0001
0100
0001
0010
0000
1001
0000
,  // measure 59
1000
0100
0001
0000
0100
1000
0001
0000
,  // measure 60
1000
0000
0001
0000
0100
0010
0110
0000
,  // measure 61
0001
1000
0010
0000
0100
0001
0010
0000
,  // measure 62
0100
1000
0001
0100
0010
0000
1001
0000
,  // measure 63
0001
0100
1000
0000
0100
0001
1000
0000
,  // measure 64
0001
0000
1000
0000
0100
0010
0110
0000
,  // measure 65
1000
0001
0010
0000
0100
1000
0010
0000
,  // measure 66
0220
0000
0000
0330
,  // measure 67
0001
1000
0001
0010
0100
0000
1100
0000
,  // measure 68
0010
0001
0010
0000
0100
1000
0100
0000
,  // measure 69
1000
0001
1000
0010
0100
0000
0101
0000
,  // measure 70
0010
1000
0010
0000
0100
0001
0100
0000
,  // measure 71
0001
0010
1000
0000
0001
0000
0100
0000
,  // measure 72
1010
0000
0101
0000
0010
0010
0100
0000
,  // measure 73
0001
1000
0001
1000
0010
0100
0010
0100
,  // measure 74
0001
0010
0100
1000
1001
0000
0000
0000
;

//---------------dance-single - NewbStepper-BSP----------------
#NOTEDATA:;
#CHARTNAME:NewbStepper-BSP;
#STEPSTYPE:dance-single;
#DESCRIPTION:NewbStepper-BSP;
#DIFFICULTY:Easy;
#METER:6;
#RADARVALUES:0.248762,0.310357,0.099981,0.049990,0,209,197,12,6,0,0,0,0,0,0.248762,0.310357,0.099981,0.049990,0,209,197,12,6,0,0,0,0,0;
#CREDIT:NewbStepper;
#NOTES:
// measure 0
0000
0000
0000
0000
,  // measure 1
0000
0000
0000
0000
,  // measure 2
0000
0000
0000
0000
,  // measure 3
0000
0000
0000
0000
,  // measure 4
0000
0000
0000
0000
,  // measure 5
0001
0101
0000
0000
,  // measure 6
0010
1000
0100
0000
,  // measure 7
1000
1100
0000
0000
,  // measure 8
0010
0001
0100
0000
,  // measure 9
0000
1001
0000
0010
,  // measure 10
1000
0001
1000
0010
,  // measure 11
1000
1001
0000
0010
,  // measure 12
0002
0000
0000
0003
,  // measure 13
1000
0100
1000
0000
,  // measure 14
0100
0001
0100
0000
,  // measure 15
0001
0010
0001
0000
,  // measure 16
0010
1000
0010
0000
,  // measure 17
0000
0100
0010
0000
,  // measure 18
1000
0001
0010
0000
,  // measure 19
1000
0010
0001
0100
,  // measure 20
0010
1000
0001
0000
,  // measure 21
0100
0000
0000
0000
,  // measure 22
0010
0000
0100
0000
,  // measure 23
0000
0000
0010
0000
,  // measure 24
0100
0000
0001
0000
,  // measure 25
0010
0000
0100
0000
,  // measure 26
1000
0000
0020
0030
,  // measure 27
1000
0000
1000
0000
,  // measure 28
0001
0100
0010
1000
,  // measure 29
0001
0000
0001
0000
,  // measure 30
1000
0010
0100
0001
,  // measure 31
1000
0000
1000
0000
,  // measure 32
0001
0010
0100
1000
,  // measure 33
0001
0000
0001
0000
,  // measure 34
2000
0000
0000
3000
,  // measure 35
0001
0100
1000
0100
,  // measure 36
0001
0010
0100
0000
,  // measure 37
1000
0100
0001
0100
,  // measure 38
1000
0010
0100
0000
,  // measure 39
0001
0010
1000
0010
,  // measure 40
0001
0100
0010
0000
,  // measure 41
1000
0010
0001
0010
,  // measure 42
1000
0100
0010
0000
,  // measure 43
0001
0101
0000
0010
,  // measure 44
1000
0100
0001
0100
,  // measure 45
1000
1010
0000
0100
,  // measure 46
0001
0100
0010
1000
,  // measure 47
0001
0011
0000
0100
,  // measure 48
1000
0010
0001
0010
,  // measure 49
1000
1100
0000
0010
,  // measure 50
0001
1000
0001
1000
,  // measure 51
0010
0010
0010
0000
,  // measure 52
0200
0000
0300
0000
,  // measure 53
0001
0001
0001
0000
,  // measure 54
0200
0000
0300
0000
,  // measure 55
1000
1000
1000
0000
,  // measure 56
0200
0000
0300
0000
,  // measure 57
0001
0000
0100
0000
,  // measure 58
0010
0000
1000
0000
,  // measure 59
0001
0100
0010
1000
,  // measure 60
0001
0000
1001
0000
,  // measure 61
1000
0100
0010
0001
,  // measure 62
1000
0000
1001
0000
,  // measure 63
0001
0010
0100
1000
,  // measure 64
0001
0000
1001
0000
,  // measure 65
1000
0010
0100
0001
,  // measure 66
1000
0000
1001
0000
,  // measure 67
0010
0001
0010
0000
,  // measure 68
0100
1000
0100
0000
,  // measure 69
1000
0010
1000
0010
,  // measure 70
0100
0001
0100
0000
,  // measure 71
0010
1000
0010
0000
,  // measure 72
0100
0001
0100
0000
,  // measure 73
0001
0010
0001
0010
,  // measure 74
0100
1000
0100
0000
;

//---------------dance-single - NewbStepper-bSP----------------
#NOTEDATA:;
#CHARTNAME:NewbStepper-bSP;
#STEPSTYPE:dance-single;
#DESCRIPTION:NewbStepper-bSP;
#DIFFICULTY:Beginner;
#METER:2;
#RADARVALUES:0.110693,0.155179,0.024995,0.016663,0,93,90,3,2,0,0,0,0,0,0.110693,0.155179,0.024995,0.016663,0,93,90,3,2,0,0,0,0,0;
#CREDIT:NewbStepper;
#NOTES:
// measure 0
0000
0000
0000
0000
,  // measure 1
0000
0000
0000
0000
,  // measure 2
0000
0000
0000
0000
,  // measure 3
0000
0000
0000
0000
,  // measure 4
0000
0000
0000
0000
,  // measure 5
1000
0000
0000
0000
,  // measure 6
0000
0000
0000
0000
,  // measure 7
1000
0000
0000
0000
,  // measure 8
0000
0000
0000
0000
,  // measure 9
0001
0000
0000
0000
,  // measure 10
0000
0000
0000
0000
,  // measure 11
0001
0000
0000
0000
,  // measure 12
0000
0000
0000
0000
,  // measure 13
0100
0000
0000
0000
,  // measure 14
0100
0000
0000
0000
,  // measure 15
0100
0000
0000
0000
,  // measure 16
0100
0000
0000
0000
,  // measure 17
0010
0000
0000
0000
,  // measure 18
0010
0000
0000
0000
,  // measure 19
0010
0000
0000
0000
,  // measure 20
0010
0000
0000
0000
,  // measure 21
1000
0000
0001
0000
,  // measure 22
1000
0000
0001
0000
,  // measure 23
1000
0000
0001
0000
,  // measure 24
1000
0000
0001
0000
,  // measure 25
1000
0000
0001
0000
,  // measure 26
1000
0000
0001
0000
,  // measure 27
1000
0000
1000
0000
,  // measure 28
0001
0000
0001
0000
,  // measure 29
0100
0000
0100
0000
,  // measure 30
0010
0000
0010
0000
,  // measure 31
1000
0000
1000
0000
,  // measure 32
0001
0000
0001
0000
,  // measure 33
0010
0000
0010
0000
,  // measure 34
0100
0000
0100
0000
,  // measure 35
1000
0000
0000
0000
,  // measure 36
0001
0000
0000
0000
,  // measure 37
1000
0000
0000
0000
,  // measure 38
0001
0000
0000
0000
,  // measure 39
0010
0000
0000
0000
,  // measure 40
0100
0000
0000
0000
,  // measure 41
0010
0000
0000
0000
,  // measure 42
0100
0000
0000
0000
,  // measure 43
0001
0000
0000
0000
,  // measure 44
1000
0000
0000
0000
,  // measure 45
0001
0000
0000
0000
,  // measure 46
1000
0000
0000
0000
,  // measure 47
1001
0000
0000
0000
,  // measure 48
0000
0000
0000
0000
,  // measure 49
1001
0000
0000
0000
,  // measure 50
0000
0000
0000
0000
,  // measure 51
0010
0000
1000
0000
,  // measure 52
0010
0000
0000
0000
,  // measure 53
0100
0000
0001
0000
,  // measure 54
0100
0000
0000
0000
,  // measure 55
0001
0000
1000
0000
,  // measure 56
0001
0000
0000
0000
,  // measure 57
0100
0000
0010
0000
,  // measure 58
0100
0000
0000
0000
,  // measure 59
0001
0000
0000
0000
,  // measure 60
0001
0000
0001
0000
,  // measure 61
1000
0000
0000
0000
,  // measure 62
1000
0000
1000
0000
,  // measure 63
0010
0000
0000
0000
,  // measure 64
0010
0000
0010
0000
,  // measure 65
0100
0000
0000
0000
,  // measure 66
0220
0000
0330
0000
,  // measure 67
0001
0000
1000
0000
,  // measure 68
0001
0000
0000
0000
,  // measure 69
1000
0000
0010
0000
,  // measure 70
1000
0000
0000
0000
,  // measure 71
0001
0000
0010
0000
,  // measure 72
0001
0000
0000
0000
,  // measure 73
0100
0000
0010
0000
,  // measure 74
0100
0000
0010
0000
;

//---------------dance-double - NewbStepper-EDP----------------
#NOTEDATA:;
#CHARTNAME:NewbStepper-EDP;
#STEPSTYPE:dance-double;
#DESCRIPTION:NewbStepper-EDP;
#DIFFICULTY:Hard;
#METER:13;
#RADARVALUES:0.577270,0.775893,0.324938,0.124976,0.087483,485,446,39,15,0,0,0,0,0,0.577270,0.775893,0.324938,0.124976,0.087483,485,446,39,15,0,0,0,0,0;
#CREDIT:NewbStepper;
#NOTES:
00000000
00000000
00000000
00000000
,
00000000
00000000
00000000
00000000
,
00000000
00000000
00000000
00000000
,
00000000
00000000
00000000
00000000
,
00000000
00000000
00000000
00000000
00000000
00000000
00010000
10000000
,
01000000
00000000
00110000
00000000
10000000
01000000
00010000
00001000
,
00000010
00001000
00010000
00000000
00011000
00000000
00000100
00000000
,
00001000
00000001
00000100
00000000
00001010
00000000
00000001
00000100
,
00001000
00010000
01000000
00010000
00001000
00000000
00100000
00010000
,
00000000
00001000
00001100
00000000
00000010
00000001
00000100
00010000
,
00001000
00000010
00000100
00001000
00010000
00100000
10000000
01000000
,
00010000
00001000
00100000
00000000
01000000
00100000
01100000
00000000
,
10010000
00000000
00000000
00000000
00000000
00100000
00000000
00100000
,
01000000
00010000
00011000
00000000
00000010
00000001
00000100
00000000
,
00000010
00001000
00010000
01000000
00100000
00010000
00001000
00010000
,
00100000
10000000
01000000
00000000
00010000
00001000
00100000
00000000
,
01000000
00010000
01000000
00001000
00000100
00000010
00000100
00010000
,
00000000
00001000
00011000
00000000
00100000
10000000
01000000
00000000
,
00100000
00010000
00001000
00000100
00000010
00001000
00010000
00001000
,
00000010
00000001
00000100
00000000
00001000
00010000
00000010
00000000
,
00001000
00000000
00010000
00000000
10000000
00000000
00010000
10000000
,
00200000
01000000
00000000
01300000
,
10000000
00010000
00001000
00000001
00000020
00000000
00000100
00000000
,
00000000
00000000
00000130
00000000
00000001
00001000
00010000
10000000
,
00000000
01000000
01100000
00000000
10000000
01000000
00010000
00000000
,
00002000
00000010
00000010
00003010
00000000
00000100
00000110
00000000
,
00000001
00000100
00001000
00010000
00200000
00000000
00300000
00000000
,
10010000
00000100
10010000
00000100
,
10010000
00000100
00000001
00001000
,
00001001
01000000
00001001
01000000
,
00001001
01000000
10000000
00010000
,
00120000
01030000
00002010
00003100
,
00120000
01030000
00001000
00010000
,
00000100
00000001
00000100
00001000
,
00000020
00000000
00000000
00000030
,
00001000
00000100
00010000
00000010
00010000
00000100
00001000
00000000
,
00000001
00000100
00001000
00000100
00000001
00001000
00000100
00000000
,
00010000
00001000
00000010
00001000
00100000
00010000
10000000
00000000
,
00010000
01000000
00001000
00010000
00100000
01000000
00010000
00000000
,
10000000
00100000
00010000
00000010
00001000
00000100
00010000
00001000
,
00000100
00000001
00000010
00001000
00010000
00100000
10000000
00000000
,
00010000
01000000
00001000
00100000
00001000
01000000
00010000
00000000
,
10000000
01000000
00010000
01000000
10000000
00010000
01000000
00000000
,
00001000
00010000
00100000
00010000
00000010
00001000
00000001
00000000
,
00000110
00001000
00010000
00100000
,
10000000
00100000
01100000
00000000
10000000
01000000
00010000
00001000
,
00011000
00000010
00000100
00000010
00001000
00000001
00000101
00000000
,
00000001
00000010
00000110
00000000
00000001
00000100
00001000
00010000
,
00011000
00100000
01000000
00100000
00010000
10000000
11000000
00000000
,
00010000
00001000
00011000
00000000
00100000
01000000
00100000
00001000
,
00000010
00000100
00000010
00010000
00100000
01000000
00100000
00010000
,
00002000
00010000
00000000
00003010
,
00000220
00000000
00000000
00000330
,
00001000
00000001
00000100
00000000
00001000
00100000
00010000
00000000
,
02200000
00000000
00000000
03300000
,
00010000
10000000
01000000
00000000
00010000
00000010
00001000
00000000
,
00000220
00000000
00000000
00000330
,
00001000
00000001
00000100
00001000
00010000
00001000
01000000
10000000
,
01000000
00010000
00100000
00001000
00010000
00000100
00000001
00000100
,
00010000
00001000
00011000
00000000
00100000
10000000
01000000
00010000
,
00011000
00000000
00001000
00000000
00000010
00000000
00001000
00000000
00010000
00000000
00001000
00000000
00000100
00000000
00000010
00010000
,
00001000
00010000
00011000
00000000
00000010
00000001
00000100
00001000
,
00011000
00000000
00010000
00000000
00100000
00000000
00010000
00000000
00001000
00000000
00010000
00000000
01000000
00000000
00100000
00001000
,
00010000
00001000
00011000
00000000
00000010
00000001
00000100
00000001
,
00000010
00000000
00001000
00000000
00010000
00000000
00100000
00000000
10000000
00000000
01000000
00000000
10000000
00010000
10000000
00010000
,
10000000
01000000
00100000
00010000
00001000
00000100
00000010
00000001
,
00000000
00001000
00000010
00000000
00000100
00000001
00000000
00001000
00000100
00000000
00010000
00001000
00010000
00001000
00100000
00001000
,
00010000
00001000
00011000
00100000
00010000
01000000
10000000
01000000
,
00010000
00000000
00100000
00000000
00001000
00000000
00010000
00000000
01000000
00000000
00100000
00000000
00001000
00010000
00001000
00010000
,
00001000
00010000
00011000
00000010
00001000
00000100
00000001
00000100
,
00001000
00000000
00000010
00000000
00010000
00000000
00001000
00000000
00000100
00000000
00000010
00000000
00010000
00001000
00010000
00001000
,
00010000
00001000
00011000
01000000
00100000
10000000
00100000
00010000
,
10000000
00000000
01000000
00000000
00010000
00000000
00100000
00000000
01000000
00000000
00010000
00000000
00001000
00010000
00001000
00010000
,
00001000
00000000
00010000
00000000
00011000
00000000
00000100
00000000
00000010
00000000
00000001
00000000
00000100
00000000
00001000
00010000
,
00001000
00010000
00001000
00010000
00001000
00010000
00001000
00010000
00001000
00000000
00000000
00000000
00000000
00000000
00000000
00000000
;

//---------------dance-double - NewbStepper-DDP----------------
#NOTEDATA:;
#CHARTNAME:NewbStepper-DDP;
#STEPSTYPE:dance-double;
#DESCRIPTION:NewbStepper-DDP;
#DIFFICULTY:Medium;
#METER:10;
#RADARVALUES:0.448724,0.527607,0.224957,0.199962,0,377,350,27,24,0,0,0,0,0,0.448724,0.527607,0.224957,0.199962,0,377,350,27,24,0,0,0,0,0;
#CREDIT:NewbStepper;
#NOTES:
00000000
00000000
00000000
00000000
,
00000000
00000000
00000000
00000000
,
00000000
00000000
00000000
00000000
,
00000000
00000000
00000000
00000000
,
00000000
00000000
00000000
00000000
00000000
00000000
00010000
00100000
,
00010000
01010000
00100000
10000000
,
01000000
00100000
01000000
00010000
00001000
00000000
00000010
00000000
,
00000001
00000010
00000001
00000000
00000100
00001000
00000100
00000000
,
00000010
00010000
00001000
01000000
00010000
00000000
10000000
00100000
,
00000000
00100000
01100000
00000000
10000000
00100000
10000000
00000000
,
01000000
00010000
00001000
00010000
00001000
00000010
00000001
00000000
,
00001000
00000010
00000100
00000000
00000001
00000100
00000001
00000000
,
00000010
00002000
00000000
00000000
00003000
00010000
00000000
00010000
,
00001000
01000000
01100000
00000000
10000000
01000000
00010000
00000000
,
00001000
00100000
00010000
00100000
00001000
00100000
00010000
00000000
,
00001000
00001100
00000001
00000101
,
00000010
00010000
00001000
00010000
00000010
00000000
00000100
00001000
,
00000000
00001000
00000100
00000000
00000001
00000100
00001000
00000000
,
00010000
00000010
00001000
00000010
00010000
00000010
00001000
00000000
,
00010000
01010000
10000000
11000000
,
00100000
00100000
00100000
00100000
,
00010000
01010000
00000000
00000000
,
00002000
00003200
00000320
00000032
00001003
00000000
00001100
00000000
,
00000000
00000001
00001000
00000000
00020000
02030000
03200000
20300000
,
30000000
00010000
00010000
00000000
10000000
00100000
00010000
00000000
,
00002000
00003200
00000302
00000023
00000030
00001000
00001000
00000000
,
00010000
00001000
00011000
00000000
00022000
00000000
00033000
00000000
,
00100000
10000000
00100000
10000000
,
01000000
00010000
00001000
00000100
,
00000001
00000100
00000001
00000000
00001000
00000100
00001000
00000000
,
00000010
00010000
00001000
00000100
00000010
00000000
00001001
00000000
,
00000010
00000001
00000010
00000001
,
00000100
00001000
00010000
01000000
,
10000000
01000000
10000000
00000000
00010000
01000000
00010000
00000000
,
00100000
00000000
00000000
00000000
,
00100000
11000000
00100000
01010000
,
00001000
00000000
00011000
00000000
00000100
00000010
00000100
00000000
,
00000010
00000101
00000010
00001100
,
00010000
00000000
00011000
00000000
01000000
00100000
01000000
00000000
,
10000000
00100000
00010000
00000000
00001000
00000010
00000001
00000000
,
00000001
00000100
00001000
00000100
00000001
00000000
00001001
00000000
,
00000001
00000010
00001000
00000000
00010000
00100000
10000000
00000000
,
00010000
01000000
10000000
01000000
00010000
00000000
10010000
00000000
,
00100000
00000000
20000000
00000000
00000000
01000000
31000000
00000000
,
00010000
00000000
00001000
00000000
00000010
00000100
00000010
00000000
,
00000010
00000000
00000002
00000000
00000000
00000100
00000103
00000000
,
00001000
00000000
00010000
00000000
01000000
00100000
01000000
00000000
,
01000000
00000000
20000000
00000000
00000000
00100000
30100000
00000000
,
00010000
00000000
00001000
00000000
00000100
00000010
00000100
00000000
,
00000100
00000000
00000002
00000000
00000000
00000010
00000013
00000000
,
00000001
00001000
00000001
00001000
00000001
00001000
00000001
00000100
,
00000010
00000020
00000000
00000030
,
00001000
00000000
00010000
00000000
,
00100000
00200000
00000000
00300000
,
00010000
00000000
00001000
00000000
,
00000010
00000100
00000010
00000000
00000000
00000000
00000000
00000000
,
00002000
00000000
00003001
00000000
,
00000100
00000010
00000100
00000010
00010000
00001000
00010000
00001000
,
00100000
00010000
00100000
00010000
01000000
00000000
10010000
00000000
,
10000000
01000000
00010000
00000000
01000000
10000000
00010000
00000000
,
00100000
00000000
00001000
00000000
00010000
00001000
00000010
00000000
,
00000001
00000100
00001000
00000000
00000100
00000001
00001000
00000000
,
00000010
00000000
00010000
00000000
00001000
00010000
00100000
00000000
,
10000000
00100000
00010000
00000000
00100000
10000000
00010000
00000000
,
01000000
00000000
00001000
00000000
00010000
00001000
00000100
00000000
,
00000001
00000010
00001000
00000000
00000010
00000001
00001000
00000000
,
00000220
00000000
00000000
00000330
,
00000001
00001000
00000001
00000100
00001000
00000000
00011000
00000000
,
00100000
00010000
00100000
00000000
01000000
10000000
01000000
00000000
,
10000000
00010000
10000000
01000000
00010000
00000000
00011000
00000000
,
00000010
00001000
00000010
00000000
00000100
00000001
00000100
00000000
,
00000001
00000010
00001000
00000000
00010000
00000000
01000000
00000000
,
10100000
00000000
01010000
00000000
00100000
00100000
01000000
00000000
,
00010000
10000000
00100000
10000000
00010000
00100000
00001000
00010000
,
00000100
00001000
00000010
00000100
00001001
00000000
00000000
00000000
;

//---------------dance-double - NewbStepper-BDP----------------
#NOTEDATA:;
#CHARTNAME:NewbStepper-BDP;
#STEPSTYPE:dance-double;
#DESCRIPTION:NewbStepper-BDP;
#DIFFICULTY:Easy;
#METER:6;
#RADARVALUES:0.248762,0.310357,0.099981,0.049990,0,209,197,12,6,0,0,0,0,0,0.248762,0.310357,0.099981,0.049990,0,209,197,12,6,0,0,0,0,0;
#CREDIT:NewbStepper;
#NOTES:
00000000
00000000
00000000
00000000
,
00000000
00000000
00000000
00000000
,
00000000
00000000
00000000
00000000
,
00000000
00000000
00000000
00000000
,
00000000
00000000
00000000
00000000
,
00001000
00001100
00000000
00000000
,
00000010
00000001
00000100
00000000
,
00010000
01010000
00000000
00000000
,
00100000
10000000
01000000
00000000
,
00000000
10010000
00000000
00100000
,
10000000
00010000
00100000
00001000
,
00010000
00011000
00000000
00000010
,
00000002
00000000
00000000
00000003
,
00001000
00000100
00001000
00000000
,
00000100
00010000
00000100
00000000
,
00010000
00001000
00010000
00000000
,
00100000
01000000
00100000
00000000
,
10000000
01000000
00000000
00000000
,
10000000
00010000
00100000
00000000
,
00001000
00010000
00000010
00001000
,
00000001
00000100
00001000
00000000
,
01000000
00000000
00000000
00000000
,
00100000
00000000
01000000
00000000
,
00000000
00000000
00000010
00000000
,
00000100
00000000
00000001
00000000
,
00000010
00000000
00000100
00000000
,
00010000
00000000
00002000
00003000
,
00010000
00000000
00010000
00000000
,
00100000
10000000
01000000
00010000
,
00001000
00000000
00001000
00000000
,
00000010
00000001
00000100
00001000
,
00010000
00000000
00010000
00000000
,
01000000
10000000
00100000
00010000
,
00001000
00000000
00001000
00000000
,
00000020
00000000
00000000
00000030
,
00000001
00000100
00001000
00010000
,
00001000
00010000
01000000
00000000
,
10000000
01000000
00010000
00001000
,
00010000
00001000
00000100
00000000
,
00000001
00000010
00001000
00010000
,
00001000
00010000
00100000
00000000
,
10000000
00100000
00010000
00001000
,
00010000
00001000
00000010
00000000
,
00000001
00000101
00000000
00000010
,
00010000
00001000
00010000
00100000
,
10000000
11000000
00000000
00100000
,
00001000
00010000
00001000
00000100
,
00000001
00000011
00000000
00000100
,
00010000
00001000
00010000
01000000
,
10000000
10100000
00000000
01000000
,
00001000
00010000
00001000
00000100
,
00000001
00000001
00000001
00000000
,
00002000
00000000
00003000
00000000
,
00000100
00000100
00000100
00000000
,
00020000
00000000
00030000
00000000
,
00001000
00001000
00001000
00000000
,
00200000
00000000
00300000
00000000
,
00010000
00000000
01000000
00000000
,
00100000
00000000
10000000
00000000
,
00010000
01000000
00100000
10000000
,
00010000
00000000
00011000
00000000
,
00001000
00000100
00000010
00000001
,
00001000
00000000
00011000
00000000
,
00010000
00100000
01000000
10000000
,
00010000
00000000
00011000
00000000
,
00001000
00000010
00000100
00000001
,
00001000
00000000
00011000
00000000
,
00100000
00010000
00100000
00000000
,
01000000
10000000
01000000
00000000
,
10000000
00100000
01000000
00010000
,
00100000
00001000
00010000
00000000
,
00000010
00001000
00000010
00000000
,
00000100
00000001
00000100
00000000
,
00000001
00000010
00000100
00001000
,
00000010
00010000
00001000
00000000
;
