#TITLE:squall;
#ARTIST:猫叉Master+;
#ARTISTTRANSLIT:Nekomata Master+;
#BANNER:squall.png;
#BACKGROUND:squall-bg.png;
#MUSIC:squall.ogg;
#OFFSET:-3.818;
#SAMPLESTART:82.134;
#SAMPLELENGTH:15;
#BPMS:0=190,24=95,40=190;

//---------------dance-single - Nitrospan-bSP----------------
#NOTES:
     dance-single:
     Nitrospan:
     Beginner:
     4:
     :
0000
0000
0000
0000
,
0010
0000
0010
0000
,
0100
0000
0100
0000
,
0000
0000
0001
0000
,
0001
0000
0001
0000
,
1001
0000
0000
0000
,
0100
0000
0010
0000
,
1000
0000
0001
0000
,
0010
0000
0100
0000
,
1000
0000
0001
0000
,
1001
0000
0000
0000
,
0100
0000
0100
0000
,
0010
0000
0000
0000
,
1000
0000
1000
0000
,
0001
0000
0000
0000
,
0010
0000
0010
0000
,
0100
0000
1000
0000
,
0010
0000
0100
0000
,
1001
0000
0100
0000
,
0010
0000
1000
0000
,
0001
0000
0001
0000
,
0000
0000
0010
0000
,
0100
0000
0100
0000
,
0000
0000
1000
0000
,
0001
0000
0001
0000
,
0000
0000
0000
0000
,
1001
0000
0100
0000
,
0010
0000
1000
0000
,
0100
0000
0100
0000
,
0000
0000
0010
0000
,
0001
0000
0100
0000
,
0010
0000
1000
0000
,
0001
0001
0000
0000
,
0000
0000
0000
0000
,
1001
0000
0000
0000
,
0100
0000
0010
0000
,
0110
0000
0000
0000
,
1000
0000
0100
0000
,
0110
0000
0000
0000
,
0001
0000
1000
0000
,
1001
0000
0000
0000
,
0100
0000
0010
0000
,
0110
0000
0000
0000
,
0000
0000
0000
0000
,
1001
0000
0000
0000
,
0000
0000
0000
0000
,
0110
0000
0000
0000
,
0000
0000
0000
0000
,
1001
0000
0000
0000
,
0000
0000
0000
0000
,
0110
0000
0000
0000
,
1000
0000
0000
0000
,
0010
0000
0000
0000
,
0100
0000
0000
0000
,
0001
0000
0000
0000
,
0010
0000
0000
0000
,
0100
0000
0000
0000
,
1000
0000
0000
0000
,
0001
0000
0000
0000
,
1001
0000
0100
0000
,
0010
0000
0010
0010
,
0010
0000
0001
0000
,
0100
0000
0010
0010
,
0010
0000
1000
0000
,
0100
0000
0010
0010
,
0010
0000
0001
0000
,
1000
0000
0000
0000
,
1001
0000
0010
0000
,
1000
0000
0100
0100
,
0100
0000
0010
0000
,
0001
0000
0100
0100
,
0100
0000
0010
0000
,
1000
0000
0100
0100
,
0100
0000
0010
0000
,
0001
0000
0000
0000
,
1001
0000
0000
0000
,
0010
0000
0000
0000
,
0100
0000
0000
0000
,
0001
0000
0000
0000
,
1000
0000
1000
0000
,
1000
0000
0000
0000
,
0001
0000
0001
0000
,
0001
0000
1001
0000
;

//---------------dance-single - Nitrospan-BSP----------------
#NOTES:
     dance-single:
     Nitrospan:
     Easy:
     6:
     :
0000
0000
0000
0000
,
0001
0000
0100
0000
,
0010
0000
1000
0000
,
0100
0000
0010
0000
,
0001
0000
1000
0000
,
0010
0000
0000
0000
0100
0000
0000
0000
0001
0000
0000
0000
,
1000
0001
0100
0010
,
1000
0001
0010
0100
,
1000
0001
0100
0010
,
1000
0001
2002
3003
,
0001
0100
0010
1000
,
0001
0010
0100
1000
,
0000
1000
0100
0010
,
0001
1000
0010
0100
,
0000
0100
0001
0010
,
1000
0010
0001
0100
,
0010
0010
1000
0001
,
0010
0100
1000
0001
,
0200
0300
0020
0030
,
2000
3000
0002
0003
,
0020
0030
0020
0000
,
0030
0000
0100
0000
,
0020
0030
0200
0300
,
0000
0000
1000
0000
,
0002
0003
0200
0300
,
0000
0010
1000
0001
,
0020
0030
0200
0300
,
2000
3000
0002
0003
,
0200
0300
0200
0000
,
0300
0000
0010
0000
,
2000
3000
2000
3000
,
0002
0003
0020
0030
,
0001
0001
0000
0000
,
0100
0010
1000
0001
,
0010
0000
0000
0010
0000
0000
0000
0000
,
0100
1000
0010
0000
,
0100
0000
0000
0100
0000
0000
0000
0000
,
0001
0010
0001
1000
,
0100
0000
0000
0100
0000
0000
0000
0000
,
1000
0010
0200
0300
,
0001
0000
0000
0001
0000
0000
0000
0000
,
0010
0100
1000
0001
,
0100
0000
0000
0110
0000
0000
0000
0000
,
0000
0000
0000
0001
,
1000
0000
0000
1001
0000
0000
0000
0000
,
0000
0000
0100
0010
,
0001
0000
0000
0011
0000
0000
0000
0000
,
0000
0000
0000
0001
,
1000
0000
0000
1100
0000
0000
0000
0000
,
0000
1000
0001
0100
,
0010
0000
0000
0000
1000
0000
0000
0000
0001
0000
0000
0000
,
0010
0000
0000
0100
0000
0000
0010
0000
,
0000
0001
0000
1000
,
0010
0000
0000
0100
0000
0000
0010
0000
,
0000
1000
0100
0010
,
0001
0000
0000
0001
0000
0000
1000
0000
,
0000
0100
0000
0010
,
0001
0000
0000
1000
0000
0000
0001
0000
,
0200
0000
0000
0300
,
0001
0000
0000
1000
0000
0000
0001
0000
,
0000
0100
0100
0010
,
1000
0000
0000
0001
0000
0000
1000
0000
,
0000
0100
0100
0010
,
0001
0000
0000
0100
0000
0000
0001
0000
,
0000
0100
0100
0010
,
1000
0000
0000
0100
0000
0000
1000
0000
,
0000
1000
0010
0100
,
0001
0000
0000
1000
0000
0000
0001
0000
,
0000
0100
0100
0010
,
1000
0000
0000
0001
0000
0000
1000
0000
,
0000
0100
0010
0001
,
1000
0000
0000
0010
0000
0000
1000
0000
,
0000
0100
0010
0001
,
0010
0000
0000
0001
0000
0000
0010
0000
,
0001
0100
0010
1000
,
0100
0000
0001
0000
,
0100
0000
0010
0000
,
0000
0000
0001
0000
,
0100
0000
0010
1000
,
0001
0100
0010
0100
,
0001
0100
1000
0100
,
0000
0010
1000
0100
,
0010
0001
0100
0010
;

//---------------dance-single - Nitrospan-DSP----------------
#NOTES:
     dance-single:
     Nitrospan:
     Medium:
     10:
     :
0000
0000
0000
0000
,
0100
0001
1000
0010
,
0100
0000
0010
0000
1000
0001
0010
0000
,
0000
0100
1000
0010
,
0100
0000
0001
0000
1000
0100
1000
0000
,
0001
0000
0000
0000
0010
0000
0000
0000
0100
0000
1000
0000
,
0001
0000
0000
0010
0000
0000
0001
0000
0000
0000
1000
0000
1010
0000
0000
0000
,
0010
0000
0000
0100
0000
0000
0010
0000
0000
0000
1000
0000
1001
0000
0000
0000
,
0001
0000
0000
0010
0000
0000
0100
0000
0000
0000
1000
0000
1001
0000
0001
0000
,
0100
0000
0000
0000
0000
0000
0000
0000
0000
0010
0000
0000
0000
0000
0000
0000
0000
0000
1000
0000
0000
0000
0000
0000
0001
0000
0000
0000
1000
0000
0000
0000
0001
0000
0000
0000
2000
0000
0000
0000
0000
0000
0000
0000
0000
0000
0000
0000
,
3001
0000
0100
0000
0010
1000
0001
0000
,
0010
0000
0100
0000
1000
0001
1000
0001
,
0000
0000
0100
0000
0010
1000
0001
0000
,
0010
0000
0100
0000
1000
0001
0100
0010
,
0000
0000
1000
0000
0001
0010
0100
0000
,
1000
0000
0001
0000
0100
0010
1000
0000
,
0001
0010
0100
0000
1000
0010
0100
0000
,
0001
0000
0100
0010
1000
0001
0100
0000
,
0001
0000
0000
0000
0010
0000
1000
0000
0000
0000
0010
0000
,
0001
0000
0000
0000
0000
0000
0000
0000
0010
0000
0000
0000
1000
0000
0000
0000
0000
0000
0000
0000
0000
0010
0000
0000
,
0001
0000
0000
0001
0100
0000
0000
0000
,
0000
0000
0000
0000
0010
0000
1000
0001
,
0010
0000
0000
0100
1000
0000
0000
0000
,
0010
0000
0100
0001
0100
0000
0000
0010
,
1000
0000
0000
0001
0010
0000
0000
0000
,
0000
0100
1000
0000
0001
0010
0000
0000
,
0001
0000
0000
0000
0100
0000
1000
0000
0000
0000
0100
0000
,
0001
0000
0000
0000
0000
0000
0000
0000
0100
0000
0000
0000
1000
0000
0000
0000
0000
0000
0000
0000
0000
0100
0000
0000
,
0001
0000
0000
0001
1000
0000
0100
0000
,
0000
0100
0000
0100
,
1000
0000
0000
0000
0010
0000
0001
0000
0000
0000
1000
0000
,
0100
0000
0000
0000
0001
0000
1000
0000
0000
0100
0000
0000
,
0010
0001
2000
0000
3010
0000
0100
0000
,
0001
1000
0100
0010
,
0001
0000
1000
0001
0000
0001
1000
0000
,
0010
0100
0001
0010
,
0100
0000
1000
0001
0000
0001
0100
0000
,
0010
1000
0001
0010
,
0100
0000
1000
0010
0000
0010
0100
0000
,
0001
0010
0002
0000
,
1003
0000
0010
0100
0000
0100
0010
0000
,
1000
0001
0010
0100
,
1100
0000
0000
0011
0000
0000
0000
0000
,
0000
0000
0000
0000
,
0101
0000
0000
1010
0000
0000
0000
0000
,
0000
0000
0000
0000
,
1001
0000
0000
0110
0000
0000
0000
0000
,
0000
0000
0000
0100
,
0110
0000
0000
1001
0000
0000
0000
0000
,
0000
0000
0000
0000
,
0001
0000
0010
0000
1000
0000
0001
0000
0100
0000
1000
0000
,
0001
0000
0000
0100
0000
0000
0010
0000
,
0000
0010
1000
0001
,
0010
0000
0000
0100
0000
0000
1000
0000
,
0000
0001
0100
0010
,
1000
0000
0001
0010
0000
0100
1000
0000
,
0000
0010
0100
0010
,
1000
0000
0001
0010
0000
0100
1000
0000
,
0001
0000
0002
0000
1000
1000
1003
0000
,
0001
0000
0100
0010
0000
0100
0001
0000
,
1000
0000
0100
0000
0010
0001
0010
0000
,
0100
0000
1000
0010
0000
1000
0100
0000
,
0010
0000
0001
1000
0010
0100
0001
0000
,
1000
0000
0100
0010
0000
0100
1000
0000
,
0010
0000
0100
0000
0001
0010
0100
0000
,
0010
0000
0001
0100
0000
0010
1000
0000
,
0001
0000
0010
0000
0100
1000
0001
0100
,
0010
0000
1000
0001
0000
0010
0200
0000
,
1300
0010
0100
0010
1000
0100
0010
0000
,
0001
0000
1000
0010
0000
0100
0002
0000
,
0103
0010
1000
0001
0010
0100
1000
0000
,
0010
0000
0100
0010
0000
1000
0002
0000
,
0013
0000
0100
1000
0010
0100
0010
1000
,
0001
0000
0010
0100
0000
1000
0002
0000
,
0103
0000
0010
1000
0010
0100
0001
1000
,
0001
0100
0010
1000
,
0001
0000
0010
0000
0100
1000
0200
0000
,
0000
0310
0001
1000
,
0010
0000
0000
0000
0000
0000
0100
0000
0000
0000
0000
0000
0001
0000
0000
0000
0010
0000
0001
0000
0000
1000
0000
0000
,
0010
0100
0001
0010
,
0100
0000
0010
0000
0001
0100
0020
0000
,
0000
0130
0001
0010
,
0100
0000
0000
1000
0000
0000
0010
0000
0100
0000
1001
0000
;

//---------------dance-single - Nitrospan-ESP----------------
#NOTES:
     dance-single:
     Nitrospan:
     Hard:
     16:
     :
0000
0000
0000
0000
,
1000
0000
1000
0000
1000
0000
0010
0000
0010
0000
0010
0000
,
0100
0000
0100
0000
0100
0000
0001
0000
0001
0000
0001
0000
,
0000
0000
0010
0000
0001
0000
1000
0000
0010
0000
1000
0000
,
0001
0000
0100
0000
0001
0000
1000
0000
0100
1000
0100
1000
,
0001
0000
0100
0000
0010
1000
0100
0000
0010
0000
0001
0000
,
1100
0000
0000
0001
0000
0000
0101
0000
0000
0000
0000
0000
1000
0010
0100
0001
,
1010
0000
0000
0100
0000
0000
0011
0000
0000
0000
0000
0000
0010
0001
1000
0010
,
0101
0000
0000
0010
0000
0000
1100
0000
0000
0000
0000
0000
0001
0010
0100
1000
,
0011
0000
0000
0000
0000
0000
0000
0000
0000
0100
0000
0000
0000
0000
0000
0000
0000
0000
1001
0000
0000
0000
0000
0000
0100
0000
0000
0000
0110
0000
0000
0000
1000
0000
0000
0000
1001
0000
0000
0000
0000
0000
0000
0000
0000
0000
0000
0000
,
1000
0010
0100
0001
0100
0010
1000
0001
,
0010
0001
1000
0010
0100
0001
1000
0100
,
0000
0100
0001
0010
0100
0010
0001
1000
,
0010
0000
0100
0000
0001
0000
1000
0000
0100
0000
1000
0001
1000
0000
0010
0000
,
0000
0010
0001
0100
0010
0100
0001
0010
,
0100
1000
0001
0100
0010
1000
0010
0100
,
0001
0000
0010
0000
0100
0000
1000
0000
0100
0010
0100
0000
0002
0000
0000
0000
,
0000
0000
0103
0000
1000
0001
1000
0000
0010
0000
0100
0001
1000
0010
0100
0001
,
2000
0000
0000
3001
0010
0000
0200
0000
0000
1300
0100
0000
,
0020
0000
0000
0000
0000
0000
0000
0000
0000
0000
0000
0000
0031
0000
0000
0000
1000
0000
0000
0000
0000
0000
0000
0000
0020
0000
0000
0000
0000
0000
0000
0000
0000
0000
0000
0000
0130
0000
0000
0000
0000
0000
0001
0000
0000
1000
0000
0000
,
0200
0000
1300
0001
0200
0000
0310
0100
,
0001
0100
0010
1000
0001
0010
0100
1000
0002
0000
0000
0000
0013
0000
0001
1000
,
0020
0000
0130
0001
2000
0000
3100
0000
,
0010
0000
0000
0000
0000
0000
0001
0000
0000
1000
0000
0000
0020
0000
0000
0000
0000
0000
0130
0000
0001
0000
1000
0000
,
0200
0000
0000
0000
0000
0000
0310
0000
0001
0000
1000
0000
0020
0000
0000
0000
0000
0000
0130
0000
0000
0001
0000
0000
,
1000
0000
0100
0010
0001
0000
0100
0000
0010
1000
0100
0000
1000
0100
0010
0001
,
2000
0000
0000
3010
1000
0000
0002
0000
0000
0013
0001
0000
,
2000
0000
0000
0000
0000
0000
0000
0000
0000
0000
0000
0000
3100
0000
0000
0000
1000
0000
0000
0000
0000
0000
0000
0000
0002
0000
0000
0000
0000
0000
0000
0000
0000
0000
0000
0000
0103
0000
0000
0000
0000
0000
0001
0000
0000
1000
0000
0000
,
0200
0000
0000
0000
0000
0000
0310
0000
0001
0000
1000
0000
0010
0000
0000
0010
0000
0000
0100
0000
0000
0000
0000
0000
,
0001
0010
0100
1000
0100
0010
0001
0100
0020
0000
0000
0000
2030
0000
0000
0000
,
3002
0000
0000
0000
0010
0000
2003
0000
0000
0000
0100
0000
,
3002
0000
0000
0000
0100
0000
2003
0000
0000
3002
0000
0000
,
0103
0010
0100
0000
0001
1000
0100
0000
,
1000
0100
0010
0001
1000
0100
1000
0001
0100
0010
1000
0001
0010
0001
0100
0010
,
1000
0000
1001
0100
0000
1001
0010
0100
,
0001
0200
1000
0000
0310
1000
0100
0010
,
0001
0000
0110
1000
0000
0110
0001
0100
,
0010
2000
0100
0000
3001
0100
0010
1000
,
0100
0000
0011
1000
0000
1100
0001
1000
,
0010
0200
1000
0000
0301
0010
0100
1000
,
0010
0000
0101
0010
0000
1100
0001
0100
,
0010
2000
0100
0000
3001
0100
1000
0100
,
1001
0000
0010
1001
0000
0000
0000
0000
,
0000
0000
0000
0000
0000
0010
1000
0100
,
0011
0000
1000
0101
0000
0000
0000
0000
,
0000
0000
0000
0000
0000
0000
0000
0000
0000
0000
0000
0000
0001
0000
0000
0100
0000
0000
0001
0000
0000
0100
0000
0000
0010
0000
0000
0000
1000
0000
0000
0000
0001
0000
0000
0000
0100
0000
0000
0000
0000
0000
0010
0000
0000
0000
0000
0000
,
1010
0000
0100
0011
0000
0000
0000
0000
,
0000
0000
0000
0010
,
1100
0000
0001
1010
0000
0000
0000
0000
,
0000
0000
0000
0000
0001
0000
0000
0000
0010
0000
0100
1000
0001
0000
0100
0000
,
0010
0000
1000
0000
0001
0100
0010
0000
1000
0000
0100
0000
,
1001
0000
0010
0001
0000
0100
0010
0000
,
1000
0010
0100
0001
1000
0100
0010
0001
,
0100
0000
0010
1000
0000
0001
0010
0000
,
0100
1000
0010
0100
0001
1000
0010
0100
,
0001
0000
0010
0001
0000
1000
0010
0000
,
0100
0001
0010
0100
1000
0010
0100
0001
,
1000
0000
0100
0010
0000
0001
1000
0000
,
0110
0000
1001
0000
0010
0010
0010
0000
,
2010
0000
0000
0000
3001
0000
0200
0000
0000
0000
0310
0000
1000
0100
1000
0000
,
0001
0100
1000
0100
0010
1000
0001
0010
,
1200
0000
0000
0000
0310
0000
0002
0000
0000
0000
1003
0000
0010
0100
0010
0000
,
1000
0000
0001
0010
0100
1000
0100
0010
0001
0000
0100
0000
0010
0000
1000
0000
,
0102
0000
0000
0000
1003
0000
0020
0000
0000
0000
1030
0000
0001
0100
0001
0000
,
0010
0001
1000
0010
0100
0001
1000
0100
,
0120
0000
0000
0000
1030
0000
0002
0000
0000
0000
0103
0000
0010
0001
0010
0000
,
0000
0100
1000
0001
0100
1000
0100
0001
,
0102
0000
0000
0000
1003
0000
0020
0000
0000
0000
0130
0000
0001
0010
0001
0000
,
1000
0010
0001
0010
0100
0001
1000
0100
,
0021
0000
0000
0000
0130
0000
2000
0000
0000
0000
3001
0000
0100
0010
0100
0000
,
0001
0000
1000
0100
0010
0001
0010
0100
1000
0000
0010
0000
0100
0000
0001
0000
,
2010
0000
0000
0000
3001
0000
0200
0000
0000
0000
0301
0000
1000
0010
1000
0000
,
0100
1000
0001
0100
0010
1000
0001
0010
,
0210
0000
0000
0000
0301
0000
2000
0000
0000
0000
3010
0000
0100
1000
0100
0000
,
0000
0010
0001
1000
0100
0001
0010
0100
,
1000
0000
0100
0000
0010
0000
0001
0000
0010
0000
0100
0000
,
1000
0000
0010
0000
0100
0000
0001
0000
0100
0000
0010
0000
,
0000
0000
0010
0000
0001
0000
0010
0000
0100
0000
1000
0000
,
0010
0000
0000
0000
0000
0000
0000
0000
0100
0000
0000
0000
0000
0000
0000
0000
0001
0000
0000
0000
0000
0000
0000
0000
0100
0000
0000
0000
0000
0000
0000
0000
0000
0010
0000
0000
1000
0000
0000
0000
0000
0000
0001
0000
0000
0000
0000
0000
,
0010
0000
0100
1000
0001
0000
0010
0000
0001
0100
0010
0000
,
1000
0000
0010
1000
0100
0000
0010
0000
0001
0100
0000
0010
,
0000
0000
1000
0100
0010
0000
0001
0000
1000
0010
0100
0000
,
0001
0000
0010
0001
0100
0000
0110
0000
1000
0000
1001
0000
;

//---------------dance-double - NewbStepper-BDP----------------
#NOTES:
     dance-double:
     NewbStepper:
     Easy:
     6:
     :
00000000
00000000
00000000
00000000
,
10000000
00000000
01000000
00000000
,
00100000
00000000
00010000
00000000
,
01000000
00000000
00100000
00000000
,
00010000
00000000
00001000
00000000
,
00000010
00000000
00000000
00000000
00000100
00000000
00000000
00000000
00001000
00000000
00000000
00000000
,
00000001
00000100
00000010
00001000
,
00010000
01000000
00100000
10000000
,
01000000
00100000
00010000
00001000
,
00000100
00000010
00000220
00000330
,
00000001
00000100
00000010
00010000
,
00001000
01000000
00100000
10000000
,
00000000
10000000
01000000
00100000
,
00001000
00010000
00000100
00000010
,
00000000
00000010
00000001
00000100
,
00001000
00010000
00000100
00010000
,
00001000
00100000
01000000
10000000
,
00200000
00300000
02000000
03000000
,
00002000
00003000
00020000
00030000
,
00000020
00000030
00002000
00003000
,
00000002
00000003
00002000
00000000
,
00003000
00000000
00000100
00000000
,
00000020
00000030
00000200
00000300
,
00010000
00001000
00100000
00010000
,
20000000
30000000
00020000
00000000
,
00030000
00000000
01000000
00000000
,
00200000
00300000
02000000
03000000
,
00001000
00010000
00000010
00001000
,
00000002
00000003
00002000
00000000
,
00003000
00000000
00000010
00000000
,
00002000
00003000
00000200
00000300
,
00020000
00030000
00002000
00003000
,
00100000
00100000
00000000
00000000
,
00010000
01000000
00100000
10000000
,
00010000
00000000
00000000
00010000
00000000
00000000
00000000
00000000
,
01000000
00001000
00010000
00000000
,
00001000
00000000
00000000
00001000
00000000
00000000
00000000
00000000
,
00000100
00000001
00000010
00000100
,
00001000
00000000
00000000
00001000
00000000
00000000
00000000
00000000
,
00000100
00010000
00001000
00000000
,
00010000
00000000
00000000
00010000
00000000
00000000
00000000
00000000
,
01000000
10000000
00100000
01000000
,
00010000
00000000
00000000
10010000
00000000
00000000
00000000
00000000
,
00000000
00000000
00000000
00001000
,
00010000
00000000
00000000
00011000
00000000
00000000
00000000
00000000
,
00000000
00000000
00000000
00000000
,
00001000
00000000
00000000
00001001
00000000
00000000
00000000
00000000
,
00000000
00000000
00000000
00010000
,
00001000
00000000
00000000
00011000
00000000
00000000
00000000
00000000
,
00000000
00100000
00010000
10000000
,
02000000
00000000
03000000
00000000
,
00100000
00000000
00000000
01000000
00000000
00000000
00010000
00000000
,
00000000
00000000
00001000
00010000
,
00000010
00000000
00000000
00000100
00000000
00000000
00001000
00000000
,
00000000
00000000
00010000
00100000
,
01000000
00000000
00000000
00100000
00000000
00000000
00010000
00000000
,
00000000
00000000
00001000
00000010
,
00000100
00000000
00000000
00000010
00000000
00000000
00001000
00000000
,
00020000
00000000
00000000
00030000
,
00100000
00000000
00000000
10000000
00000000
00000000
00010000
00000000
,
00000000
01000000
00001000
00010000
,
00000010
00000000
00000000
00001000
00000000
00000000
00000001
00000000
,
00000000
00001000
00001000
00000100
,
00000010
00000000
00000000
00000001
00000000
00000000
00001000
00000000
,
00000000
00000100
00010000
00001000
,
00100000
00000000
00000000
00010000
00000000
00000000
10000000
00000000
,
00000000
01000000
00010000
00001000
,
00000100
00000000
00000000
00000001
00000000
00000000
00001000
00000000
,
00000001
00000100
00001000
00010000
,
01000000
00000000
00000000
10000000
00000000
00000000
00010000
00000000
,
10000000
00100000
00010000
00001000
,
00000010
00000000
00000000
00000001
00000000
00000000
00001000
00000000
,
00000001
00000010
00001000
00010000
,
00100000
00000000
00000000
10000000
00000000
00000000
00010000
00000000
,
01000000
00100000
00010000
00001000
,
00000010
00000000
00000001
00000000
,
00000100
00000000
00000010
00000000
,
00001000
00000000
00010000
00000000
,
01000000
00000000
00100000
00000000
,
10000000
00000000
00010000
00000000
,
00001000
00000000
00000001
00000000
,
00000001
00000000
00001000
00000000
,
00010000
00000000
10000000
00000000
;

//---------------dance-double - NewbStepper-DDP----------------
#NOTES:
     dance-double:
     NewbStepper:
     Medium:
     11:
     :
00000000
00000000
00000000
00000000
,
10000000
01000000
00100000
00010000
,
01000000
00000000
00100000
00000000
00010000
00001000
00000010
00000000
,
00000000
00000001
00000100
00000010
,
00001000
00000000
00000100
00000000
00000010
00000000
00001000
00010000
,
00100000
00000000
10000000
00000000
10000000
00000000
00010000
00000000
01000000
00000000
01000000
00000000
,
00100000
00000000
00000000
10000000
00000000
00000000
01000000
00000000
00000000
00000000
00010000
00000000
00011000
00000000
00000000
00000000
,
00000010
00000000
00000000
00000001
00000000
00000000
00000100
00000000
00000000
00000000
00001000
00000000
00011000
00000000
00000000
00000000
,
00010000
00000000
00000000
00100000
00000000
00000000
10100000
00000000
00000000
00000000
10000000
00000000
01000000
00000000
00010000
00000000
,
00001000
00000000
00000000
00000000
00000000
00000000
00000000
00000000
00000000
00000010
00000000
00000000
00000000
00000000
00000000
00000000
00000000
00000000
00000001
00000000
00000000
00000000
00000000
00000000
00000000
00000000
00000000
00000000
00000100
00000000
00000000
00000000
00000010
00000000
00000000
00000000
00000200
00000000
00000000
00000000
00000000
00000000
00000000
00000000
00000000
00000000
00000000
00000000
,
00000301
00000100
00000010
00001000
,
00000001
00000000
00000100
00000000
00001000
00010000
01000000
10000000
,
00000000
01000000
00100000
00010000
,
10000000
00000000
01000000
00100000
00010000
00100000
01000000
00000000
,
10000000
00100000
01000000
00010000
,
00100000
00000000
01000000
00000000
00010000
00001000
00100000
00001000
,
00010000
00000010
00001000
00000100
00000010
00000001
00000200
00000000
,
00000300
00000001
00000100
00000001
00001000
00000100
00010000
00001000
,
00100000
00000000
00000000
00000000
00010000
00000000
00100000
00000000
00000000
00000000
10000000
00000000
,
00100000
00000000
00000000
00000000
00000000
00000000
00000000
00000000
00001000
00000000
00000000
00000000
00010000
00000000
00000000
00000000
00000000
00000000
00000000
00000000
00000000
00000100
00000000
00000000
,
00000010
00000000
00000000
00000001
00000200
00000000
00000000
00000000
,
00000300
00000000
00000000
00000000
00000001
00000000
00000100
00000010
,
00001000
00000000
00000000
00000100
00020000
00000000
00030000
00000000
,
00100000
00000000
10000000
01000000
00100000
00000000
01000000
00010000
,
00001000
00000000
00000000
00000010
00000200
00000000
00000300
00000000
,
00001000
00000001
00000100
00001001
,
00000010
00000000
00000000
00000000
00001000
00000000
00000010
00000000
00000000
00000000
00000001
00000000
,
00000010
00000000
00000000
00000000
00010000
00000000
00001000
00000000
00000000
00000000
01000000
00000000
,
00100000
00000000
00000000
00000000
10000000
00000000
02000000
00000000
00000000
03000000
00000000
00000000
,
10000000
00000000
01000000
00000000
00100000
00010000
00100000
00001000
,
00010000
00000000
00000000
00000000
00001000
00000000
00000010
00000000
00000000
00000000
00000001
00000000
,
00000100
00000000
00000000
00000000
00000010
00000000
00001000
00000000
00000000
00000100
00000000
00000000
,
00010000
00001000
00020000
00000000
00000000
00000000
00030000
00000000
,
00100000
10000000
01000000
00100000
,
00010000
00000000
01000000
00100000
00000000
00100000
10000000
00000000
,
01000000
00010000
00001000
00000000
00000100
00000000
00000010
00000000
,
00001000
00000000
00000100
00000010
00000000
00000010
00000001
00000000
,
00000100
00001000
00010000
00000000
01000000
00100000
00010000
01000000
,
00100000
00000000
10000000
00010000
00000000
00010000
00100000
00000000
,
01000000
00010000
00001000
00000000
00000100
00000000
00000001
00000000
,
00000010
00000000
00000001
00001000
00000000
00001000
00000010
00000000
,
00000100
00001000
00010000
00000000
00100000
10000000
00010000
00100000
,
01000000
00000000
00000000
01100000
00000000
00000000
00000000
00000000
,
00000000
00000000
00000000
00010000
,
00001000
00000000
00000000
00011000
00000000
00000000
00000000
00000000
,
00000000
00000000
00000000
00000000
,
00000100
00000000
00000000
00000110
00000000
00000000
00000000
00000000
,
00000000
00000000
00000000
00001000
,
00010000
00000000
00000000
00011000
00000000
00000000
00000000
00000000
,
00000000
00000000
00000000
00000000
,
00010000
00000000
00100000
00000000
10000000
00000000
01000000
00000000
00100000
00000000
00010000
00000000
,
01000000
00000000
00000000
00001000
00000000
00000000
00010000
00000000
,
00000000
00000000
00000000
00000000
00001000
00000010
00000001
00000010
,
00000100
00000000
00000000
00010000
00000000
00000000
00001000
00000000
,
00000000
00000000
00000000
00000000
00010000
00100000
10000000
00100000
,
01000000
00000000
00000000
00001000
00000000
00000000
00010000
00000000
,
00000000
00000000
00000000
00000000
00001000
00000100
00000001
00000100
,
00000010
00000000
00000000
00010000
00000000
00000000
00022000
00000000
,
00000000
00000000
00000000
00033000
,
00001000
00000000
00010000
01000000
00000000
10000000
00100000
00000000
,
01000000
00000000
00010000
00000000
10000000
01000000
00100000
01000000
,
00010000
00000000
00001000
00000100
00000000
00000001
00000010
00000000
,
00000100
00000000
00001000
00000000
00000001
00000100
00000010
00000100
,
00001000
00000000
00010000
00100000
00000000
10000000
01000000
00000000
,
00010000
00000000
00001000
00000000
00100000
00010000
01000000
00001000
,
00010000
00000000
00001000
00000010
00000000
00000001
00000100
00000000
,
00000010
00000000
00001000
00000000
00000001
00000100
00000010
00001000
,
00000001
00000000
00000100
00001000
00000000
00010000
01000000
00000000
,
10000000
00000000
00100000
00000000
10000000
01000000
00100000
00010000
,
10000000
00000000
01000000
00010000
00000000
00001000
00000100
00000000
,
00000001
00000000
00000010
00000000
00000001
00001000
00000100
00000010
,
00000001
00000000
00000010
00001000
00000000
00010000
00100000
00000000
,
10000000
00000000
00010000
00000000
10000000
00010000
01000000
00100000
,
10000000
00000000
00100000
00010000
00000000
00001000
00000010
00000000
,
00000001
00000100
00000010
00001000
00000100
00010000
00001000
00100000
,
00010000
01000000
00100000
10000000
,
01000000
00100000
00010000
00001000
,
00000100
00000010
00000001
00000100
,
00000010
00001000
00010000
01000000
,
00100000
00000000
10000000
00000000
00100000
00000000
01000000
00000000
00010000
00000000
01000000
00000000
,
00001000
00000000
00010000
00000000
00001000
00000000
00010000
00000000
00000010
00000000
00001000
00000000
,
00000001
00000000
00000100
00000000
00000010
00000000
00001000
00000000
00000100
00000000
00010000
00000000
,
00001000
00000000
00100000
00000000
00010000
00000000
01000000
00000000
00100000
00000000
10000000
00000000
;

//---------------dance-double - NewbStepper-EDP----------------
#NOTES:
     dance-double:
     NewbStepper:
     Hard:
     15:
     :
00000000
00000000
00000000
00000000
,
10000000
00000000
01000000
00000000
00100000
00000000
00010000
00000000
01000000
00000000
00100000
00000000
,
00010000
00000000
00001000
00000000
00000100
00000000
00000010
00000000
00001000
00000000
00000100
00000000
,
00000010
00000000
00000001
00000000
00000100
00000000
00000010
00000000
00001000
00000000
00000001
00000000
,
00000100
00000000
00001000
00000000
00010000
00000000
01000000
00000000
10000000
00010000
10000000
00010000
,
01000000
00000000
00010000
00000000
01010000
00000000
00100000
00000000
10000000
00000000
10100000
00000000
,
01000000
00000000
00000000
00100000
00000000
00000000
10010000
00000000
00000000
00000000
00010000
00000000
10000000
01000000
00010000
00001000
,
00000100
00000000
00000000
00000010
00000000
00000000
00001001
00000000
00000000
00000000
00000100
00000000
00000001
00000010
00001000
00010000
,
00011000
00000000
00000000
00000000
00000000
00000000
00000000
00000000
00000000
01001000
00000000
00000000
00000000
00000000
00000000
00000000
00000000
00000000
01010000
00000000
00000000
00000000
00000000
00000000
00010000
00000000
00000000
00000000
00100000
00000000
00000000
00000000
01000000
00000000
00000000
00000000
10000000
00000000
00000000
00100000
00000000
00000000
00010000
00000000
00000000
00001000
00000000
00000000
,
00011000
00000000
00000000
00000000
00000000
00000000
00000000
00000000
00000000
00010100
00000000
00000000
00000000
00000000
00000000
00000000
00000000
00000000
00001100
00000000
00000000
00000000
00000000
00000000
00001000
00000000
00000000
00000000
00000010
00000000
00000000
00000000
00000100
00000000
00000000
00000000
00000202
00000000
00000000
00000000
00000000
00000000
00000303
00000000
00000000
00000000
00000000
00000000
,
00001001
00000000
00000001
00000010
00000100
00001000
00000010
00010000
,
00001000
00000010
00000001
00001000
00000100
00010000
00001000
00100000
,
00001000
00010000
00100000
10000000
00010000
01000000
00001000
00010000
,
00100000
00000000
10000000
00000000
00010000
00000000
00100000
01000000
00100000
00000000
00010000
00000000
10010000
00000000
00000000
00000000
,
10000000
00100000
01000000
00010000
00100000
00001000
00010000
00100000
,
10000000
00010000
01000000
00001000
00010000
00000010
00010000
00001000
,
00000010
00000000
00000001
00000000
00001000
00000010
00001000
00000010
00001000
00000000
00000001
00000000
00000020
00000000
00000000
00000000
,
00000030
00000000
00000001
00000000
00000100
00000010
00000100
00000000
00001000
00000000
00010000
00001000
00010000
00001000
00010000
00001000
,
00200000
00000000
00000000
00300000
00010000
00000000
02000000
00000000
00000000
03000000
00100000
00000000
,
20000000
00000000
00000000
00000000
00000000
00000000
00000000
00000000
00000000
00000000
00000000
00000000
30000000
00000000
00000000
00000000
01000000
00000000
00000000
00000000
00000000
00000000
00000000
00000000
00020000
00000000
00000000
00000000
00000000
00000000
00000000
00000000
00000000
00000000
00000000
00000000
00030000
00000000
00000000
00000000
00000000
00000000
00001000
00000000
00000000
00010000
00000000
00000000
,
00002000
00000000
00003000
00000010
00000200
00000000
00000300
00001000
,
00000001
00000000
00000100
00000000
00001000
00000000
00010000
00000000
01000000
00000000
10000000
00000000
00100000
00000000
01000000
00001000
,
00020000
00000000
00030000
00100000
02000000
00000000
00000000
00000000
,
03000000
00000000
00000000
00000000
00000000
00000000
10000000
00000000
00000000
01000000
00000000
00000000
00020000
00000000
00000000
00000000
00000000
00000000
00130000
00000000
00010000
00000000
01000000
00000000
,
00200000
00000000
00000000
10300000
01000000
00010000
00002000
00000000
00000000
00013000
00000000
00000000
,
00001000
00000000
00010000
00000100
00010000
00000000
00000100
00001000
00000100
00000000
00001000
00000001
00001000
00000000
00000010
00001000
,
00000020
00000000
00000000
00000030
00001000
00000000
00000200
00000000
00000000
00000300
00000010
00000000
,
00000002
00000000
00000000
00000003
00000100
00000000
00002000
00000000
00000000
00003000
00010000
00001000
,
00020000
00000000
00000000
00130000
10000000
01000000
00200000
00000000
00000000
00310000
00000000
00000000
,
10000000
00000000
00000000
00000000
00000000
00000000
00100000
00000000
00000000
10000000
00000000
00000000
00100000
00000000
00000000
00000000
00000000
00000000
01000000
00000000
00000000
00010000
00000000
00000000
01000000
00000000
00000000
00000000
00100000
00000000
00000000
00000000
00010000
00000000
00000000
00000000
00001000
00000000
00000000
00000000
00100000
00000000
00000000
00000000
00001000
00000000
00000000
00000000
,
00020000
00000000
00000000
00000000
00001000
00000000
00030200
00000000
00000000
00000000
00010000
00000000
,
00002300
00000000
00000000
00000000
00000001
00000000
00003200
00000000
00000000
00000320
00000000
00000000
,
00000031
00001000
00000001
00000000
00000100
00001000
00010000
00000000
,
00100000
00000000
10000000
00100000
01000000
00000000
00010000
00100000
01000000
00000000
00100000
00000000
01100000
00000000
00000000
00000000
,
10010000
00010000
01000000
10100000
00000000
11000000
01000000
00010000
,
00001000
00000000
00000200
00000000
00000010
00000000
00000000
00000000
00001300
00000000
00010000
00000000
00100000
00000000
00010000
00001000
,
00010000
00000000
00011000
00100000
00000000
01100000
00010000
00000000
,
10000000
00000000
01000000
00000000
00010000
00000000
00001000
00000000
00000100
00000000
00000001
00000000
00001000
00000000
00000010
00000100
,
00000001
00001000
00000100
00000011
00000000
00000101
00000100
00001000
,
00010000
00000000
02000000
00000000
00100000
00000000
00000000
00000000
03010000
00000000
00001000
00000000
00000010
00000000
00001000
00010000
,
00001000
00000000
00011000
00000010
00000000
00000110
00001000
00000000
,
00000001
00000000
00000100
00000000
00001000
00000000
00010000
00000100
00010000
00000000
00001000
00010000
00001000
00010000
00001000
00100000
,
00010000
00000000
00000000
01100000
00000000
00000000
00000000
00000000
,
00000000
00000000
00000000
00000000
00000000
00100000
01000000
00010000
,
00001000
00000000
00000000
00000110
00000000
00000000
00000000
00000000
,
00000000
00000000
00000000
00000000
00000000
00000000
00000000
00000000
00000000
00000000
00000000
00000000
00000001
00000000
00000000
00001000
00000000
00000000
00000001
00000000
00000000
00001000
00000000
00000000
00000001
00000000
00000000
00000000
00000100
00000000
00000000
00000000
00000010
00000000
00000000
00000000
00001000
00000000
00000000
00000000
00000100
00000000
00000000
00000000
00010000
00000000
00000000
00000000
,
00001000
00000000
00000000
00011000
00000000
00000000
00000000
00000000
,
00000000
00000000
00000000
00100000
,
01100000
00000000
00000000
10010000
00000000
00000000
00000000
00000000
,
00000000
10000000
00100000
00010000
,
00001000
00000000
00010000
00000000
00001000
00000000
00000010
00000000
00000001
00000000
00000100
00000000
,
00000020
00000000
00001030
00000200
00000000
00000310
00000002
00000000
,
00000103
00001000
00010000
00000100
00000010
00001000
00010000
01000000
,
00200000
00000000
00310000
02000000
00000000
03100000
20000000
00000000
,
31000000
00000000
00000000
00000000
01000000
00000000
00000000
00000000
00100000
00010000
00100000
00010000
00100000
00010000
00100000
00010000
,
20000000
00000000
31000000
00020000
00000000
01030000
00200000
00000000
,
00301000
00000000
00000000
00000000
00010000
00000000
00000000
00000000
00000010
00001000
00000010
00001000
00000010
00001000
00000010
00001000
,
00000002
00000000
00000103
00002000
00000000
00003100
00000020
00000000
,
00010030
00000000
00000000
00000000
00011000
00000000
00000000
00000000
00001000
00010000
00000100
00001000
00000100
00000000
00000000
00000000
,
00002100
00000000
00003001
00000200
00000000
00000310
00002000
00000000
,
00003010
00010000
00001000
00000100
00001000
00010000
01000000
10000000
,
00200000
00000000
00000000
00000000
01300000
00000000
00020000
00000000
00000000
00000000
00130000
00000000
01000000
00100000
01000000
00000000
,
00000000
00000000
00000000
00000000
10010000
00000000
00000000
00000000
00010000
00000000
00100000
00000000
01000000
10000000
01000000
00100000
,
00020000
00000000
10030000
02000000
00000000
03100000
00020000
00000000
,
00130000
00001000
00010000
01000000
00010000
00001000
00000100
00000001
,
00000020
00000000
00000000
00000000
00000130
00000000
00002000
00000000
00000000
00000000
00003010
00000000
00000100
00000010
00000100
00000000
,
00000000
00000001
00000100
00000010
00001000
00010000
01000000
00100000
,
20100000
00000000
30010000
02000000
00000000
13000000
01000000
00010000
,
00100000
00000000
00001000
00000000
00000010
00000000
00000100
00000000
00010000
00000000
00001000
00000100
00000010
00000000
00001000
00000000
,
00000002
00000000
00001003
00000200
00000000
00000301
00000100
00001000
,
00000010
00000000
00010000
00000000
00100000
00000000
01000000
00000000
00001000
00000000
00010000
01000000
00100000
00000000
00010000
00000000
,
02000000
00000000
03001000
00000200
00000000
00010300
02000000
00000000
,
13000000
00000000
01000000
00100000
01000000
00000000
00010000
00000000
00100000
00000000
00001000
00010000
00001000
00010000
00000010
00001000
,
00000020
00000000
00010030
00200000
00000000
00301000
00000020
00000000
,
00001030
00000001
00000100
00001000
00010000
01000000
10000000
00010000
,
01000000
00000000
00100000
00000000
01000000
00000000
00010000
00000000
10000000
00000000
00010000
00000000
,
00100000
00000000
00001000
00000000
00010000
00000000
00000010
00000000
00001000
00000000
00000100
00000000
,
00000010
00000000
00000001
00000000
00000100
00000000
00001000
00000000
00010000
00000000
00100000
00000000
,
10000000
00000000
01000000
00000000
00100000
00000000
00010000
00000000
01000000
00000000
00100000
00000000
,
00100000
00000000
10000000
00000000
11000000
00000000
01000000
00000000
00010000
00000000
00011000
00000000
,
00001000
00000000
00000010
00000000
00000011
00000000
00000001
00000000
00000100
00000000
00001100
00000000
,
00001000
00000000
00010000
00000000
00110000
00000000
00100000
00000000
10000000
00000000
10100000
00000000
,
01100000
00000000
11000000
00000000
01010000
00000000
00110000
00000000
00101000
00000000
00011000
00000000
;
