#VERSION:0.83;
#TITLE:snowscapes;
#ARTIST:saiiko2;
#BANNER:snowscapes.png;
#BACKGROUND:snowscapes-bg.png;
#JACKET:snowscapes-jacket.png;
#MUSIC:snowscapes.ogg;
#OFFSET:-0.132;
#SAMPLESTART:82.94;
#SAMPLELENGTH:15;
#BPMS:0=142;

//---------------dance-single - NewbStepper-bSP----------------
#NOTEDATA:;
#CHARTNAME:NewbStepper-bSP;
#STEPSTYPE:dance-single;
#DESCRIPTION:NewbStepper-bSP;
#CHARTSTYLE:;
#DIFFICULTY:Beginner;
#METER:3;
#CREDIT:NewbStepper;
#NOTES:
0000
0000
0000
0000
,
0000
0000
0000
0000
,
0000
0000
0000
0000
,
0000
0000
0000
0000
,
0000
0000
0000
0000
,
1000
0000
0000
0000
,
0000
0000
0000
0000
,
0001
0000
0000
0000
,
0000
0000
0000
0000
,
1000
0000
0000
0000
,
0001
0000
0000
0000
,
0100
0000
0000
0000
,
0000
0000
0000
0000
,
0001
0000
0000
0000
,
1000
0000
0000
0000
,
0100
0000
0000
0000
,
0000
0000
0000
0000
,
0010
0000
0000
0000
,
0000
0000
0000
0000
,
0010
0000
0000
0000
,
0000
0000
0000
0000
,
0001
0000
0001
0000
,
0001
0000
0000
0000
,
1000
0000
1000
0000
,
1000
0000
0000
0000
,
1001
0000
0000
0000
,
0000
0000
0000
0000
,
0200
0000
0300
0000
,
0000
0000
0000
0000
,
1001
0000
0000
0000
,
0000
0000
0000
0000
,
0200
0000
0300
0000
,
0000
0000
0000
0000
,
0001
0000
0000
0000
,
0001
0000
0000
0000
,
1000
0000
0000
0000
,
1000
0000
0000
0000
,
0100
0000
0000
0000
,
0100
0000
0000
0000
,
0010
0000
0000
0000
,
0010
0000
0000
0000
,
0001
0000
1000
0000
,
0001
0000
0000
0000
,
0100
0000
0010
0000
,
0100
0000
0000
0000
,
1000
0000
0001
0000
,
1000
0000
0000
0000
,
0010
0000
0100
0000
,
0010
0000
0000
0000
,
0001
0000
0000
0000
,
0100
0000
0000
0000
,
0010
0000
0000
0000
,
1000
0000
0000
0000
,
0001
0000
0000
0000
,
0010
0000
0000
0000
,
0100
0000
0000
0000
,
1000
0000
0000
0000
,
1001
0000
0001
0000
,
1000
0000
0000
0000
,
1001
0000
1000
0000
,
0001
0000
0000
0000
,
0010
0000
0100
0000
,
0010
0000
0000
0000
,
0100
0000
0010
0000
,
0100
0000
0000
0000
,
1001
0000
1000
0000
,
0010
0000
0010
0000
,
0100
0000
0100
0000
,
0001
0000
0001
0000
,
2000
0000
3000
0000
,
0200
0000
0300
0000
,
0020
0000
0030
0000
,
0002
0000
0003
0000
,
1000
0000
0100
0000
,
1000
0000
0000
0000
,
0001
0000
0100
0000
,
0001
0000
0000
0000
,
1000
0000
0001
0000
,
1000
0000
0001
0000
,
0010
0000
0100
0000
,
0010
0000
0100
0000
,
0020
0000
0000
0000
,
0000
0000
0000
0030
;

//---------------dance-single - NewbStepper-BSP----------------
#NOTEDATA:;
#CHARTNAME:NewbStepper-BSP;
#STEPSTYPE:dance-single;
#DESCRIPTION:NewbStepper-BSP;
#CHARTSTYLE:;
#DIFFICULTY:Easy;
#METER:6;
#CREDIT:NewbStepper;
#NOTES:
0000
0000
0000
0000
,
0000
0000
0000
0000
,
0000
0000
0000
0000
,
0000
0000
0000
0000
,
0000
0000
0000
0000
,
2000
0000
0000
3000
,
0000
0000
0000
0000
,
0002
0000
0000
0003
,
0000
0000
0000
0000
,
2000
0000
0000
0000
,
3002
0000
0203
0000
,
0320
0000
0000
0000
,
0000
0000
2030
0000
,
3020
0000
0000
0000
,
0230
0000
0000
0302
,
2003
0000
0000
0000
,
0200
0000
3300
0000
,
1001
0001
0100
0000
,
0010
0000
0010
0000
,
1001
1000
0100
0000
,
0010
0010
0010
0010
,
0001
0100
1000
0000
,
1100
0000
0101
0000
,
1000
0100
0001
0100
,
2000
3020
0230
0302
,
1003
0100
1000
0000
,
0100
0001
0100
0000
,
0001
0010
0001
0000
,
0010
1000
0010
0000
,
1000
1000
0000
0000
,
0001
0001
0000
0000
,
0100
0010
0100
0010
,
0220
0000
0000
0330
,
2000
0000
0000
0000
,
3000
0000
0000
0000
,
0002
0000
0000
0000
,
0003
0000
0000
0000
,
1000
0001
1000
0001
,
1000
0001
1000
0001
,
0100
0010
0100
0010
,
0100
0010
0100
0000
,
0001
0100
1000
0100
,
0001
0100
0010
0000
,
1000
0100
0001
0100
,
1000
0100
0010
0000
,
0001
0001
0100
0010
,
1000
1000
0100
0010
,
0001
0100
0001
0100
,
0010
1000
0010
1000
,
0001
0000
1000
0010
,
1000
0000
0010
0001
,
0010
0000
0001
0100
,
0001
0000
0100
1000
,
0100
0000
1000
0100
,
0001
0000
0001
0010
,
1000
0000
0001
0100
,
1000
0000
1000
0010
,
0001
0100
0010
0100
,
1000
0100
0010
0001
,
0010
0100
0010
1000
,
0100
0010
0100
0001
,
0100
0010
1000
0010
,
0100
0010
0001
0100
,
1000
0100
0001
0010
,
1000
0010
0001
0100
,
0020
0000
1000
0000
,
0000
2030
3200
0320
,
0032
0000
0000
0203
0000
0000
0320
0000
,
2030
3002
0203
0320
,
2030
0000
0100
0000
,
3002
0000
0100
2003
,
3020
0000
0032
0000
,
2003
0000
3200
0000
,
0301
0100
0010
0100
,
1000
0100
0010
0100
,
0001
1000
0100
0001
,
0100
1000
0010
0000
,
1000
1000
0100
0010
,
0001
0001
0100
0010
,
1000
0100
1000
0100
,
0010
0001
0010
0001
,
2002
0000
0000
0000
,
0000
0000
0000
3003
;

//---------------dance-single - NewbStepper-DSP----------------
#NOTEDATA:;
#CHARTNAME:NewbStepper-DSP;
#STEPSTYPE:dance-single;
#DESCRIPTION:NewbStepper-DSP;
#CHARTSTYLE:;
#DIFFICULTY:Medium;
#METER:9;
#CREDIT:NewbStepper;
#NOTES:
0000
0000
0000
0000
,
0000
0000
0000
0000
,
0000
0000
0000
0000
,
0000
0000
0000
0000
,
0000
0000
0000
0000
,
1000
0001
0100
0100
,
0001
1000
0100
0100
,
1000
0001
0010
0010
,
0100
0100
0000
0100
0000
0100
0000
0000
,
2001
0001
0001
0001
,
3200
1000
0320
0001
,
0230
0010
0010
0010
,
0302
1000
2000
3003
,
1002
1000
1000
1000
,
0203
0001
0320
1000
,
0230
0010
0010
0310
,
2002
3003
1000
0001
,
0100
0000
1000
0100
0000
0001
0000
0100
,
0000
0000
0010
0000
0000
1000
0000
0000
0001
0000
0000
0000
1000
0000
0000
0000
,
0100
0000
0001
0100
0000
1000
0000
0100
,
0000
0010
0001
0010
0100
1000
0100
0010
,
0002
1000
0103
0000
,
0110
0000
1001
0000
,
2000
0001
3100
0010
,
0001
0100
0001
0100
0010
1000
0010
1000
,
0001
0000
1000
0000
0001
0010
0001
0000
,
0020
0001
1000
0001
,
1030
0000
0001
0000
1000
0010
1000
0000
,
0020
1000
0001
1000
,
0031
0100
0010
1000
0000
0001
0000
0001
,
1000
0100
0010
0001
0000
1000
0000
1000
,
0001
0101
1000
1100
,
0001
1000
0001
1000
0001
1000
0001
1000
,
0002
0100
0100
0103
,
0020
0100
0130
0000
,
2000
0100
0100
3100
,
0020
0100
0130
0000
,
0002
0103
2000
3100
,
0002
0013
2000
3010
,
0002
1003
0200
0310
,
0001
0100
0010
0000
,
1000
0100
0001
0000
0001
0100
1000
0000
,
0100
0010
0100
0000
0010
0000
1001
0000
,
0001
0100
1000
0000
1000
0100
0001
0000
,
0100
0010
0100
0000
0010
0000
1001
0000
,
1000
0010
0001
0100
,
1000
0010
0001
0100
,
1000
0001
1000
0001
1000
0001
1000
0001
,
0010
0100
0010
0100
0010
0100
0010
0000
,
1001
0000
0001
0000
0100
0010
1000
0000
,
1001
0000
1000
0000
0100
0010
0001
0000
,
1001
0000
0001
0000
0010
0100
1000
0000
,
1001
0000
1000
0000
0010
0100
0001
0000
,
1000
0100
0001
0000
0100
0000
0110
0000
,
0001
0100
1000
0000
0100
0000
0110
0000
,
1000
0010
0001
0000
0010
0000
0110
0000
,
0001
0010
1000
0000
0010
0000
0110
0000
,
1000
0000
1010
0000
0001
0100
1000
0000
,
0100
0000
0011
0000
1000
0100
0001
0000
,
0100
0000
1010
0000
0001
0010
1000
0000
,
0010
0000
0101
0000
1000
0010
0001
0000
,
0010
0000
1100
0000
0001
0100
0001
0100
,
0010
0000
0101
0000
1000
0100
1000
0100
,
0010
0000
0011
0000
0001
1000
0001
1000
,
0010
0110
2000
3002
,
0203
0000
0010
0000
0010
0010
0310
0000
,
1000
0002
0203
0320
,
2030
0000
0100
0000
0100
0100
3100
0000
,
0020
0032
0203
0320
,
2030
0100
0001
3100
,
0002
0100
1000
0103
,
2000
3010
0002
0013
,
2000
3100
0002
0103
,
1000
0100
0010
0000
0001
0000
0100
0000
,
0001
0100
0010
0000
1000
0000
0100
0000
,
0010
0000
0010
0000
0001
0100
0001
0100
,
0010
0000
0100
0000
0010
1000
0010
1000
,
0001
0010
1000
0100
,
0001
0010
1000
0100
,
0001
1000
0001
1000
0001
1000
0001
1000
,
0010
0100
0010
0100
0010
0100
0010
0000
,
2002
0000
0000
0000
,
0000
0000
0000
3003
;

//---------------dance-single - NewbStepper-ESP----------------
#NOTEDATA:;
#CHARTNAME:NewbStepper-ESP;
#STEPSTYPE:dance-single;
#DESCRIPTION:NewbStepper-ESP;
#CHARTSTYLE:;
#DIFFICULTY:Hard;
#METER:12;
#CREDIT:NewbStepper;
#NOTES:
0000
0000
0000
0000
,
0000
0000
0000
0000
,
0000
0000
0000
0000
,
0000
0000
0000
0000
,
0000
0000
0000
0000
,
1000
0000
1100
0000
0010
0100
0010
0000
,
0001
0000
0101
0000
0010
0100
0010
0000
,
1000
0000
1001
0000
0001
1000
0001
0000
,
1000
1010
0000
1001
0000
0101
0000
0000
,
1001
0100
0100
0100
,
0011
0001
0100
0000
1010
1000
0100
0000
,
1000
0000
0010
0000
1010
0000
0000
0000
1000
0000
0100
0000
0010
0001
0000
0000
,
1000
0000
0100
0000
0001
0000
0100
1000
,
0001
0100
0100
0100
,
1010
1000
0100
0000
0011
0001
0100
0000
,
0001
0000
0010
0000
0011
0000
0000
0000
0001
0000
0100
0000
0010
1000
0000
0000
,
0002
0000
0000
0000
0003
0000
1000
0100
0010
0000
0001
0000
0100
0000
0010
0000
,
1000
0001
0100
1000
0100
0001
0100
0010
,
1000
0000
0001
0000
0000
0100
0000
0000
0010
0000
0000
0000
1001
0000
0000
0000
,
0001
1000
0100
0001
0100
1000
0100
0010
,
0000
0000
0001
1000
0001
0000
0010
0100
0010
0000
0001
1000
0001
0000
0100
0010
,
0100
0000
0000
0001
0000
0000
0010
0000
0200
0000
0000
0000
0300
0000
1000
0010
,
0100
0000
0000
0000
0000
0000
0000
0000
0110
0000
0000
0000
0000
0000
0001
0010
,
0100
0000
0000
1000
0000
0000
0010
0000
0100
0000
0000
0001
0000
0000
0010
0000
,
0100
0001
0100
1000
0010
0001
0010
1000
,
0100
0000
0000
0000
0100
0000
0000
0000
0010
0000
0000
0001
0000
0000
1000
0000
,
0000
0010
0000
0000
0100
0000
0000
0000
0100
0000
0000
0001
0000
0000
1000
0000
,
0100
0000
0000
0000
0100
0000
0000
0000
0010
0000
0000
0001
0000
0000
0100
0000
,
0000
0010
0000
0000
1000
0000
0001
0000
0100
0010
0000
0100
0010
0000
1000
0000
,
0001
0000
0100
0000
1000
0000
0100
0000
0001
0000
0000
0001
0000
0000
0001
0000
,
1000
0000
0100
0000
0001
0000
0100
0000
1000
0000
0000
1000
0000
0000
1000
0000
,
0001
0001
0100
0100
0010
0010
1000
1000
,
0001
0100
0010
1000
0100
0001
0100
1000
,
0002
0100
0100
0103
,
2000
0100
3100
0000
,
0002
0010
0010
0013
,
2000
0010
3010
0000
,
0012
0103
2010
3100
,
2100
3010
0102
0013
,
0100
0000
0000
1000
0000
0000
0010
0000
0100
0000
0000
0001
0000
0000
0010
0000
,
0001
0000
0000
0100
0000
0000
1000
0000
0100
0000
0000
0001
0000
0000
1000
0000
,
0100
1000
0001
1000
0100
0001
1000
0010
,
0001
0000
0100
0000
0010
0000
1000
0100
0010
0000
0001
0000
1000
0000
0010
0000
,
0100
0001
1000
0001
0100
1000
0001
0010
,
1000
0000
0100
0000
0010
0000
0001
0000
1000
0010
0000
1000
0010
0000
0100
0000
,
0002
0000
0000
0100
0000
0000
0100
0000
0000
0100
0000
0000
0100
0000
0000
0100
,
0000
0000
0100
0000
0000
0100
0000
0000
0100
0000
0000
0103
0000
0000
0010
0000
,
1000
1000
0100
0100
0010
0010
0001
0001
,
1000
0100
0010
0001
0100
1000
0100
0001
,
2000
0000
0000
0000
3010
0000
1000
0000
0100
0000
0000
0010
0000
0000
0001
0000
,
0200
0000
0000
0000
0310
0000
1000
0000
0001
0000
0000
0100
0000
0000
1000
0000
,
0002
0000
0000
0000
0013
0000
0100
0000
0001
0000
0000
1000
0000
0000
0100
0000
,
0002
0000
0103
0010
1000
0001
0100
1000
,
0002
0000
0000
0000
0013
0000
0001
0000
0100
0000
0000
0010
0000
0000
1000
0000
,
0200
0000
0000
0000
0310
0000
0001
0000
1000
0000
0000
0100
0000
0000
0001
0000
,
2000
0000
0000
0000
3010
0000
0100
0000
1000
0000
0000
0001
0000
0000
0100
0000
,
2000
0000
3100
0010
0001
1000
0100
0001
,
1000
0010
1000
0100
0001
1000
0001
0100
,
0010
0001
0100
1000
0001
1000
0100
0010
,
0100
0001
0010
1000
0001
1000
0010
0100
,
0001
1000
0010
0001
0100
1000
0001
1000
,
0100
0010
1000
0100
0001
0100
1000
0010
,
0100
0001
0100
1000
0100
0001
0100
0010
,
1000
0010
0001
0010
1000
0010
0100
0001
,
0010
0000
1000
0000
0010
0000
0001
0000
0100
0000
0000
0100
0001
0000
1000
0000
,
0010
0100
1000
0001
0010
0100
0001
0010
,
0100
0001
1000
0010
0100
1000
0010
0100
,
1000
0001
0010
0100
0001
1000
0100
0010
,
0002
0203
0320
2030
,
3010
0100
1000
0100
0010
1000
0100
0010
,
0100
0001
0100
0010
0001
0100
1000
0001
,
0010
1000
0001
0100
0010
0001
1000
0100
,
0001
0100
1000
0001
0010
1000
0001
0010
,
0100
0000
0000
0000
0100
0000
0000
0000
0010
0000
0000
0001
0000
0000
1000
0000
,
0000
0010
0000
0000
0100
0000
0000
0000
0100
0000
0000
0001
0000
0000
1000
0000
,
0100
0000
0000
0000
0100
0000
0000
0000
0010
0000
0000
0001
0000
0000
0100
0000
,
0010
0000
0100
0000
0001
0000
1000
0000
0001
0010
0000
0001
0010
0000
0100
0000
,
2000
0000
0000
0100
0000
0000
0100
0000
0000
0100
0000
0000
0100
0000
0000
0100
,
0000
0000
0100
0000
0000
0100
0000
0000
0100
0000
0000
3100
0000
0000
0010
0000
,
0001
0001
0100
0100
0010
0010
1000
1000
,
0001
0000
0100
0000
0010
0000
1000
0000
0100
0000
0001
0000
0100
0000
1000
0001
,
2000
0000
0000
0000
,
0000
0000
0000
3000
;

//---------------dance-single - NewbStepper-CSP----------------
#NOTEDATA:;
#CHARTNAME:NewbStepper-CSP;
#STEPSTYPE:dance-single;
#DESCRIPTION:NewbStepper-CSP;
#CHARTSTYLE:;
#DIFFICULTY:Challenge;
#METER:15;
#CREDIT:NewbStepper;
#NOTES:
0000
0000
0000
0000
,
0000
0000
0000
0000
,
0000
0000
0000
0000
,
0000
0000
0000
0000
,
0000
0000
0000
0000
,
0001
0000
0100
0000
1000
0000
0000
0000
0100
0000
0001
0000
1000
0010
0000
0000
,
1000
0000
0100
0000
0001
0000
0000
0000
0100
0000
1000
0000
0001
0010
0000
0000
,
0100
0000
1000
0000
0010
0000
0000
0000
0100
0000
0001
0000
0010
0100
0000
0000
,
0010
0110
0000
1100
0000
1001
0000
0000
,
1000
0100
0001
0000
1000
0010
0001
0000
,
0101
0001
0011
0000
1100
1000
1010
0000
,
0010
0000
1000
0000
0100
0000
0000
0000
0001
0000
0100
0000
1000
0001
0000
0000
,
0010
0000
0001
0000
0100
0000
0000
0000
1000
0000
0100
0000
0001
1000
0000
0000
,
0001
0100
1000
0000
0001
0010
1000
0000
,
1100
1000
1010
0000
0101
0001
0011
0000
,
0010
0000
0001
0000
0100
0000
0000
0000
1000
0000
0100
0000
0001
1000
0000
0000
,
0010
0000
0100
0000
0010
0000
1000
0100
0010
0000
0001
0000
0100
0000
1000
0000
,
0100
0000
0001
0100
0001
0100
0010
0000
1000
0100
1000
0100
0010
0001
0010
0000
,
0100
0000
1000
0100
1000
0100
0010
0000
0001
0100
0001
0100
0010
1000
0010
0000
,
1000
0000
0001
0010
0001
0010
0100
0000
1000
0010
1000
0010
0100
0001
0100
0000
,
0001
0000
0100
0010
1000
0000
0100
0010
0001
0000
0100
0010
1000
0000
0100
0010
,
0001
0000
0100
0010
0000
0100
0010
0000
0220
0000
0000
0000
0330
0000
0001
1000
,
0010
0000
0000
0000
0000
0000
0000
0000
0110
0000
0000
0000
0000
0000
0100
0010
,
1000
0000
0100
0010
0000
0100
0010
0000
0001
0000
0100
0010
0000
0100
0010
0000
,
1000
0100
0001
0100
1000
0010
0001
0010
,
1000
0000
0000
0000
1100
0000
0000
0000
0011
0000
0000
1001
0000
0000
1100
0000
,
0000
0110
0000
0000
0011
0000
0000
0001
2000
0000
0000
0001
0000
0000
0001
0000
,
3001
0000
0000
0000
0101
0000
0000
0000
1010
0000
0000
1001
0000
0000
0101
0000
,
0000
0110
0000
0000
1010
0000
0000
0000
1000
0001
0000
1000
0100
0001
0100
0000
,
0110
0000
0010
0000
0011
0000
0010
0000
0000
0000
0001
1000
0000
0010
0100
0000
,
0110
0000
0010
0000
1010
0000
0010
0000
1000
0100
0000
0010
0001
1000
0001
0000
,
1000
0000
0001
0100
1000
0000
1000
0100
0001
0000
0001
0010
1000
0000
1000
0010
,
0001
0100
0001
1000
0100
1000
0001
0100
0010
1000
0001
0010
0100
1000
0010
0100
,
0002
0000
0000
0100
0000
0000
0010
0000
2003
0000
0000
0100
0000
0000
0010
0000
,
3002
0000
0000
0100
0000
0000
1000
0000
0013
0000
0000
0000
0000
0000
0010
0100
,
2000
0000
0000
0100
0000
0000
0010
0000
3002
0000
0000
0100
0000
0000
0010
0000
,
2003
0000
0000
0100
0000
0000
3001
0100
1000
0000
0000
0000
0100
0000
0000
0000
,
0101
0000
0000
0100
0000
0000
0010
0000
1010
0000
0000
1000
0000
0000
0010
0000
,
0110
0000
0000
0100
0000
0000
0001
0000
0011
0000
0000
0010
0000
0000
1000
0000
,
1010
0000
0000
0010
0000
0000
0001
0000
0101
0000
0000
0100
0000
0000
1000
0000
,
1100
0000
0000
0100
0000
0000
0010
0000
0110
0000
0000
0100
0000
0000
0001
0000
,
1000
0000
0100
1000
0000
1000
0010
0000
0100
0000
1000
0100
0000
0100
0001
0000
,
0010
0000
0001
0100
0000
0100
0010
1000
0100
0000
0001
0100
0000
0100
0010
0000
,
0001
0000
0100
0001
0000
0001
0010
0000
0100
0000
0001
0100
0000
0100
1000
0000
,
1010
0000
0000
0101
0000
0000
1001
0000
1000
0100
0000
0010
0001
1000
0001
0000
,
1001
0000
0000
1100
0000
0000
0110
0000
0000
0101
0000
0000
1100
0000
1000
0010
,
0100
0000
0110
0000
0000
0011
0000
0000
0110
0000
0000
0101
0000
0000
0100
0010
,
1000
1000
0001
0001
0100
0100
0010
0010
,
1000
0100
0010
0100
1000
0100
0001
0100
0010
0001
0010
0100
1000
0010
0100
0001
,
0020
0000
0000
0000
0031
0000
0100
0000
1000
0100
0000
0010
0100
0000
0001
1000
,
0200
0000
0000
0000
0301
0000
0100
0000
0010
0001
0000
0100
1000
0000
0100
0010
,
2000
0000
0000
0000
3010
0000
0001
0000
1000
0100
0000
0001
0010
0000
0001
0100
,
0020
0000
0000
0000
1030
0000
0010
0000
0100
0000
0001
0010
0100
1000
0001
0100
,
0020
0000
0000
0000
1030
0000
0100
0000
0001
0100
0000
0010
0100
0000
1000
0001
,
0200
0000
0000
0000
1300
0000
0100
0000
0010
1000
0000
0100
0001
0000
0100
0010
,
0002
0000
0000
0000
0013
0000
1000
0000
0001
0100
0000
1000
0010
0000
1000
0100
,
0020
0000
0031
0100
1000
0100
0010
0110
,
1001
0000
1000
0100
0010
0000
0001
0000
1000
0100
1000
0001
0100
0001
1000
0100
,
0010
0000
0001
0100
0010
0000
1000
0000
0001
0100
0001
1000
0100
1000
0001
0100
,
0010
0000
1000
0010
0100
0000
0001
0000
1000
0010
0100
0001
0010
0001
0100
0010
,
1000
0000
0001
0010
0100
0000
1000
0000
0010
0100
0000
0000
0101
0000
0000
0000
,
0001
0000
0100
0000
1000
0000
0100
0001
1000
0000
0100
0001
0000
0100
0010
0001
,
1000
0000
0100
0000
0001
0000
0100
1000
0001
0000
0100
1000
0000
0100
0010
1000
,
0001
0000
0010
0000
1000
0000
0010
0000
0001
0100
0010
1000
0100
1000
0010
0100
,
0001
0000
1000
0010
0100
0000
0001
0010
0200
0000
0000
0000
0320
0000
0000
0000
,
0031
0000
0100
0000
0010
0000
1000
0000
0010
0100
0010
1000
0100
0010
0001
0100
,
0010
0000
1000
0000
0100
0000
0010
0000
0001
1000
0100
1000
0001
0100
0010
1000
,
0100
0000
0001
0000
0100
0000
1000
0000
0100
0010
0100
1000
0010
0100
0001
0010
,
0200
2300
3002
0203
,
1300
0000
0100
0000
0001
0000
0100
0010
0001
0000
0010
1000
0100
0010
0001
0010
,
0100
0000
0001
0000
0100
0000
1000
0010
0100
0000
1000
0100
0010
0100
0001
0010
,
0100
0000
0010
0000
0001
0000
0100
0010
1000
0000
0100
1000
0100
0001
0100
0010
,
0001
0000
0010
0000
1000
0000
0010
0001
0100
0000
1000
0100
0010
1000
0100
0010
,
0001
0000
0000
0000
0101
0000
0000
0000
1010
0000
0000
1001
0000
0000
0101
0000
,
0000
0110
0000
0000
1010
0000
0000
1000
0002
0000
0000
1000
0000
0000
1000
0000
,
1003
0000
0000
0000
1100
0000
0000
0000
0011
0000
0000
1001
0000
0000
1100
0000
,
0000
0110
0000
0000
0011
0000
0000
0000
0001
0100
0000
0010
1000
0001
1000
0000
,
1001
0000
0000
0101
0000
0000
0110
0000
0000
1100
0000
0000
0101
0000
0001
0010
,
0100
0000
0110
0000
0000
1010
0000
0000
0110
0000
0000
0101
0000
0000
0100
0010
,
0001
0001
1000
1000
0100
0100
0010
0010
,
0001
0100
0010
0100
0001
0100
1000
0100
0010
1000
0010
0100
0001
0010
0100
1000
,
0020
0000
0000
0000
,
0000
0000
0000
0030
;

//---------------dance-double - NewbStepper-BDP----------------
#NOTEDATA:;
#CHARTNAME:NewbStepper-BDP;
#STEPSTYPE:dance-double;
#DESCRIPTION:NewbStepper-BDP;
#CHARTSTYLE:;
#DIFFICULTY:Easy;
#METER:6;
#CREDIT:NewbStepper;
#NOTES:
00000000
00000000
00000000
00000000
,
00000000
00000000
00000000
00000000
,
00000000
00000000
00000000
00000000
,
00000000
00000000
00000000
00000000
,
00000000
00000000
00000000
00000000
,
20000000
00000000
00000000
30000000
,
00000000
00000000
00000000
00000000
,
00020000
00000000
00000000
00030000
,
00000000
00000000
00000000
00000000
,
00200000
00000000
00000000
00000000
,
00302000
00000000
00023000
00000000
,
00030020
00000000
00000000
00000000
,
00000000
00000000
00002030
00000000
,
00003002
00000000
00000000
00000000
,
00000203
00000000
00000000
00002300
,
00023000
00000000
00000000
00000000
,
00002000
00000000
00033000
00000000
,
00011000
00001000
01000000
00000000
,
00100000
00000000
00100000
00000000
,
10010000
10000000
01000000
00000000
,
00010000
00010000
00010000
00010000
,
00001000
00000100
00000001
00000000
,
00000101
00000000
00001100
00000000
,
00010000
01000000
10000000
01000000
,
00020000
00032000
00003200
00000320
,
00001030
00000100
00001000
00000000
,
00000100
00010000
00000100
00000000
,
00010000
00001000
00010000
00000000
,
00001000
00100000
00001000
00000000
,
00010000
00010000
00000000
00000000
,
10000000
10000000
00000000
00000000
,
01000000
00100000
01000000
00100000
,
02200000
00000000
00000000
03300000
,
20000000
00000000
00000000
00000000
,
30000000
00000000
00000000
00000000
,
00020000
00000000
00000000
00000000
,
00030000
00000000
00000000
00000000
,
00100000
00001000
00100000
00001000
,
00100000
00001000
00100000
00001000
,
00010000
00000100
00010000
00000100
,
00010000
00000100
00001000
00000000
,
00000001
00000100
00000010
00000100
,
00001000
00010000
00100000
00000000
,
10000000
01000000
00100000
01000000
,
00010000
00001000
00000010
00000000
,
00000001
00000100
00000010
00001000
,
00000100
00010000
00001000
00100000
,
00010000
01000000
00010000
01000000
,
00100000
10000000
00100000
10000000
,
00010000
00000000
10000000
01000000
,
10000000
00000000
01000000
00010000
,
01000000
00000000
00010000
00001000
,
00010000
00000000
00001000
00000010
,
00001000
00000000
00000010
00000001
,
00000100
00000000
00000010
00001000
,
00000100
00000000
00100000
00010000
,
01000000
00000000
00100000
10000000
,
01000000
00100000
01000000
00010000
,
00001000
00000010
00000100
00000010
,
00000001
00000100
00000010
00000100
,
00001000
00010000
00100000
01000000
,
00100000
10000000
01000000
00010000
,
01000000
00100000
00001000
00010000
,
00000100
00000010
00001000
00000010
,
00000001
00000100
00000010
00001000
,
00000002
00000000
00000000
00000000
,
00000000
00002003
00003200
00020300
,
00032000
00000000
00000000
02003000
00000000
00000000
03200000
00000000
,
20300000
32000000
03200000
00320000
,
02030000
00000000
00010000
00000000
,
03002000
00000000
00100000
00023000
,
00030200
00000000
00002300
00000000
,
00003002
00000000
00000203
00000000
,
00001300
00010000
00100000
10000000
,
00010000
10000000
01000000
00010000
,
00001000
00000010
00000001
00000100
,
00001000
00010000
00100000
00000000
,
10000000
01000000
00100000
00010000
,
01000000
00001000
00010000
00000010
,
00001000
00000100
00001000
00000100
,
00000010
00000001
00000010
00000001
,
00002002
00000000
00000000
00000000
,
00000000
00000000
00000000
00003003
;

//---------------dance-double - NewbStepper-DDP----------------
#NOTEDATA:;
#CHARTNAME:NewbStepper-DDP;
#STEPSTYPE:dance-double;
#DESCRIPTION:NewbStepper-DDP;
#CHARTSTYLE:;
#DIFFICULTY:Medium;
#METER:10;
#CREDIT:NewbStepper;
#NOTES:
00000000
00000000
00000000
00000000
,
00000000
00000000
00000000
00000000
,
00000000
00000000
00000000
00000000
,
00000000
00000000
00000000
00000000
,
00000000
00000000
00000000
00000000
,
00010000
00001000
01000000
01000000
,
00001000
00010000
00000100
00000100
,
00010000
00001000
00100000
00100000
,
01000000
01000000
00000000
01000000
00000000
01000000
00000000
00000000
,
20010000
00010000
00010000
00010000
,
32000000
03020000
00032000
00003200
,
00000302
00000010
00000010
00000010
,
00002003
00000001
00000002
00003003
,
00001002
00001000
00001000
00001000
,
00000203
00002300
00023000
02030000
,
23000000
00100000
00100000
30100000
,
02200000
03300000
00010000
00000000
00001000
00000000
00000100
00000000
,
00000001
00000000
00001000
00000100
00000000
00000001
00000000
00000100
,
00000000
00000000
00010000
00000000
00000000
00001000
00000000
00000000
00100000
00000000
00000000
00000000
00010000
00000000
00000000
00000000
,
10000000
00000000
00010000
01000000
00000000
10000000
00000000
01000000
,
00000000
00010000
00100000
00001000
00010000
00000010
00001000
00000100
,
00000020
00000001
00000130
00000000
,
00000110
00000000
00011000
00000000
,
00200000
10000000
01300000
00100000
,
10000000
01000000
00100000
00010000
00100000
00001000
00010000
00000010
,
00001000
00000000
00000001
00000000
00000010
00000100
00000010
00000000
,
00002000
00100000
00010000
00103000
,
00010000
00000000
10000000
00000000
00100000
01000000
00100000
00000000
,
00020000
00000010
00001000
00030010
,
00010000
00001000
00000100
00000010
00000000
00000100
00000000
00000100
,
00001000
00010000
01000000
00100000
00000000
01000000
00000000
01000000
,
10000000
00010000
00001000
00000001
,
00000010
00000100
00000010
00000100
00000010
00000100
00000010
00000100
,
00000020
00000100
00000100
00000130
,
00020000
00001000
00031000
00000000
,
00200000
01000000
01000000
01300000
,
00002000
00010000
00013000
00000000
,
00000020
00000031
00000200
00001300
,
00020000
00130000
20000000
31000000
,
00020000
00031000
00000020
00000031
,
00001000
00000100
00000010
00000000
,
00000001
00000100
00001000
00000000
00000100
00001000
00010000
00000000
,
01000000
00100000
01000000
00000000
00100000
00000000
10010000
00000000
,
10000000
01000000
00010000
00000000
01000000
00010000
00001000
00000000
,
00000100
00000010
00000100
00000000
00000010
00000000
00001001
00000000
,
00000001
00000010
00001000
00010000
,
00001000
00000100
00000001
00000010
,
00001000
00010000
00001000
00010000
00001000
00010000
00001000
00000000
,
00100000
01000000
00100000
01000000
00100000
01000000
00100000
00000000
,
10010000
00000000
10000000
00000000
01000000
00010000
00001000
00000000
,
00011000
00000000
00010000
00000000
00001000
00000010
00000001
00000000
,
00001001
00000000
00000001
00000000
00000100
00001000
00010000
00000000
,
00011000
00000000
00001000
00000000
00010000
00100000
10000000
00000000
,
01000000
00010000
00001000
00000000
00010000
00000000
00011000
00000000
,
00000100
00001000
00010000
00000000
00001000
00000000
00011000
00000000
,
00100000
00010000
00001000
00000000
00010000
00000000
00011000
00000000
,
00000010
00001000
00010000
00000000
00001000
00000000
00011000
00000000
,
00010000
00001000
00000100
00000000
00000001
00000100
00001000
00000000
,
00001000
00010000
01000000
00000000
10000000
01000000
00010000
00000000
,
00010000
00001000
00000010
00000000
00000001
00000010
00001000
00000000
,
00001000
00010000
00100000
00000000
10000000
00100000
00010000
00000000
,
00001000
00000000
00011000
00000000
00010000
01000000
10000000
01000000
,
00100000
00000000
01100000
00000000
01000000
00010000
00001000
00010000
,
00001000
00000000
00011000
00000000
00001000
00000100
00000001
00000100
,
00000010
00000110
00002000
00003002
,
00000203
00000000
00001000
00000000
00001000
00001000
00001300
00000000
,
00010000
00200000
20300000
30020000
,
02030000
00100000
10000000
03010000
,
20000000
32000000
03020000
00032000
,
00003020
00000001
00000100
00000001
,
00000230
00001000
00010000
00001000
,
00020300
00031000
00000020
00001030
,
00020000
00031000
00000200
00001300
,
00010000
01000000
00100000
00000000
00001000
00000000
00010000
00000000
,
00001000
00000100
00000010
00000000
00010000
00000000
00001000
00000000
,
00000100
00000000
00000001
00000000
00000010
00000100
00000010
00001000
,
00010000
00000000
01000000
00000000
00100000
01000000
00100000
00010000
,
10000000
00100000
00010000
00001000
,
00010000
01000000
10000000
00100000
,
00010000
00001000
00010000
00001000
00010000
00001000
00010000
00000000
,
00000010
00000100
00000010
00000100
00000010
00000100
00000010
00000000
,
00002002
00000000
00000000
00000000
,
00000000
00000000
00000000
00003003
;

//---------------dance-double - NewbStepper-EDP----------------
#NOTEDATA:;
#CHARTNAME:NewbStepper-EDP;
#STEPSTYPE:dance-double;
#DESCRIPTION:NewbStepper-EDP;
#CHARTSTYLE:;
#DIFFICULTY:Hard;
#METER:13;
#CREDIT:NewbStepper;
#NOTES:
00000000
00000000
00000000
00000000
,
00000000
00000000
00000000
00000000
,
00000000
00000000
00000000
00000000
,
00000000
00000000
00000000
00000000
,
00000000
00000000
00000000
00000000
,
00001000
00000000
00010000
00000000
00001000
00010000
00000010
00000000
,
00010000
00000000
00001000
00000000
00010000
00001000
00100000
00000000
,
00010000
00000000
10010000
00000000
10000000
01000000
00010000
00000000
,
00001000
00000100
00000000
00000001
00000000
00000010
00000000
00000000
,
00001001
00000010
00000010
00000010
,
00000001
00000100
00001000
00000000
00010000
01000000
10000000
00000000
,
00100000
00000000
01000000
00000000
00010000
00000000
00000000
00000000
00001000
00000000
00000100
00000000
00000010
00000001
00000000
00000000
,
00000100
00000000
00001000
00000000
00010000
00001000
00010000
00100000
,
10000000
00100000
00100000
00100000
,
10000000
01000000
00010000
00000000
00001000
00000100
00000001
00000000
,
00000010
00000000
00000100
00000000
00001000
00000000
00000000
00000000
00010000
00000000
01000000
00000000
00100000
10000000
00000000
00000000
,
00020000
00000000
00000000
00000000
00030000
00000000
10000000
01000000
00100000
00000000
01000000
00000000
00010000
00000000
00001000
00000000
,
00000010
00000001
00000100
00000010
00000100
00001000
00010000
00000100
,
00000010
00000000
00000001
00000000
00000000
00000100
00000000
00000000
00001000
00000000
00000000
00000000
00011000
00000000
00000000
00000000
,
00010000
00001000
00100000
01000000
10000000
00100000
00010000
00001000
,
00000000
00000000
01000000
00100000
01000000
00000000
00010000
01000000
00010000
00000000
00100000
00001000
00100000
00000000
00001000
00010000
,
00001000
00000000
00000000
00000010
00000000
00000000
00000001
00000000
00000200
00000000
00000000
00000000
00000300
00000000
00000010
00010000
,
00001000
00000000
00000000
00000000
00000000
00000000
00000000
00000000
00011000
00000000
00000000
00000000
00000000
00000000
00100000
00001000
,
00010000
00000000
00000000
00100000
00000000
00000000
10000000
00000000
01000000
00000000
00000000
00100000
00000000
00000000
01000000
00000000
,
10000000
00100000
01000000
00010000
00100000
00001000
00010000
00001000
,
00000010
00000000
00000000
00000000
00000010
00000000
00000000
00000000
00000001
00000000
00000000
00000100
00000000
00000000
00001000
00000000
,
00000000
00010000
00000000
00000000
01000000
00000000
00000000
00000000
10000000
00000000
00000000
00010000
00000000
00000000
01000000
00000000
,
00100000
00000000
00000000
00000000
00100000
00000000
00000000
00000000
10000000
00000000
00000000
01000000
00000000
00000000
00010000
00000000
,
00000000
00001000
00000000
00000000
00000100
00000000
00000000
00000000
00000001
00001000
00000000
00000001
00001000
00000000
00000100
00000000
,
00010000
00000000
00001000
00000000
00000100
00000000
00001000
00000000
00000000
00000000
00000000
00100000
00010000
00000000
00100000
00000000
,
00001000
00000000
00010000
00000000
01000000
00000000
00010000
00000000
00001000
00000100
00000000
00000010
00000100
00000000
00000001
00000000
,
00001000
00001000
00000100
00000100
00010000
00010000
00001000
00001000
,
00010000
01000000
10000000
00100000
10000000
01000000
00100000
00010000
,
00002000
00000100
00000001
00000010
,
00023000
00000000
00000000
00000000
01000000
00000000
00000000
00000000
10030000
00000000
00000000
00000000
00000000
00000000
00100000
10000000
,
00020000
01000000
10000000
00100000
,
00032000
00000100
00003001
00000000
,
00000012
00000103
00002010
00003100
,
00120000
01030000
20100000
31000000
,
10000000
00000000
00000000
01000000
00000000
00000000
00010000
00000000
01000000
00000000
00000000
00100000
00000000
00000000
00001000
00000000
,
00010000
00000000
00000000
00000100
00000000
00000000
00000010
00000000
00000100
00000000
00000000
00001000
00000000
00000000
00000001
00000000
,
00000100
00001000
00010000
00001000
00000010
00001000
00010000
00100000
,
00010000
00000000
00001000
00000000
00100000
00000000
00010000
01000000
00100000
00000000
10000000
00000000
00010000
00000000
10000000
00000000
,
01000000
00010000
00001000
00010000
00100000
00010000
00001000
00000010
,
00001000
00000000
00010000
00000000
00000010
00000000
00001000
00000000
00000001
00000010
00000000
00000001
00000010
00000000
00000100
00000000
,
00002000
00000000
00000000
00000010
00000000
00000000
00000010
00000000
00000000
00000010
00000000
00000000
00000010
00000000
00000000
00000010
,
00000000
00000000
00000010
00000000
00000000
00000010
00000000
00000000
00000010
00000000
00000000
00003010
00000000
00000000
00010000
00000000
,
00001000
00010000
01000000
10000000
00010000
10000000
00100000
00010000
,
00001000
00100000
00010000
00001000
00000100
00001000
00000001
00000100
,
00002000
00000000
00013000
01000000
10000000
00100000
01000000
10000000
,
02000000
00000000
13000000
01000000
00010000
10000000
00100000
00010000
,
00002000
00000000
00013000
00001000
00000010
00000100
00001000
00000010
,
00000002
00000000
00001003
00000100
00000001
00001000
00000010
00010000
,
00002000
00000000
00003010
00000100
00010000
00001000
00000100
00000010
,
00020000
00000000
00031000
00010000
01000000
10000000
00100000
01000000
,
20000000
00000000
30010000
00100000
10000000
00010000
00100000
01000000
,
00020000
00000000
00031000
00000100
00000001
00000100
00000010
00000001
,
00001000
00000001
00000010
00001000
00000001
00000010
00001000
00010000
,
00001000
00100000
00010000
00001000
00010000
00100000
00001000
01000000
,
00100000
00010000
10000000
01000000
00100000
10000000
01000000
00010000
,
00001000
00010000
00100000
00001000
00010000
01000000
00100000
00010000
,
00001000
00000010
00000100
00000010
00000001
00000100
00001000
00010000
,
00001000
00000010
00000100
00001000
00010000
00001000
00000100
00000010
,
00001000
00010000
00001000
01000000
00100000
00010000
00001000
00010000
,
00100000
00000000
01000000
00000000
00010000
00000000
00001000
00000000
00010000
00000000
00000000
00010000
01000000
00000000
00100000
00000000
,
10000000
01000000
00010000
00001000
00100000
00010000
00001000
00000010
,
00000001
00001000
00000001
00000010
00001000
00000100
00000010
00001000
,
00010000
00100000
00001000
00010000
01000000
10000000
00010000
10000000
,
02000000
03020000
00230000
00302000
,
00013000
00001000
00000010
00010000
00000010
00001000
00010000
00100000
,
00001000
00100000
00010000
00001000
00100000
00010000
00001000
00010000
,
00100000
10000000
00010000
01000000
00100000
00001000
01000000
00010000
,
00001000
00000010
00010000
00001000
00000100
00000001
00001000
00000001
,
00000010
00000000
00000000
00000000
00000010
00000000
00000000
00000000
00000001
00000000
00000000
00000100
00000000
00000000
00001000
00000000
,
00000000
00010000
00000000
00000000
01000000
00000000
00000000
00000000
10000000
00000000
00000000
00010000
00000000
00000000
01000000
00000000
,
00100000
00000000
00000000
00000000
00100000
00000000
00000000
00000000
10000000
00000000
00000000
01000000
00000000
00000000
00010000
00000000
,
00000000
00001000
00000000
00000000
00000100
00000000
00000000
00000000
00000001
00000010
00000000
00000001
00000010
00000000
00000100
00000000
,
00002000
00000000
00000000
00000010
00000000
00000000
00000010
00000000
00000000
00000010
00000000
00000000
00000010
00000000
00000000
00000010
,
00000000
00000000
00000010
00000000
00000000
00000010
00000000
00000000
00000010
00000000
00000000
00003010
00000000
00000000
00010000
00000000
,
00001000
00010000
01000000
10000000
00010000
10000000
00100000
00010000
,
00001000
00000000
00000010
00000000
00000001
00000000
00000100
00000000
00001000
00000000
00010000
00000000
01000000
00000000
10000000
00010000
,
20000000
00000000
00000000
00000000
,
00000000
00000000
00000000
30000000
;

//---------------dance-double - NewbStepper-CDP----------------
#NOTEDATA:;
#CHARTNAME:NewbStepper-CDP;
#STEPSTYPE:dance-double;
#DESCRIPTION:NewbStepper-CDP;
#DIFFICULTY:Challenge;
#METER:16;
#CREDIT:NewbStepper;
#NOTES:
00000000
00000000
00000000
00000000
,
00000000
00000000
00000000
00000000
,
00000000
00000000
00000000
00000000
,
00000000
00000000
00000000
00000000
,
00000000
00000000
00000000
00000000
,
00000001
00000000
00000100
00000000
00001000
00000000
00000000
00000000
00010000
00000000
00100000
00000000
10000000
00010000
00000000
00000000
,
10000000
00000000
01000000
00000000
00010000
00000000
00000000
00000000
00001000
00000000
00000010
00000000
00000001
00001000
00000000
00000000
,
00000100
00000000
00010000
00000000
00001000
00000000
00000000
00000000
00000010
00000000
00000100
00000000
00010000
00001000
00000000
00000000
,
00100000
01100000
00000000
10010000
00000000
00110000
00000000
00000000
,
10000000
01000000
00010000
00000000
00001000
00000010
00000001
00000000
,
00000100
00001000
00010000
00000000
01000000
00010000
00001000
00000000
,
00000010
00000000
00000001
00000000
00000100
00000000
00000000
00000000
00001000
00000000
00010000
00000000
01000000
10000000
00000000
00000000
,
00100000
00000000
10000000
00000000
01000000
00000000
00000000
00000000
00010000
00000000
00001000
00000000
00000010
00000000
00000001
00000100
,
00000001
00000100
00001000
00000000
00010000
00100000
10000000
00000000
,
01000000
00010000
00001000
00000000
00000100
00001000
00010000
00000000
,
00100000
00000000
10000000
00000000
01000000
00000000
00000000
00000000
00010000
00000000
00001000
00000000
00000100
00000001
00000000
00000000
,
00000010
00000000
00000100
00000000
00000010
00000000
00000001
00000100
00000010
00000000
00001000
00000000
00000100
00000000
00010000
00000000
,
00001000
00000000
00100000
00001000
00010000
00000000
01000000
00000000
00100000
00010000
10000000
00000000
00100000
00000000
00010000
00001000
,
00010000
00000000
00000010
00010000
00001000
00000000
00000100
00000000
00000010
00001000
00000001
00000000
00000010
00000000
00001000
00010000
,
00001000
00000000
00010000
01000000
10000000
00000000
00100000
00000000
01000000
10000000
01000000
00000000
00010000
00000000
00100000
01000000
,
10000000
00000000
01000000
00100000
00010000
00000000
00100000
00010000
00001000
00000000
00010000
00001000
00000100
00000000
00001000
00000100
,
00000010
00000000
00000001
00000100
00000000
00000100
00001000
00000000
00022000
00000000
00000000
00000000
00033000
00000000
00010000
00100000
,
10000000
00000000
00000000
00000000
00000000
00000000
00000000
00000000
00011000
00000000
00000000
00000000
00000000
00000000
00001000
00000010
,
00000001
00000000
00000100
00000010
00000000
00000010
00001000
00000000
00000100
00000000
00010000
00001000
00000000
00001000
00100000
00000000
,
01000000
10000000
00100000
01000000
00010000
00100000
00001000
00010000
,
00000100
00000000
00000000
00000000
00001100
00000000
00000000
00000000
00000011
00000000
00000000
00001001
00000000
00000000
00001100
00000000
,
00000000
00010100
00000000
00000000
00011000
00000000
00000000
00001000
00200000
00000000
00000000
00010000
00000000
00000000
00010000
00000000
,
00310000
00000000
00000000
00000000
01010000
00000000
00000000
00000000
10100000
00000000
00000000
10010000
00000000
00000000
01010000
00000000
,
00000000
01001000
00000000
00000000
00011000
00000000
00000000
00000000
00010000
00001000
00000000
00010000
00001000
00000100
00000001
00000000
,
00000011
00000000
00000010
00000000
00000110
00000000
00000010
00000000
00000000
00000000
00001000
00010000
00000000
00000000
00100000
00000000
,
10100000
00000000
00100000
00000000
01100000
00000000
00100000
00000000
10000000
00010000
00000000
10000000
01000000
00100000
00010000
00000000
,
10000000
00000000
10000000
01000000
00100000
00000000
00100000
01000000
00010000
00000000
00010000
00001000
00000100
00000000
00000100
00000001
,
00000010
00000001
00000100
00000010
00001000
00000100
00010000
00001000
00100000
00010000
01000000
00100000
10000000
01000000
10000000
00100000
,
02000000
00000000
00000000
00010000
00000000
00000000
03001000
00000000
02000000
00000000
00000000
00010000
00000000
00000000
03001000
00000000
,
02000000
00000000
00000000
00010000
00000000
00000000
03001000
00000000
00011000
00000000
00000000
00000000
00000000
00000000
00000100
00001000
,
00000020
00000000
00000000
00001000
00000000
00000000
00010030
00000000
00002000
00000000
00000000
00100000
00000000
00000000
00013000
00000000
,
00200000
00000000
00000000
10000000
00000000
00000000
01300000
00100000
00010000
00000000
00000000
00000000
00011000
00000000
00000000
00000000
,
00000200
00000000
00000000
00001000
00000000
00000000
00010300
00000000
00000200
00000000
00000000
00001000
00000000
00000000
00010300
00000000
,
00000200
00000000
00000000
00001000
00000000
00000000
00010300
00000000
00000200
00000000
00000000
00001000
00000000
00000000
00010300
00000000
,
00002000
00000000
00000000
00100000
00000000
00000000
00010000
00000000
00203000
00000000
00000000
00010000
00000000
00000000
01000000
00000000
,
00320000
00000000
00000000
10000000
00000000
00000000
01000000
00000000
10030000
00000000
00000000
01000000
00000000
00000000
00010000
00000000
,
00001000
00000000
00000010
00000100
00000000
00000100
00001000
00000000
00000001
00000000
00000100
00001000
00000000
00001000
00010000
00000000
,
00000010
00000000
00001000
00000100
00000000
00000100
00010000
00001000
00000010
00000000
00000001
00000100
00000000
00000100
00001000
00000000
,
00010000
00000000
00100000
01000000
00000000
01000000
00010000
00000000
10000000
00000000
01000000
00010000
00000000
00010000
00001000
00000000
,
00101000
00000000
00000000
00010010
00000000
00000000
00011000
00000000
00010000
00001000
00000000
00010000
00001000
00000100
00000001
00000000
,
00001001
00000000
00000000
00000101
00000000
00000000
00000110
00000000
00000000
00001100
00000000
00000000
00011000
00000000
00010000
00001000
,
01000000
00000000
01100000
00000000
00000000
10100000
00000000
00000000
01100000
00000000
00000000
00110000
00000000
00000000
00010000
00001000
,
01000000
01000000
00010000
00010000
10000000
10000000
01000000
01000000
,
00100000
00010000
00100000
01000000
10000000
01000000
00010000
00001000
01000000
00001000
00010000
00001000
00000010
00000100
00001000
00000001
,
00000020
00000000
00000000
00000000
00000031
00000000
00000100
00000000
00001000
00010000
00000000
00100000
01000000
00000000
00010000
10000000
,
00200000
00000000
00000000
00000000
10300000
00000000
01000000
00000000
00010000
00001000
00000000
00000010
00000100
00000000
00001000
00000001
,
00000200
00000000
00000000
00000000
00000301
00000000
00000010
00000000
00001000
00010000
00000000
01000000
00100000
00000000
00010000
10000000
,
02000000
00000000
00000000
00000000
13000000
00000000
00100000
00000000
00010000
00001000
00000000
00000100
00000010
00000000
00001000
00000001
,
00000010
00000000
00000001
00000000
00000100
00000000
00001000
00000000
00010000
00000000
00100000
10000000
00000000
10000000
00010000
01000000
,
00100000
00000000
10000000
00000000
01000000
00000000
00010000
00000000
00001000
00000000
00000010
00000001
00000000
00000001
00000100
00000010
,
00001000
00000000
00000100
00000000
00000001
00000000
00000100
00000000
00001000
00000000
00000010
00010000
00000000
00001000
01000000
00000000
,
00010000
00000000
01000000
00000000
10000000
00000000
01000000
00000000
00010000
00000000
00100000
00001000
00000000
00010000
00000100
00000000
,
00001100
00000000
00001000
00000100
00000010
00000000
00000001
00000000
00000100
00000010
00001000
00000010
00010000
00001000
00100000
00010000
,
00100000
00000000
00010000
01000000
00100000
00000000
10000000
00000000
01000000
00100000
00010000
00100000
00001000
00010000
00000010
00001000
,
00000010
00000000
00000100
00000001
00001000
00000000
00000100
00000000
00000010
00000001
00001000
00000010
00000100
00000001
00000100
00001000
,
00010000
00000000
00100000
00000000
10000000
00000000
01000000
00000000
00010000
00001000
00010000
00000000
00000100
00000000
00000000
00000000
,
00001000
00000000
00000100
00000000
00000001
00000000
00000100
00000010
00000001
00000000
00000100
00001000
00000000
00010000
00001000
00100000
,
00010000
00000000
01000000
00000000
10000000
00000000
01000000
00100000
10000000
00000000
01000000
00010000
00000000
00001000
00010000
00000010
,
00001000
00000000
00000001
00000000
00000100
00000000
00001000
00000000
00010000
00001000
00100000
00001000
00010000
00100000
01000000
00010000
,
10000000
01000000
00010000
00001000
00000200
00000000
00000320
00000000
,
00001030
00000000
00000100
00000000
00000010
00000000
00000001
00000000
00000100
00000010
00000100
00001000
00010000
00001000
00100000
00010000
,
01000000
00000000
00100000
00000000
10000000
00000000
01000000
00000000
00100000
00001000
00100000
00001000
00010000
00001000
00000100
00000010
,
00000100
00000000
00000001
00000000
00000010
00000000
00001000
00000000
00010000
00001000
00010000
00001000
00100000
00010000
01000000
00100000
,
20000000
32000000
03020000
00032000
,
00003100
00000000
00000001
00000000
00000010
00000000
00000100
00010000
00001000
00000000
00000100
00000010
00001000
00000100
00010000
00001000
,
00100000
00000000
00010000
00000000
01000000
00000000
10000000
01000000
00100000
00000000
01000000
00010000
01000000
00100000
00010000
00001000
,
00010000
00000000
00001000
00000000
00000010
00000000
00000001
00000100
00000010
00000000
00000100
00001000
00010000
00001000
01000000
00001000
,
00010000
00000000
00100000
00000000
10000000
00000000
00010000
01000000
00100000
00000000
00010000
00100000
01000000
00010000
10000000
00100000
,
01000000
00000000
00000000
00000000
01010000
00000000
00000000
00000000
10100000
00000000
00000000
10010000
00000000
00000000
01010000
00000000
,
00000000
01001000
00000000
00000000
00011000
00000000
00000000
00010000
00000020
00000000
00000000
00001000
00000000
00000000
00001000
00000000
,
00001030
00000000
00000000
00000000
00001100
00000000
00000000
00000000
00000011
00000000
00000000
00001001
00000000
00000000
00001100
00000000
,
00000000
00010100
00000000
00000000
00011000
00000000
00000000
00000000
00001000
00010000
00000000
00001000
00010000
01000000
10000000
00000000
,
10010000
00000000
00000000
11000000
00000000
00000000
01100000
00000000
00000000
01010000
00000000
00000000
00011000
00000000
00001000
00010000
,
00000100
00000000
00000110
00000000
00000000
00000011
00000000
00000000
00000110
00000000
00000000
00001010
00000000
00000000
00001000
00010000
,
00000100
00000100
00001000
00001000
00000001
00000001
00000100
00000100
,
00000010
00001000
00000010
00000100
00000001
00000100
00001000
00010000
00000100
00010000
00001000
00010000
00100000
01000000
00010000
10000000
,
00200000
00000000
00000000
00000000
,
00000000
00000000
00000000
00300000
;
