#VERSION:0.83;
#TITLE:sliCE youR soUL;
#ARTIST:Zovi;
#MUSIC:sliCE youR soUL.ogg;
#BANNER:sliCE youR soUL.png;
#BACKGROUND:sliCE youR soUL-bg.png;
#JACKET:sliCE youR soUL-jacket.png;
#OFFSET:-0.101;
#SAMPLESTART:58.8;
#SAMPLELENGTH:15;
#DISPLAYBPM:255;
#BPMS:0=255,380=76,382=255;
#STOPS:177=2.823,346=0.118,346.5=0.118,347=0.118,347.5=0.118,348=0.471,349=0.118,349.5=0.118,350=0.118,350.5=0.118,350.75=0.118,351=0.118,351.25=0.118,351.5=0.118,352=0.118,352.5=1.059,354=0.118,354.5=0.118,355=0.118,355.5=0.118,356=0.706,357=0.118,357.5=0.118,358=0.118,358.5=0.118,359=0.235,360=0.118,360.5=0.118,361=0.118,361.5=0.118,362=1.245;
#SCROLLS:0=1,380=3.355,380.5=3,380.563=2.667,380.625=2.333,380.688=2,380.75=1.667,380.813=1.333,380.875=1;
#TIMESIGNATURES:0=4=4,12=6=4,30=3=4,33=6=4,57=3=4,60=6=4,90=3=4,93=6=4,111=3=4,114=4=4,178=7=4,297=6=4,315=3=4,318=6=4,342=4=4,358=5=4,363=6=4,375=5=4,380=2=4,382=6=4,430=5=4,435=6=4,477=7=4,484=6=4,496=3=4,499=6=4;

//---------------dance-single - Pandemonium X-bSP----------------
#NOTEDATA:;
#CHARTNAME:Pandemonium X-bSP;
#STEPSTYPE:dance-single;
#DESCRIPTION:Pandemonium X-bSP;
#DIFFICULTY:Beginner;
#METER:8;
#CREDIT:Pandemonium X;
#NOTES:
0000
0000
0000
0000
,
0000
0000
0000
0000
,
0000
0000
0000
0000
,
0000
0000
0000
0000
,
0000
0000
0000
0000
,
0000
0000
0000
0000
,
0000
0000
0000
0000
,
0000
0000
0000
0000
,
0000
1001
0000
0000
,
0000
0000
0000
0000
,
0000
0000
0000
0000
,
0000
0000
0000
0000
,
0000
0000
0000
0000
,
0000
0000
0000
0000
,
0000
0000
0000
0000
,
0110
0000
0000
0001
,
0000
0000
0000
0000
,
0000
0000
0000
0000
,
0000
0000
0000
0000
,
0000
0000
0000
0000
,
0000
0000
0000
0000
,
0000
0000
0000
0000
,
0000
0000
1001
0000
,
0000
1000
0000
0000
,
0000
0000
0000
0000
,
0000
0000
0000
0000
,
0000
0000
0000
0000
,
0000
0000
0000
0000
,
0000
0000
1001
0000
,
0000
0000
0000
0000
,
0000
0000
0000
0000
,
0000
0000
0000
0000
,
0000
0000
0000
0000
,
0000
0000
0000
0000
,
0000
0000
0000
0000
,
0000
0000
0001
0000
,
0000
1000
0000
0000
,
0010
0000
0000
0100
,
0000
0000
0001
0000
,
0000
1000
0000
0000
,
0110
0000
0000
1001
,
0000
0000
0000
0000
,
0000
0000
0000
0000
,
0000
0000
0000
0000
,
0000
0000
0001
0000
,
0000
0000
0000
0000
0000
1000
0000
0000
,
0000
0001
0000
0000
,
0000
0000
0000
1000
0000
0000
0000
0000
,
0001
0000
0000
0000
,
0000
1000
0000
0000
0000
0000
0001
0000
,
0000
0000
0000
0000
0000
0000
0000
0001
,
0000
0000
0000
0000
0100
0000
0000
0100
,
0000
0000
0100
0000
0010
0000
0000
0010
,
0000
0010
0000
1000
,
1000
0000
0000
0001
0000
0000
0000
0000
,
1000
0000
0001
0001
,
0000
1000
0000
0000
0000
0000
0100
0000
,
0000
0000
0100
0000
0100
0000
0000
0010
,
0000
0010
0000
0010
0000
0001
0000
0001
,
0000
0001
0000
1001
0000
0000
0000
0000
,
0000
0000
0001
0000
0000
1000
0000
0000
,
0001
0000
0000
1000
0000
0000
0001
0000
,
0001
0000
0000
0100
0000
0000
0010
0000
,
0000
1000
0000
0000
0001
0000
1000
0000
,
0000
1000
0000
0000
0001
0000
0000
0001
,
0000
0000
0100
0000
0100
0000
0000
0010
,
0000
0000
1000
0000
0000
0001
0000
0000
,
1000
0000
0001
0000
0000
0001
0000
0000
,
1000
0000
0000
1000
0000
0000
0100
0000
,
0100
0000
0000
0010
0000
0000
0001
0000
,
0000
1000
0001
0100
,
0000
0100
0000
0000
0010
0000
0000
1000
,
0000
0001
1000
0100
,
0000
0100
0000
0000
0010
0000
0000
0001
,
0000
1000
0000
0000
,
1000
0000
0000
0000
,
0000
0000
0000
0000
0000
0010
0000
0000
,
0000
0000
0000
0100
0000
0000
0000
0000
,
0000
0000
0000
0001
,
0000
0000
1001
0000
,
0000
1001
0000
0000
,
0110
0000
0000
0110
,
0000
0000
1001
0000
,
0000
0110
0000
0000
,
1001
0000
0000
0110
,
0000
0000
1001
0000
,
0000
0000
0000
0000
,
0000
0000
0000
0000
,
0000
0000
0000
0000
,
0000
0000
0000
0000
,
0000
0000
0000
0001
,
0000
0000
1000
0000
,
0000
0010
0000
0000
,
0100
0000
0000
0001
,
0000
0000
0100
0000
,
0010
0000
1001
0000
,
1000
0000
0100
0000
,
0010
0000
0001
0000
,
0100
0000
0010
0000
,
1000
0000
0001
0000
,
1000
0001
0001
0000
,
0000
0000
1000
0000
,
0001
0000
0100
0000
,
0010
0000
1000
0000
,
0010
0000
0100
0000
,
0001
0000
0010
0000
,
0100
0000
0000
0000
,
0000
0000
0000
0000
,
0000
0000
0000
1001
,
0000
0010
0000
1001
,
0000
0100
0000
0110
,
0000
1000
0000
0110
,
0000
0001
0000
1001
,
0000
0110
0000
0100
,
0100
0100
0010
0010
,
0010
0010
0000
1001
,
0000
0110
0000
1001
,
0000
0110
0000
1001
,
0000
0110
0000
0110
,
0000
0100
0010
0100
,
0010
0100
0010
0100
,
0010
0000
0100
0000
,
0001
0000
1000
0000
,
0100
0000
0010
0000
,
0001
0000
1000
0000
,
0000
0000
0000
0000
,
0000
0000
0000
0220
0000
0000
0000
0000
,
0000
0000
0000
0000
,
0000
0000
0000
0330
0000
0000
0000
0000
;

//---------------dance-single - Pandemonium X-BSP----------------
#NOTEDATA:;
#CHARTNAME:Pandemonium X-BSP;
#STEPSTYPE:dance-single;
#DESCRIPTION:Pandemonium X-BSP;
#DIFFICULTY:Easy;
#METER:13;
#CREDIT:Pandemonium X;
#NOTES:
0000
0000
0000
0000
,
0000
0000
0000
0000
,
0000
0000
0000
0000
,
0000
0000
0000
0000
,
0000
0000
0000
0000
,
0000
0000
0000
0000
,
0000
0000
0000
0000
,
0000
0000
0000
0000
,
0000
0000
1000
0000
0001
0000
0100
0020
,
0000
0030
0000
0000
,
0000
0000
0000
0000
,
0000
0000
0000
0000
,
0000
0000
0000
0000
,
0000
0000
0000
0000
,
0000
0000
0000
0000
,
0100
0000
0000
0000
0001
0000
0000
0000
1000
0000
0000
0000
0100
0000
0000
0100
,
0000
0000
0010
0000
0000
0020
0000
0000
0000
0000
0000
0030
0000
0000
0000
0000
,
0000
0000
0000
0000
,
0000
0000
0000
0000
,
0000
0000
0000
0000
,
0000
0000
0000
0000
,
0000
0000
0000
0000
,
0000
0000
0010
0001
,
0100
0020
0030
0000
,
0000
0000
0000
0000
,
0000
0000
0000
0000
,
0000
0000
0000
0000
,
0000
0000
0000
0000
,
0000
0000
0100
0001
,
1000
0100
0010
0000
,
0000
0001
0000
0000
0000
0000
0000
0000
,
0100
0000
0000
0010
0000
0000
0000
0000
,
0000
0000
0000
0100
0000
0000
0000
0000
,
0001
0000
0000
1000
0000
0000
0100
0000
,
0010
0000
0001
0000
,
0000
0000
1001
0000
,
0000
0110
0000
0000
,
1001
0000
0000
1000
,
0000
0000
0100
0000
,
0000
0010
0000
0000
,
0001
0000
0000
2000
,
0000
0000
0000
0000
,
0000
0000
0000
0000
,
0000
0000
0000
0000
,
0000
3000
1000
0001
,
1000
0000
0020
0000
0000
1030
0000
0000
,
0100
0100
1000
0001
,
0200
0000
0000
0310
0000
0000
1000
0000
,
0001
0010
0100
0020
,
0000
0031
0000
0000
0010
0000
0100
0000
,
0010
0000
0001
0000
2000
0000
0000
3002
,
0000
0023
0000
0130
1000
0000
0000
0001
,
0000
0000
1000
0000
0001
0000
0000
0001
,
0000
1000
0001
0000
0000
0000
1000
0000
,
1000
0000
0000
0001
0100
0000
0001
0000
,
0010
0000
0100
0100
,
0000
1000
0010
0000
0100
0000
0001
0000
,
0000
0000
1000
0000
1000
0000
0000
0001
,
0000
0100
0000
0010
0000
1000
0000
0100
,
0000
0010
0000
0022
0000
0000
0000
0000
,
0033
0000
1001
0000
0000
1100
0000
0000
,
1010
1000
0001
1000
,
1001
0000
0000
0101
0000
0000
1100
0000
,
0000
0001
1000
0000
0010
0000
0101
0000
,
0000
1010
0000
0000
0110
0000
0000
1001
,
0000
0000
1000
0000
0001
0000
0000
1010
,
0000
0000
0101
0000
0000
1000
0100
0000
,
0010
0001
2000
3010
,
0100
0010
1000
0001
,
0010
0100
0010
0001
,
0100
0010
1000
0001
,
0010
0001
0100
0010
,
1000
0010
0100
0001
,
0010
0100
0010
0001
,
1000
0020
0000
0000
,
0230
0000
0000
0000
,
0000
0000
0000
0000
0000
0302
0000
0000
,
0000
0000
0000
2003
0000
0000
0000
0000
,
0000
0000
0000
0000
0000
0000
3100
0010
,
0000
0010
0001
0000
1100
0000
0000
0000
,
0000
0101
0000
0000
,
1010
0000
0000
0011
,
0000
0000
1100
0000
,
0000
0101
0000
0000
,
0110
0000
0000
2002
,
0000
0000
0000
0000
,
0000
3003
0001
0001
,
0001
0000
0000
1000
0000
1000
0000
0000
,
0000
0000
1000
1000
,
1000
0000
0000
0001
0000
0001
0000
0000
,
0000
0001
0000
0000
0000
0000
0202
0000
,
0000
0303
2020
0000
,
3030
2200
0000
3300
,
0022
0000
0033
0202
,
0000
0303
2020
0000
,
0030
0000
3100
0100
,
0010
0010
0001
0001
,
1000
1000
0010
0100
,
0001
0000
1000
0000
0001
1000
0001
0000
,
1000
0001
1000
0000
0001
0000
0010
0000
,
0100
0110
1001
0000
,
0000
0000
0000
1000
0010
0100
0001
0000
,
1000
0001
0010
0001
,
0100
0010
1000
0002
,
0023
0130
0100
1000
,
0001
0100
0001
0010
,
0200
0300
0000
0000
0000
0000
0000
0000
,
0000
0000
0000
0000
,
0000
0000
0000
1100
,
0001
0101
1000
0011
,
1000
1010
0001
1001
,
0110
0000
1001
0000
0110
0000
0001
1000
,
0001
1000
0001
1000
0001
0000
0020
0000
,
0030
0011
0110
1100
,
0001
1000
0001
1000
0001
1000
0001
0100
,
0010
1010
0001
0101
,
1000
0110
0001
1001
,
0010
0110
1000
1001
,
0100
0011
0100
1010
,
1001
0000
0100
0010
0100
0010
0100
0010
,
0100
0010
0100
0010
0100
0010
0100
0010
,
0100
0000
1001
0000
,
1000
0000
0001
0000
,
1000
0000
0001
0000
,
0012
0000
0103
2010
,
0000
0000
0000
0000
,
0000
0000
0000
3200
0000
0000
0000
0000
,
0000
0000
0000
0000
,
0000
0000
0000
0300
0000
0000
0000
0000
;

//---------------dance-single - Pandemonium X-DSP----------------
#NOTEDATA:;
#CHARTNAME:Pandemonium X-DSP;
#STEPSTYPE:dance-single;
#DESCRIPTION:Pandemonium X-DSP;
#DIFFICULTY:Medium;
#METER:15;
#CREDIT:Pandemonium X;
#NOTES:
0000
0000
0000
0000
,
0000
0000
0000
0000
,
0000
0000
0000
0000
,
0000
0000
0000
0000
,
0000
0000
0000
0000
,
0000
0000
0000
0000
,
0000
0000
0000
0000
,
0000
0000
0000
0000
,
0000
0000
0011
0000
1100
0000
1000
0001
,
0200
0300
0000
0000
,
0000
0000
0000
0000
,
0000
0000
0000
0000
,
0000
0000
0000
0000
,
0000
0000
0000
0000
,
0000
0000
0000
0000
,
1010
0000
0000
0000
0101
0000
0000
0000
1000
0000
0100
0000
1000
0000
0000
1000
,
0000
0000
0001
0000
0000
0010
0000
0000
0200
0000
0000
0300
0000
0000
0000
0000
,
0000
0000
0000
0000
,
0000
0000
0000
0000
,
0000
0000
0000
0000
,
0000
0000
0000
0000
,
0000
0000
0000
0000
,
0000
0000
0000
0000
0010
0001
0100
0001
,
1000
0100
0020
0000
0030
0000
0000
0000
,
0000
0000
0000
0000
,
0000
0000
0000
0000
,
0000
0000
0000
0000
,
0000
0000
0000
0000
,
0000
0000
0000
0000
1100
0000
0100
0010
,
0001
0010
0100
1000
0001
0000
0000
0000
,
0000
1000
0000
0000
0000
0000
0000
0000
,
0100
0000
0000
0010
0000
0000
0000
0000
,
0000
0000
0000
0100
0000
0000
0000
0000
,
1000
0000
0000
0010
0000
0000
0100
0000
,
0001
0000
1000
0000
,
0000
0000
1001
0000
,
0000
0110
0000
0000
,
2002
0000
0000
0000
0000
3003
0002
0000
,
0000
0000
0203
0000
,
0000
0320
0000
0000
,
0230
0000
0000
0302
,
0000
0000
0000
0000
,
0000
0000
0000
0000
,
0000
0000
0000
0000
,
0000
0000
0000
0003
1000
0010
0100
0010
,
1000
0001
1000
0010
0000
0100
0001
0010
,
0001
0000
1000
0001
0100
0010
1000
0001
,
1000
0100
0000
1000
0010
0100
0010
0000
,
0100
0010
1000
0001
0010
0001
1000
0100
,
0000
0010
0001
1000
0100
0000
1000
0010
,
0100
0010
1000
0001
0100
0010
0000
2000
,
0000
3020
0000
0130
0101
0000
0000
1010
,
0000
0000
1001
0000
0011
0000
0000
1001
,
0000
1000
1100
0000
0000
0000
1010
0000
,
0011
0000
0000
1000
0100
0010
0100
0000
,
0110
0000
1001
0101
,
0000
0001
0100
0010
0100
0000
0101
0000
,
0000
0000
0011
0000
1100
0000
0000
2000
,
0000
3200
0000
0302
0000
0203
0000
2300
,
0000
3020
0000
0230
0000
0000
0000
0000
,
0302
0000
0013
0001
0000
1000
0100
0000
,
1000
0010
0000
0100
0001
0010
0100
1000
,
0001
0010
0000
0100
0010
0000
0001
0100
,
0000
0010
1000
0001
0010
0100
0010
0001
,
0000
1000
0001
0000
0010
0100
0000
0010
,
0001
0000
1000
0100
0010
0001
0000
1000
,
0010
0000
0100
0001
0000
1000
0100
0010
,
0001
0100
0010
0000
2000
0000
3100
0000
,
1000
0100
0000
0010
0001
0000
1000
0010
,
0100
0001
0010
0001
0000
0000
1000
0000
,
0001
0010
0100
1000
0001
1000
0001
0010
,
0000
0100
1000
0001
0100
0000
0010
0100
,
0001
0000
1000
0010
0100
0000
0010
1000
,
0000
0001
0010
0100
1000
0100
0010
0001
,
1000
0010
1000
0000
1000
0001
0010
0000
,
0100
0000
0100
0010
0001
0000
0001
0010
,
0100
1000
0001
0000
0001
0000
0001
0010
,
0100
0000
0010
0000
0100
0000
0100
1000
,
0010
0100
0001
1000
0100
0000
1000
2000
,
0000
0001
3002
0000
2003
0000
0000
0000
,
3000
0202
0000
0303
,
0022
0000
0033
2200
,
0000
3300
2020
0000
,
3030
0202
0000
0303
,
2002
0000
3003
2200
,
0000
0000
3300
0000
1000
0010
0100
0001
,
1000
0100
0010
0001
0100
0000
0010
0000
,
1000
0000
0000
0001
0000
1000
0000
0100
,
0000
0010
0000
0000
0100
0000
1000
0000
,
0010
0000
0000
0100
0000
0010
0000
0000
,
0000
1000
0000
0001
1000
0000
0002
0000
,
0100
0103
0020
1000
,
1030
0200
0010
0310
,
0002
1000
1003
0002
,
0203
0320
2030
3200
,
0320
0000
0031
0100
,
0001
1000
0001
0010
,
1000
0010
0001
0100
,
1000
0000
0100
0000
0001
0100
0010
1000
,
0001
0100
0010
0000
1000
0000
0100
0000
,
1000
1001
1001
0000
,
0000
0000
0000
0001
0100
0001
1000
0100
,
0010
0000
0100
0000
1000
0000
0001
0000
1000
0000
0000
0100
0000
0000
0010
0000
,
0000
0000
0000
0001
0000
0000
0000
0000
0000
0000
0000
0000
0100
0000
0000
0000
0000
0000
0000
0000
0000
0010
0000
0000
0000
0000
0000
0000
0000
0000
1000
0000
0000
0000
0000
0000
0001
0000
0000
0000
0100
0000
0000
0000
0001
0000
0000
0000
,
0100
0000
0001
0000
0100
0000
0001
0000
0000
0000
0000
0000
1000
0000
0000
0001
0000
0000
0010
0000
0000
0000
0000
0000
,
0100
0000
0000
0000
1000
0000
0000
0100
0000
0000
0010
0000
0002
0000
0000
0000
,
0003
0000
0000
0000
,
0000
0000
0000
0000
,
0000
0000
0000
0000
0000
0000
1000
0010
,
0100
0001
0010
0100
0010
0001
0100
0010
,
1000
0100
0010
0001
0010
0100
0010
0001
,
0100
0010
1000
0001
0010
0100
1000
1000
,
0001
1000
0001
0001
1000
0001
0010
0100
,
0010
0001
0100
0010
1000
0001
0010
0001
,
0100
0000
0001
0000
0100
0000
0001
0000
0100
0000
0001
0000
0100
0000
0001
0000
0100
0000
0001
0000
0000
1000
0000
0000
,
0100
0000
0010
0000
0001
0000
1000
0000
0001
0000
0100
0000
0010
0000
0000
1000
,
0000
0000
0001
0000
0000
0010
0000
0000
0100
0000
0000
1000
0000
0000
0001
0000
,
0100
0010
1000
0001
0010
0001
1000
0010
,
0100
0001
0100
0010
1000
0100
0010
0001
,
1000
0000
0000
0010
0000
0000
1000
0000
0100
0000
1000
0000
0100
0000
0010
0000
0100
0000
0010
0000
0001
0000
0010
0000
,
0001
1000
0001
1000
0010
1000
0010
0100
0010
0100
0001
0100
,
0001
0000
0002
0003
,
0200
0300
2000
3000
,
0020
0030
0002
0003
,
2000
3000
1001
0101
,
2000
0000
0000
0000
,
0000
3000
0000
0220
0000
0000
0000
0000
,
0000
0000
0000
0000
,
0000
0000
0000
0330
0000
0000
0000
0000
;

//---------------dance-single - Pandemonium X & Nitrospan-ESP----------------
#NOTEDATA:;
#CHARTNAME:Pandemonium X & Nitrospan-ESP;
#STEPSTYPE:dance-single;
#DESCRIPTION:Pandemonium X & Nitrospan-ESP;
#DIFFICULTY:Hard;
#METER:18;
#CREDIT:Pandemonium X & Nitrospan;
#NOTES:
0000
0000
0000
0000
,
0000
0000
0000
0000
,
0000
0000
0000
0000
,
0000
0000
0000
0000
,
0000
0000
0000
0000
,
0000
0000
0000
0000
,
0000
0000
0000
0000
,
0000
0000
0000
0000
,
0000
0000
0000
0000
0011
0000
0000
0000
0110
0000
0000
0000
1100
0000
0100
1000
,
0001
0200
0300
0000
0000
0000
0000
0000
,
0000
0000
0000
0000
,
0000
0000
0000
0000
,
0000
0000
0000
0000
,
0000
0000
0000
0000
,
0000
0000
0000
0000
,
0101
0000
0000
0000
0110
0000
0000
0000
1010
0000
1000
0000
1001
0000
0000
0011
,
0000
0000
0110
0000
0000
2100
0000
0000
3002
0000
0000
0003
0000
0000
0000
0000
,
0000
0000
0000
0000
,
0000
0000
0000
0000
,
0000
0000
0000
0000
,
0000
0000
0000
0000
,
0000
0000
0000
0000
,
0000
0000
0000
0000
1001
0001
0100
0100
,
0010
0000
0010
1000
0002
0000
0000
0000
0003
0000
0000
0000
0000
0000
0000
0000
,
0000
0000
0000
0000
,
0000
0000
0000
0000
,
0000
0000
0000
0000
,
0000
0000
0000
0000
,
0000
0000
0000
0000
0000
0000
0000
0000
1010
0000
1000
0000
0100
0010
0001
0000
,
0001
0001
0001
0001
0002
0000
0000
0000
,
0000
2003
0000
0000
0000
0000
0000
0000
,
3020
0000
0000
0230
0000
0000
0000
0000
,
0000
0000
0000
0320
0000
0000
0000
0000
,
2030
0000
0000
3200
0000
0000
0320
0000
,
0032
0000
2003
0000
,
3000
0000
2002
0000
,
3003
0220
0000
0330
,
2002
0000
0003
3200
,
0000
0000
0320
0000
,
0000
0032
0000
0000
,
0013
0001
0100
0010
1000
0001
1000
0001
,
0010
0001
0010
0001
1000
0100
1000
0100
,
1000
0010
1000
0010
0100
0010
0100
0001
,
0100
0001
0010
0001
0010
0100
1000
0100
,
1000
0000
0002
0000
0000
0003
0000
0000
1000
0000
0010
0000
0100
0000
0001
0000
,
0010
0100
1000
0100
0000
0100
0001
0010
,
0100
0000
0100
0010
1000
0100
0010
0001
,
1000
0010
0000
0010
0001
0100
0010
0000
,
0010
0100
1000
0010
0100
0001
1000
0100
,
0000
0100
0010
1000
0100
0000
0100
0001
,
0010
0100
1000
0001
0100
0010
0000
0020
,
0000
0000
0032
0000
0000
0000
0203
0300
0101
0000
0000
0000
0010
0000
1001
0000
,
0000
0100
0011
0000
1100
1000
0001
0011
,
0000
0101
0101
0100
0010
1000
1100
0000
,
0101
0000
0000
1001
1000
0001
1001
0000
,
1001
0001
1000
0100
1100
0000
0101
0000
,
0000
0110
0010
0100
0110
0000
0110
0100
,
0001
0010
0011
0000
1010
0000
0000
2001
,
0000
0000
0000
3000
1200
0000
0000
0000
0000
0000
0000
0300
0120
0000
0000
0000
0000
0000
0000
0030
0012
0000
0000
0000
0000
0000
0000
0003
0201
0000
0000
0000
,
0000
0000
0000
0300
0120
0000
0000
0000
0000
0000
0000
0000
1030
0000
0010
0000
1000
0000
0010
0000
0100
0000
0010
0000
0100
0000
0001
0000
0100
0000
0001
0000
,
1000
0001
0011
1000
0000
1010
0001
0000
,
0101
1000
0000
1100
0001
0000
1001
0010
,
0110
1000
0000
0011
0100
0000
1100
0010
,
0000
1001
1000
0001
0001
0010
0010
0100
,
0000
1100
0001
0000
0011
1000
0000
0110
,
0001
0000
1001
0100
0110
0001
0000
0101
,
1000
0000
1010
0100
0000
1001
1000
0010
,
0010
0000
0000
0100
0000
0000
0100
0000
0000
0000
0000
0000
0001
0000
0100
0000
0001
0000
1000
0000
0000
0000
0000
0000
,
1100
0010
0000
0101
0010
0000
1010
0100
,
0110
0001
1001
1001
0100
0000
0110
0001
,
1000
0001
1000
0000
0001
0000
0001
0000
0010
0000
0010
0000
0100
0000
1000
0000
,
0000
0110
0001
0110
0110
0000
1001
1001
,
0100
0000
1010
1010
0001
0000
0110
0110
,
0000
0000
0001
0100
0001
0000
0010
0000
0100
1000
0100
0000
0010
0000
0010
0000
,
0001
0000
0000
0001
0000
0000
1000
0000
0010
0000
1000
0000
0001
0000
0010
0000
0001
0000
1000
0000
0000
0001
0000
0000
,
1000
0100
1000
0001
0100
0001
1000
0010
1000
0001
0010
0001
,
1000
0000
0100
0000
1000
0000
0001
0000
0000
1000
0000
0000
0001
0000
0010
0000
0100
0000
1000
0000
0001
0000
0100
0000
,
0010
0000
0000
1000
0000
0000
0001
0000
1000
0000
0100
0000
0010
0000
0001
0000
0010
0000
0100
0000
1000
0000
0001
0000
,
0100
0000
0010
0000
1000
0000
0010
0000
0100
0000
0001
0000
1000
0000
0100
0000
0010
0000
0002
0000
0000
0023
0000
0000
,
0000
0230
2300
0000
3001
1000
0010
1000
,
0100
0010
0011
0001
0100
0010
1000
0100
,
1100
1000
0010
0100
0001
1000
1001
0001
,
0010
0100
1000
0001
0101
0100
0010
1000
,
0100
0010
0011
0001
0010
0100
1000
0010
,
1010
1000
0100
0010
0001
1000
1100
0100
,
1000
0001
1000
0010
0100
0100
0100
0100
,
0100
0000
0000
0000
0100
0000
0000
0000
0100
0000
0000
0000
0100
0000
0000
0000
0020
0030
0000
0000
2000
3000
0000
0000
0002
0003
0000
0000
0200
0300
0000
0000
,
0020
0000
0000
0000
0000
0000
0000
0000
2030
3000
0000
0000
0002
0003
0000
0000
0020
0030
0000
0000
0200
0300
2000
3000
0002
0003
0200
0300
0020
0030
0000
0000
,
2000
3000
0000
0000
0020
0000
0000
0000
0000
0000
0000
0000
0000
0000
0000
0000
0230
0300
0000
0000
0002
0003
0000
0000
0020
0030
0000
0000
2000
3000
0000
0000
,
0200
0000
0000
0000
0000
0000
0000
0000
0320
0030
0000
0000
2000
3000
0000
0000
0002
0003
0000
0000
0020
0030
0000
0000
0200
0000
0000
0000
0000
0000
0000
0000
,
0320
0030
0000
0000
0002
0003
0000
0000
2000
3000
0000
0000
0020
0030
0000
0000
0200
0000
0000
0000
0300
0000
0000
0000
2001
0000
0000
0000
0000
0000
0000
0000
,
3200
0302
0203
2300
,
3020
0000
0032
0000
0023
0000
2030
3200
,
0000
0000
0320
0000
0000
0000
0032
0000
0000
2003
0000
0000
3002
0000
0000
0000
,
0203
2300
3200
0302
,
0023
0000
0130
0000
0000
0000
1001
0000
0000
1001
0000
0000
,
0101
0011
1100
1010
,
0101
0011
0110
1100
,
1001
0000
0101
0000
1000
0010
0100
0001
,
0010
0100
0110
0000
1100
0000
0101
0000
,
1002
0000
0000
0000
0000
0000
0000
0003
0021
0000
0000
0000
0000
0000
0000
0030
0210
0000
0000
0000
0300
0000
0000
0000
0000
0000
0000
0000
0000
0000
0000
0000
,
0020
0000
0000
0130
0100
1000
0001
0100
,
0010
0000
1000
0000
0001
0000
0010
0000
0011
0000
0000
1100
0000
0000
0101
0000
,
0000
1010
0000
0000
1001
0000
0000
0011
0000
0000
0010
0000
0000
0100
1000
0001
,
1000
0001
1000
0001
0100
0000
0000
0000
0001
0000
1000
0000
0100
0000
0000
0000
,
0110
0000
0000
0000
0000
0000
0000
0000
0000
0000
0000
0000
0010
0000
0000
0001
0000
0000
0000
0000
0000
1000
0000
0000
0002
0000
0000
0000
0000
0000
0000
0000
0000
0000
0000
0000
0023
0000
0000
0000
0000
0000
0000
0000
0130
0000
0000
0000
,
0000
0000
0000
0000
,
0000
0000
2000
0000
,
0000
0000
0000
0000
3000
0001
1000
0010
,
0001
0010
1000
0100
0001
0100
0010
0001
,
0100
1000
0100
0001
0010
1000
0010
0001
,
1000
0010
0100
0001
1000
0001
0010
0010
,
0100
0100
1000
1000
0001
0100
0010
0000
,
1000
0000
0001
0000
1000
0100
1000
0100
1000
0000
0001
0000
0100
0001
0100
0000
,
0001
1000
0001
1000
0100
1000
0001
1000
0001
0100
0001
1000
0001
0000
0010
0000
,
0010
0000
0100
0000
0100
0000
1000
0000
1000
0000
0100
0000
1100
0000
0000
0110
,
0000
0000
0011
0000
0000
1001
0000
0000
1010
0000
0000
0110
0000
0000
0101
0000
,
0000
0001
0100
0001
0100
0001
1000
0001
1000
0000
1000
0000
0010
0000
0010
0000
,
1000
0000
1000
0000
0001
0000
0001
0000
0010
0100
0000
0010
0001
0010
0000
0100
,
1000
0001
1000
0002
0000
0000
0000
0000
0000
0000
0000
0000
0000
0000
0000
0000
,
0000
0000
0000
0000
,
1003
0010
0000
1000
0020
0001
0030
0010
,
0002
0100
0003
0001
0200
1000
0300
0100
,
2000
0010
3000
1000
0020
0001
0030
0010
,
2000
0000
0000
0000
0000
0000
3000
0000
1100
0000
0000
0000
0102
0000
0000
2003
,
0000
0000
3200
0000
0000
0320
0000
0000
0000
0000
0000
0000
0032
0000
0000
0000
,
0000
0003
0000
2002
0000
0000
0000
0000
,
0000
0000
0000
0000
,
0000
0000
0000
0000
0000
0000
0000
0000
0000
0000
0000
3003
0000
0000
0000
0000
0000
0000
0000
0000
0000
0000
0000
0000
0000
0000
0000
0000
0000
0000
0000
0000
;

//---------------dance-single - Nitrospan-CSP----------------
#NOTEDATA:;
#CHARTNAME:Nitrospan-CSP;
#STEPSTYPE:dance-single;
#DESCRIPTION:Nitrospan-CSP;
#DIFFICULTY:Challenge;
#METER:19;
#CREDIT:Nitrospan;
#OFFSET:-0.101;
#BPMS:0=255,22.5=127.5,51=255,105=510,110=255,209=510,213=255,229=53.57,230=255,247.5=285,248=300,248.5=315,249=330,249.5=345,250=375,250.5=410,251=460,251.5=510,257=255,361=260,362=310,363=360,364=410,365=460,366=510,371=460,371.5=410,372=360,372.5=310,373=210,373.5=160,374=110,374.5=80,375=50,375.25=25,375.313=12,375.375=255;
#STOPS:0=7.529,4.5=5.412,11.5=5.412,15.5=4.706,51=2.706,55.5=0.118,57.5=0.118,61.5=0.118,63.5=0.118,67.5=0.118,69.5=0.118,73.5=0.118,84.5=0.118,86.5=0.118,90.5=0.118,92.5=0.118,96.5=0.118,98.5=0.118,113=0.118,118=0.118,126=0.118,131=0.118,139=0.118,145.5=0.118,209=0.059,209.5=0.059,210=0.059,210.5=0.059,211=0.059,211.5=0.059,212=0.059,212.5=0.059,213=0.118,213.5=0.118,214=0.118,214.5=0.118,215=0.471,216=0.118,216.5=0.118,217=0.118,217.5=0.118,217.75=0.118,218=0.118,218.25=0.118,218.5=0.118,219=0.118,219.5=1.059,221=0.118,221.5=0.118,222=0.118,222.5=0.118,223=0.706,224=0.118,224.5=0.118,225=0.118,225.5=0.118,226=0.235,227=0.118,227.5=0.118,228=0.118,228.5=0.118,229=0.343,238.5=0.118,277=0.588,296.5=2.471,375.375=5;
#TIMESIGNATURES:0=4=4;
#NOTES:
0000
0000
0000
0000
0022
0000
0033
0000
2200
0000
3300
0000
0011
0000
0100
1000
,
0001
0100
0202
0303
2020
3030
0101
0010
,
1001
0000
0000
1100
0000
0000
0101
0000
0000
0011
0000
0000
2002
0000
3003
0000
,
1010
0000
1000
0000
0100
0000
0010
0000
0011
0000
0100
0010
1000
0000
0001
0000
,
2002
0000
3003
0000
0100
1000
0001
0000
0001
0000
0001
0000
0001
0000
0001
0000
,
0002
0000
0000
0000
0000
0000
0000
0000
0003
0000
0000
0020
0000
0000
0000
0000
,
0230
2300
0000
3020
,
0000
0230
0000
0000
0302
0000
0000
0023
0000
0230
0000
0000
0000
2300
0000
0000
,
0000
0000
3000
0000
0000
2200
0000
0000
0000
3300
0000
0022
0000
0000
0033
0000
,
2002
0000
3003
0020
0000
0000
0230
0000
,
0000
0000
0000
0320
0000
0000
0000
0000
0000
2030
0000
0000
0000
0000
0000
3001
,
0010
0001
0100
0010
1000
0100
1000
0010
0100
0001
0010
0100
1000
0100
0010
0001
,
0100
0000
0010
0000
1000
0000
0100
0000
0010
0000
0001
0000
0010
0000
0001
0000
1000
0000
0010
0000
1000
0000
0200
0000
0000
0300
0000
0000
0000
0000
0000
0000
,
0100
0000
0000
0000
0000
0000
0000
0000
1000
0000
0000
0000
0000
0000
0000
0000
0100
0000
0000
0000
0000
0000
0000
0000
0010
0000
0000
0000
0000
0000
0000
0000
0001
0000
0000
0000
0000
0000
0000
0000
1000
0000
0000
0000
0000
0000
0000
0000
0001
0000
0000
0000
0000
0000
0000
0000
0200
0000
0000
0000
0000
0000
0000
0300
,
0100
0000
0000
0000
0000
0000
0000
0000
1000
0000
0000
0000
0000
0000
0000
0000
0010
0000
0000
0000
0000
0000
0000
0000
0200
0000
0000
0000
0000
0000
0000
0300
0100
0000
0000
0000
0000
0000
0000
0000
1000
0000
0000
0000
0000
0000
0000
0000
0100
0000
0000
0000
0000
0000
0000
0000
0001
0000
0000
0000
0000
0000
0000
0000
,
0100
0000
0000
0000
0000
0000
0000
0000
1000
0000
0000
0000
0000
0000
0000
0000
0001
0000
0000
0000
0000
0000
0000
0000
0020
0000
0000
0000
0000
0000
0000
0030
0010
0000
0000
0000
0000
0000
0000
0000
1000
0000
0000
0000
0000
0000
0000
0000
0100
0000
0000
0000
0000
0000
0000
0000
0020
0000
0000
0000
0000
0000
0000
0030
,
0010
0000
0000
0000
0000
0000
0000
0000
1000
0000
0000
0000
0000
0000
0000
0000
0001
0000
0000
0000
0000
0000
0000
0000
0010
0000
0000
0000
0000
0000
0000
0000
1000
0000
0000
0000
0000
0000
0000
0000
0010
0000
0000
0000
0000
0000
0000
0000
0001
0000
0000
0000
0000
0000
0000
0000
0200
0000
0000
0000
0000
0000
0000
0300
,
0100
0000
0000
0000
0000
0000
0000
0000
1000
0000
0000
0000
0000
0000
0000
0000
0001
0000
0000
0000
0000
0000
0000
0000
0200
0000
0000
0000
0000
0000
0000
0300
0100
0000
0000
0000
0000
0000
0000
0000
1000
0000
0000
0000
0000
0000
0000
0000
0010
0000
0000
0000
0000
0000
0000
0000
0001
0000
0000
0000
0000
0000
0000
0000
,
0010
0000
0000
0000
0000
0000
0000
0000
1000
0000
0000
0000
0000
0000
0000
0000
0100
0000
0000
0000
0000
0000
0000
0000
0020
0000
0000
0000
0000
0000
0000
0030
0020
0000
0000
0000
0000
0000
0000
0000
0000
0000
0000
0000
0000
0000
0000
0000
0230
0000
0000
0000
0000
0000
0000
0000
0000
0000
0000
0000
0000
0000
0000
0000
,
1300
1010
0000
0001
0101
0000
0100
1010
,
0000
1100
0001
0000
0011
0000
0100
0110
,
1000
0001
0022
0033
2200
3300
0001
0100
,
0010
0100
0001
0010
0100
1000
2200
3300
,
0022
0033
1000
0100
0010
0100
1000
0010
,
0100
0000
0000
0000
0000
0000
0000
0000
0001
0000
0000
0000
0000
0000
0000
0000
2020
0000
0000
0000
0000
0000
0000
0000
3030
0000
0000
0000
0000
0000
0000
0000
0202
0000
0000
0000
0000
0000
0000
0000
0303
0000
0000
0000
0000
0000
0000
0000
2002
0000
0000
0000
0000
0000
0000
0000
0000
0000
0000
0000
0000
0000
0000
3003
,
2020
0000
0000
0000
0000
0000
0000
0000
0000
0000
0000
0000
0000
0000
0000
3030
0022
0000
0000
0000
0000
0000
0000
0000
0000
0000
0000
0000
0000
0000
0000
0033
0202
0000
0000
0000
0000
0000
0000
0000
0000
0000
0000
0000
0000
0000
0000
0303
2200
0000
0000
0000
0000
0000
0000
0000
0000
0000
0000
0000
0000
0000
0000
3300
,
2002
0000
0000
0000
0000
0000
0000
0000
0000
0000
0000
0000
0000
0000
0000
3003
0001
0000
0000
0000
0000
0000
0000
0000
0010
0000
0000
0000
0000
0000
0000
0000
0100
0000
0000
0000
0000
0000
0000
0000
1000
0000
0000
0000
0000
0000
0000
0000
0001
0000
0000
0000
0000
0000
0000
0000
0100
0000
0000
0000
0000
0000
0000
0000
,
0010
1000
0100
0010
0001
0000
0011
1000
,
0000
1100
0001
0101
1000
0000
1010
0001
,
0000
0220
0330
2002
3003
0010
1000
0100
,
0001
1000
0010
0001
0100
0010
1000
0001
,
0101
1000
0000
1100
0001
0011
1000
0000
,
1010
0001
0000
2002
3003
0220
0330
0001
,
0010
1000
0010
0100
1000
0001
0100
1000
,
0100
0001
0011
0100
0000
1100
0010
1010
,
0100
0000
0101
1000
0000
0220
0330
2002
,
3003
0000
1100
0000
0001
0000
0000
0000
0010
0000
0001
0000
0100
0010
0100
0000
,
0001
0010
0100
1000
1010
0001
0000
0101
,
0000
0010
1010
0000
0001
0011
0000
1000
,
1001
0000
0100
0000
0220
0000
0330
0000
0010
0000
1000
0000
0001
0000
0010
0100
,
1000
0000
0100
0000
0010
0001
0100
0000
0010
0000
1000
0000
0001
0000
0001
0000
,
1000
0100
1000
0000
0001
0100
0001
0000
0020
0000
0230
0000
1300
0010
1000
0000
,
0001
0100
0001
0000
0010
0100
0010
0000
0001
1000
0002
0000
0203
0000
0320
0000
,
0230
0000
2300
0000
3200
0000
0310
1000
0010
0000
0100
0001
0200
0000
0302
0000
,
0013
0100
0010
0000
0010
0000
1000
0000
0010
0000
0100
0000
0001
0000
0010
0000
,
0100
0000
0010
0000
0001
0000
2000
0000
3020
0000
0130
0001
2000
0000
3200
0000
,
0310
0001
1000
0000
1200
0000
0000
0000
0310
0001
0010
0001
0010
0000
0000
0000
,
0012
0000
0000
0000
1003
0100
1000
0100
1000
0000
0000
0000
1020
0000
0000
0000
,
0130
0001
0100
0001
0100
0000
0000
0000
0102
0000
0000
0000
1003
0010
1000
0010
,
1000
0000
0000
0000
1002
0000
0000
0000
0103
0010
1000
0001
0100
0000
0000
0000
,
0120
0000
0000
0000
1030
0001
0100
0010
1000
0000
0000
0000
2001
0000
0000
0000
,
3100
0010
0001
0100
0010
0000
0000
0000
0210
0000
0000
0000
0301
1000
0010
0100
,
0001
1000
0100
0100
0100
0100
0100
0100
,
0100
0100
1000
0010
0001
0010
2000
0000
,
3001
0000
0010
0000
1000
0000
0010
0001
0100
1000
0100
0000
0001
0000
0020
0000
,
0000
0000
1030
0010
0001
0100
2000
0000
,
3100
0001
1000
0100
0020
0000
0031
0010
,
1000
0000
0000
0000
0000
0000
0000
0000
0000
0000
0000
0000
0010
0000
0000
0000
0000
0000
0000
0000
0000
0000
0000
0000
0002
0000
0000
0000
0000
0000
0000
0000
0000
0000
0000
0000
0000
0000
0000
0000
0000
0000
0000
0003
0000
0000
0000
0000
2001
0000
0000
0000
0000
0000
0000
0000
0000
0000
0000
0000
0000
0000
0000
0000
0000
0000
0000
0000
0000
0000
0000
0000
0100
0000
0000
0000
0000
0000
0000
0000
0000
0000
0000
0000
0000
0000
0000
0000
0000
0000
0000
0000
0000
0000
0000
0000
,
3100
0120
0001
0031
,
0201
0000
0310
0000
1010
0001
0101
0000
,
1000
0000
0000
0010
0000
0000
0210
0000
0000
0000
0001
0000
0000
0000
0310
0000
,
0000
0120
0000
2030
0000
0002
0000
0000
,
0000
0000
0000
0000
,
0000
0000
3003
0000
,
0000
0000
0001
1000
0010
0001
0010
1000
,
0100
0001
0100
1000
0010
0001
0010
1000
,
0100
0001
1000
0010
0001
0100
1000
0100
,
0001
0010
0100
0100
1000
1000
0001
0001
,
0100
0001
0010
1000
0010
0001
2200
3300
,
0022
0033
2002
3003
1000
1000
0010
0100
,
0100
0000
0001
0000
0100
0000
1000
0000
0100
0000
0101
0000
0000
0011
0000
0000
,
1001
0000
0000
1010
0000
0000
1100
0000
0000
1001
0000
0000
0011
0000
0000
1000
,
0100
0010
0001
0100
0010
1000
0001
0000
0010
0000
0100
0000
0100
0000
1000
0000
,
0010
0000
0001
0000
0010
0000
0100
0001
0000
1000
0100
0000
0010
0000
0001
0000
,
0100
0000
0000
0000
0000
0000
0000
0000
0020
0000
0000
0000
0000
0000
0000
0030
2002
0000
0000
0000
0000
0000
0000
0000
0000
0000
0000
0000
0000
0000
0000
0000
3003
0000
0000
0000
0000
0000
0000
0000
0000
0000
0000
0000
0000
0000
0000
0000
1000
0000
0000
0000
0000
0000
0000
0000
0010
0000
0000
0000
0000
0000
0000
0000
,
0100
0010
0001
1000
0100
0010
0100
0001
,
1000
0100
0001
0100
1000
0010
0100
0100
,
0001
0001
0011
0010
0110
0100
1100
1000
,
1010
0000
0000
0000
0101
0000
0000
0000
1000
0000
0100
0000
0010
0001
0100
0000
,
0010
0000
1000
0000
0001
0100
0010
0000
1000
0100
0010
0001
0010
0100
1000
0100
,
0010
0001
0010
0100
1000
0000
0100
0000
0010
0000
0100
0000
0001
0000
1000
0000
,
0010
0000
0100
0000
1100
0000
0000
1010
0000
0000
0011
0000
0000
0101
0000
0000
,
0011
0000
0000
1010
0000
0000
1100
0000
0000
0001
0010
0100
1000
0001
0010
0000
,
0100
0000
1000
0000
0001
0010
0100
0010
0001
0010
0100
0000
1000
0000
0001
0000
,
1000
0010
0100
0010
1000
0000
0010
0000
0100
0001
1000
0000
0001
0000
1000
0001
,
1000
0001
1000
0001
1000
0001
1000
0001
1000
0001
1000
0001
1000
0001
1000
0001
,
1000
0001
1000
0001
1000
0001
1000
0001
1000
0000
0001
0000
0101
0000
0000
0000
,
1100
0000
1000
0001
0011
0000
1010
0000
,
1100
0010
0011
0000
0101
0010
1010
0000
,
1010
0100
0101
0000
0011
0100
1100
0010
,
1001
2002
0000
0000
,
0000
0000
0000
0000
,
0000
0000
0000
0000
0000
0000
0000
0000
0000
0000
0000
0000
0000
0000
0000
0000
0000
0000
0000
0000
0000
0000
0000
0000
0000
0000
0000
0000
0000
0000
0000
0000
0000
0000
0000
0000
0000
0000
0000
0000
0000
0000
0000
0000
0000
0000
0000
0000
0000
0000
0000
0000
0000
0000
0000
3003
2002
0000
0000
0000
0000
0000
0000
0000
,
0000
0000
0000
0000
0000
0000
0000
0000
0000
0000
3003
0000
;

//---------------dance-double - t7r-BDP----------------
#NOTEDATA:;
#CHARTNAME:t7r-BDP;
#STEPSTYPE:dance-double;
#DESCRIPTION:t7r-BDP;
#DIFFICULTY:Easy;
#METER:13;
#CREDIT:t7r;
#NOTES:
00000000
00000000
00000000
00000000
,
00000000
00000000
00000000
00000000
,
00000000
00000000
00000000
00000000
,
00000000
00000000
00000000
00000000
,
00000000
00000000
00000000
00000000
,
00000000
00000000
00000000
00000000
,
00000000
00000000
00000000
00000000
,
00000000
00000000
00000000
00000000
,
00000000
00000000
01000000
00000000
00010000
00000000
00100000
00002000
,
00000000
00003000
00000000
00000000
,
00000000
00000000
00000000
00000000
,
00000000
00000000
00000000
00000000
,
00000000
00000000
00000000
00000000
,
00000000
00000000
00000000
00000000
,
00000000
00000000
00000000
00000000
,
00010000
00000000
00000000
00000000
00000100
00000000
00000000
00000000
00001000
00000000
00000000
00000000
00000010
00000000
00000000
00000010
,
00000000
00000000
00000100
00000000
00000000
00000200
00000000
00000000
00000000
00000000
00000000
00000300
00000000
00000000
00000000
00000000
,
00000000
00000000
00000000
00000000
,
00000000
00000000
00000000
00000000
,
00000000
00000000
00000000
00000000
,
00000000
00000000
00000000
00000000
,
00000000
00000000
00000000
00000000
,
00000000
00000000
00000001
00000010
,
00001000
00020000
00030000
00000000
,
00000000
00000000
00000000
00000000
,
00000000
00000000
00000000
00000000
,
00000000
00000000
00000000
00000000
,
00000000
00000000
00000000
00000000
,
00000000
00000000
00100000
10000000
,
01000000
00100000
00001000
00000000
,
00000000
00010000
00000000
00000000
00000000
00000000
00000000
00000000
,
00001000
00000000
00000000
00000100
00000000
00000000
00000000
00000000
,
00000000
00000000
00000000
00000001
00000000
00000000
00000000
00000000
,
00000010
00000000
00000000
00000100
00000000
00000000
00010000
00000000
,
00001000
00000000
00010000
00000000
,
00000000
00000000
00002000
00000000
,
00000000
00023000
00000000
00000000
,
00230000
00000000
00000000
10300000
,
00000000
00000000
01000000
00000000
,
00000000
00100000
00000000
00000000
,
00001000
00000000
00000000
00020000
,
00000000
00000000
00000000
00000000
,
00000000
00000000
00000000
00000000
,
00000000
00000000
00000000
00000000
,
00000000
00030000
00001000
00010000
,
00001000
00000000
00000020
00000000
00000000
00000031
00000000
00000000
,
00000100
00000100
00001000
00010000
,
02000000
00000000
00000000
13000000
00000000
00000000
00100000
00000000
,
01000000
00001000
00010000
00000200
,
00000000
00001300
00000000
00000000
00000010
00000000
00000100
00000000
,
00000001
00000000
00001000
00000000
00000002
00000000
00000000
00000023
,
00000000
00000230
00000000
00010300
00001000
00000000
00000000
00010000
,
00000000
00000000
01000000
00000000
10000000
00000000
00000000
10000000
,
00000000
00010000
10000000
00000000
00000000
00000000
00010000
00000000
,
00010000
00000000
00000000
01000000
00001000
00000000
00010000
00000000
,
00001000
00000000
00000100
00000100
,
00000000
00000001
00000010
00000000
00000100
00000000
00010000
00000000
,
00000000
00000000
00001000
00000000
00001000
00000000
00000000
00010000
,
00000000
00100000
00000000
10000000
00000000
01000000
00000000
00010000
,
00000000
00001000
00000000
00022000
00000000
00000000
00000000
00000000
,
00033000
00000000
00011000
00000000
00000000
01001000
00000000
00000000
,
00011000
00000000
00000000
00011000
00000000
00000000
00010100
00000000
,
00000100
00000000
00000000
00001000
00000000
00000000
00001000
00000000
,
00000000
00000001
00000100
00000000
00001000
00000000
00011000
00000000
,
00000000
00011000
00000000
00000000
00101000
00000000
00000000
00011000
,
00000000
00000000
00011000
00000000
00010000
00000000
00000000
01000000
,
00000000
00000000
10000000
00000000
00000000
00100000
01000000
00000000
,
00100000
00000000
10000000
00000000
00000000
10010000
00000000
00000000
,
11000000
00000000
00000000
10010000
00000000
00000000
10000000
00000000
,
00100000
00010000
00001000
00010000
,
00001000
00000010
00000001
00000101
,
00000000
00001001
00000000
00000000
00001100
00000000
00000000
00010100
,
00000000
00000000
00010000
00001000
00000000
00000000
00010000
00000000
,
00100000
10000000
00010000
10000000
,
01000000
00200000
00000000
00000000
,
00302000
00000000
00000000
00000000
,
00000000
00000000
00000000
00000000
00000000
00023000
00000000
00000000
,
00000000
00000000
00000000
00030200
00000000
00000000
00000000
00000000
,
00000000
00000000
00000000
00000000
00000000
00000000
00001300
00000001
,
00000000
00000001
00001000
00000000
00001001
00000000
00000000
00000000
,
00000000
00011000
00000000
00000000
,
10010000
00000000
00000000
00011000
,
00000000
00000000
00001001
00000000
,
00000000
00000110
00000000
00000000
,
00011000
00000000
00000000
02200000
,
00000000
00000000
00000000
00000000
,
00000000
03300000
10000000
10000000
,
10000000
00000000
00000000
01000000
00000000
01000000
00000000
00000000
,
00000000
00000000
00010000
00010000
,
00010000
00000000
00000000
00001000
00000000
00001000
00000000
00000000
,
00000000
00000100
00000000
00000000
00000000
00000000
00000002
00000000
,
00000000
00000000
00000023
00000000
,
00000000
00002030
00000000
00013000
,
00000000
00100000
00000000
10000000
,
00000000
01000000
00010000
00000000
,
00002000
00000000
00013000
00010000
,
00000010
00000010
00001000
00001000
,
00000001
00000001
00000100
00000100
,
00001000
00000000
00001000
00000000
00010000
00001000
00010000
00000000
,
00001000
00011000
00010000
00010000
,
02000000
03200000
00301000
00000000
,
00000000
00000000
00000000
00010000
00001000
00000000
00011000
00000000
,
00010000
00000000
00000000
00000000
01000000
00000000
00000000
00000000
10000000
00000000
00000000
00010000
00000000
00000000
00001000
00000000
,
00000000
00000001
00000000
00000000
00000000
00000000
00000000
00000000
00000100
00000000
00000000
00000000
00000020
00000000
00000000
00000000
,
00020030
00000000
00031000
00000000
00001000
00100000
00001000
00000000
,
00001000
00100000
00010000
10000000
,
00200000
00300000
00000000
00000000
00000000
00000000
00000000
00000000
,
00000000
00000000
00000000
00000000
,
00000000
00000000
00000000
00010000
,
00010100
00000100
00010100
00010000
,
00010010
00000010
00010010
00010000
,
00011000
00000000
00001000
00000000
00101000
00000000
00100000
00001000
,
00100000
00001000
00100000
00000000
00001000
00000000
00020000
00000000
,
00030000
00011000
00010100
00011000
,
00002000
00000000
00023000
00000000
00030200
00000000
00010300
00001000
,
00010000
00000000
00001000
00000000
00010000
00000000
00001000
00000000
00010000
00000000
00000000
00000000
00001000
00000000
00000000
00001000
,
00000000
00000000
00010000
00000000
00000000
01000000
00000000
00000000
10000000
00000000
00000000
00000000
10010000
00000000
00000000
00000000
,
00100000
01100000
00001000
00011000
,
00000100
00001001
00000010
00000110
,
00000010
00000000
00010000
00001000
00010000
00001000
00010000
00001000
,
00010000
00001000
00010000
00001000
00010000
00001000
00010000
00001000
,
00010000
00000000
01100000
00000000
,
10000000
00000000
00010000
00000000
,
00001000
00000000
00000001
00000000
,
00000200
00000000
00001300
00012000
,
00000000
00000000
00000000
00000000
,
00000000
00000000
00000000
02003000
00000000
00000000
00000000
00000000
,
00000000
00000000
00000000
00000000
,
00000000
00000000
00000000
03000000
00000000
00000000
00000000
00000000
;

//---------------dance-double - t7r-DDP----------------
#NOTEDATA:;
#CHARTNAME:t7r-DDP;
#STEPSTYPE:dance-double;
#DESCRIPTION:t7r-DDP;
#DIFFICULTY:Medium;
#METER:15;
#CREDIT:t7r;
#NOTES:
00000000
00000000
00000000
00000000
,
00000000
00000000
00000000
00000000
,
00000000
00000000
00000000
00000000
,
00000000
00000000
00000000
00000000
,
00000000
00000000
00000000
00000000
,
00000000
00000000
00000000
00000000
,
00000000
00000000
00000000
00000000
,
00000000
00000000
00000000
00000000
,
00000000
00000000
00011000
00000000
01001000
00000000
01000000
00010000
,
20000000
30000000
00000000
00000000
,
00000000
00000000
00000000
00000000
,
00000000
00000000
00000000
00000000
,
00000000
00000000
00000000
00000000
,
00000000
00000000
00000000
00000000
,
00000000
00000000
00000000
00000000
,
00011000
00000000
00000000
00000000
00010100
00000000
00000000
00000000
00000100
00000000
00001000
00000000
00000001
00000000
00000000
00000001
,
00000000
00000000
00000100
00000000
00000000
00001000
00000000
00000000
00020000
00000000
00000000
00030000
00000000
00000000
00000000
00000000
,
00000000
00000000
00000000
00000000
,
00000000
00000000
00000000
00000000
,
00000000
00000000
00000000
00000000
,
00000000
00000000
00000000
00000000
,
00000000
00000000
00000000
00000000
,
00000000
00000000
00000000
00000000
00001000
00010000
00001000
00100000
,
00010000
10000000
00200000
00000000
00300000
00000000
00000000
00000000
,
00000000
00000000
00000000
00000000
,
00000000
00000000
00000000
00000000
,
00000000
00000000
00000000
00000000
,
00000000
00000000
00000000
00000000
,
00000000
00000000
00000000
00000000
11000000
00000000
01000000
00100000
,
00002000
00000000
00013000
00001000
00010000
00000000
00000000
00000000
,
00000000
00001000
00000000
00000000
00000000
00000000
00000000
00000000
,
00000100
00000000
00000000
00000010
00000000
00000000
00000000
00000000
,
00000000
00000000
00000000
00001000
00000000
00000000
00000000
00000000
,
00000100
00000000
00000000
00010000
00000000
00000000
00001000
00000000
,
00010000
00000000
01000000
00000000
,
00000000
00000000
10010000
00000000
,
00000000
00011000
00000000
00000000
,
00002002
00000000
00000000
00000000
00000000
00003003
00000002
00000000
,
00000000
00000000
00000203
00000000
,
00000000
00001300
00000000
00000000
,
00010000
00000000
00000000
02000000
,
00000000
00000000
00000000
00000000
,
00000000
00000000
00000000
00000000
,
00000000
00000000
00000000
00000000
,
00000000
00000000
00000000
03000000
00100000
00001000
00010000
00001000
,
00010000
00000010
00001000
00000020
00000000
00010030
00001000
00010000
,
00002000
00000000
00103000
00010000
10000000
00100000
01000000
00010000
,
10000000
02000000
00000000
03100000
00001000
00010000
00002000
00000000
,
00013000
00000010
00001000
00000001
00000010
00000001
00000010
00000200
,
00000000
00010300
00001000
01000000
00020000
00000000
10030000
01000000
,
00100000
00001000
00010000
00001000
00010000
00001000
00000000
00020000
,
00000000
02030000
00000000
13000000
00010000
00000000
00000000
10010000
,
00000000
00000000
11000000
00000000
10010000
00000000
10000000
01000000
,
00000000
01000000
00010000
00000000
00000000
00000000
00011000
00000000
,
00011000
00000000
00000000
00000100
00001000
00000001
00001000
00000000
,
00001001
00000000
00000110
00001001
,
00000000
00000001
00000010
00000001
00001000
00000000
00001100
00000000
,
00000000
00000000
00011000
00000000
01001000
00000000
00000000
02000000
,
00000000
03200000
00000000
20300000
00000000
32000000
00000000
03020000
,
00000000
00032000
00000000
00003200
00000000
00000000
00000000
00000000
,
00000302
00000000
00000013
00000001
00000000
00000100
00000001
00000000
,
00001000
00000000
00000100
00010000
00000000
00000000
00011000
00000000
,
00011000
00000000
00001000
01000000
00000000
00000000
01100000
00000000
,
00000000
00100000
10000000
00010000
10000000
01000000
00100000
00000000
,
00000000
00101000
00000000
00000000
00011000
00000000
00000000
00010100
,
00000000
00000000
00010010
00000000
00000010
00000000
00000100
00000001
,
00001000
00000100
00010000
00000000
00000000
00001000
00010000
01000000
,
10000000
00000000
01100000
00000000
10000000
00010000
20000000
00000000
,
31000000
00010000
00000000
00010000
00001000
00000000
00011000
00000000
,
00011000
00000000
00001000
00000100
00000000
00000010
00000100
00000000
,
00000001
00000010
00000001
00001000
00000100
00010000
00001000
00000000
,
00000000
00011000
00000000
00010000
00000100
00000000
00010000
00001000
,
00000000
00000000
00100000
00010000
01000000
00000000
00100000
10000000
,
01000000
00100000
00001000
00000000
00010000
00001000
00010000
00000010
,
00001000
00000100
00000010
00000000
00000002
00000003
00000002
00000003
,
00001000
00000100
00020000
00030000
00000000
00020000
00030000
00000000
,
01000000
10000000
00100000
00000000
00000000
02000000
03000000
00000000
,
00000000
02000000
03000000
00010000
10000000
02000000
03000000
00000000
,
02000000
03000000
00000000
00020000
00030000
00001000
00010000
00002000
,
00003000
00000000
00000100
00000010
00000200
00001000
00000000
00000000
,
00000000
00000000
00000302
00000010
00000000
00000000
00000000
00000000
,
00002003
00000100
00000000
00000000
00003000
00000000
00002200
00000000
,
00000000
00000000
00003300
00000000
00020000
00000100
00000000
00000000
,
00000000
00000000
00032000
01000000
00000000
00000000
00000000
00000000
,
00023000
00000010
00000000
00000000
00000000
00000000
00032000
00100000
,
00000000
00000000
00003000
00000000
00010000
00000100
00010000
00001000
,
01000000
00001000
00010000
00001000
00010000
00000000
00100000
00000000
,
01000000
00000000
00000000
00001000
00000000
00010000
00000000
00001000
,
00000000
00000010
00000000
00000000
00000001
00000000
00000100
00000000
,
00001000
00000000
00000000
00010000
00000000
01000000
00000000
00000000
,
00000000
10000000
00000000
00100000
01000000
00000000
00200000
00000000
,
10000000
10300000
00020000
01000000
,
01030000
00000000
00002000
00000000
00010000
00000000
00013000
00000010
,
00000000
00000010
00002000
00000000
00000100
00000000
00003001
00000000
,
00000100
00002000
01000000
00013000
,
00002000
00000000
00013000
01000000
,
10000000
00100000
01000000
00010000
,
00100000
00001000
00010000
00001000
,
00000100
00000000
00000010
00000000
00000100
00000001
00001000
00000001
,
00000010
00000001
00001000
00000000
00000001
00000000
00000100
00000000
,
00000010
00010010
00010010
00000000
,
00000000
00000000
00000000
00010000
00000100
00010000
00001000
01000000
,
00010000
00000000
10000000
00000000
01000000
00000000
00010000
00000000
00001000
00000000
00000000
01000000
00000000
00000000
00000100
00000000
,
00000000
00010000
00000000
00000000
00001000
00000000
00000000
01000000
00000000
00000000
00000100
00000000
00010000
00000000
00001000
00000000
,
00010000
00001000
00010000
00000000
00001000
00000100
00000010
00000000
,
00001000
00000000
00000000
00000000
00000100
00000000
00000000
01000000
00000000
00000000
00001000
00000000
00020000
00000000
00000000
00000000
,
00030000
00000000
00000000
00000000
,
00000000
00000000
00000000
00000000
,
00000000
00000000
00000000
00000000
00000000
00000000
00001000
00010000
,
00000100
00000000
00001000
00000010
00000100
00000000
00000001
00000010
,
00000100
00000000
00001000
00000010
00010000
00000000
00001000
01000000
,
00010000
10000000
01000000
00100000
00001000
00000000
00010000
00000100
,
00010000
00001000
00010000
01000000
10000000
00000000
00100000
01000000
,
00100000
01000000
00001000
00010000
00001000
00010000
00000010
00000100
,
00000010
00000100
00000001
00000100
00001000
00010000
00001000
01000000
,
00010000
00000000
10000000
00000000
01000000
00000000
00100000
00000000
00001000
00000000
00010000
00000000
00000010
00000000
00000000
00100000
,
00000000
00000000
00001000
00000000
00000000
00010000
00000000
00000000
00000100
00000000
00000000
01000000
00000000
00000000
00000100
00000000
,
00010000
00001000
01000000
00010000
00100000
01000000
10000000
00100000
,
01000000
00000000
00001000
00010000
00000100
00001000
00000010
00000100
,
00000001
00001000
00000002
00000203
00002300
00000000
00023000
02030000
,
23000000
00000000
30200000
00320000
00032000
00000000
00003020
00000032
,
00001003
00000100
00001000
00000100
00020000
00000000
00031000
00010000
,
00001000
01000000
00001000
01000000
00002000
00000000
00013000
00000010
,
00010000
00001000
00010000
00001000
00020000
00000000
00031000
01000000
,
00200000
00000000
00310000
00001000
00011000
00000000
00021000
00000000
,
00030020
00000000
00000000
00000000
,
00000000
00000030
00000000
00202000
00000000
00000000
00000000
00000000
,
00000000
00000000
00000000
00000000
,
00000000
00000000
00000000
00303000
00000000
00000000
00000000
00000000
;

//---------------dance-double - forcednature-EDP----------------
#NOTEDATA:;
#CHARTNAME:forcednature-EDP;
#STEPSTYPE:dance-double;
#DESCRIPTION:forcednature-EDP;
#DIFFICULTY:Hard;
#METER:18;
#CREDIT:forcednature;
#NOTES:
00000000
00000000
00000000
00000000
,
00000000
00000000
00000000
00000000
,
00000000
00000000
00000000
00000000
,
00000000
00000000
00000000
00000000
,
00000000
00000000
00000000
00000000
,
00000000
00000000
00000000
00000000
,
00000000
00000000
00000000
00000000
,
00000000
00000000
00000000
00000000
,
00000000
00000000
00000000
00000000
00011000
00000000
00000000
00000000
00010100
00000000
00000000
00000000
00001100
00000000
00000100
00001000
,
00000001
00000200
00000300
00000000
00000000
00000000
00000000
00000000
,
00000000
00000000
00000000
00000000
,
00000000
00000000
00000000
00000000
,
00000000
00000000
00000000
00000000
,
00000000
00000000
00000000
00000000
,
00000000
00000000
00000000
00000000
,
00001010
00000000
00000000
00000000
00011000
00000000
00000000
00000000
01010000
00000000
01000000
00000000
01001000
00000000
00000000
00010100
,
00000000
00000000
00001010
00000000
00000000
00000102
00000000
00000000
00000023
00000000
00000000
00000030
00000000
00000000
00000000
00000000
,
00000000
00000000
00000000
00000000
,
00000000
00000000
00000000
00000000
,
00000000
00000000
00000000
00000000
,
00000000
00000000
00000000
00000000
,
00000000
00000000
00000000
00000000
,
00000000
00000000
00000000
00000000
00000100
00010000
00001000
00010000
,
00100000
00000000
10000000
00010000
00200000
00000000
00000000
00000000
00300000
00000000
00000000
00000000
00000000
00000000
00000000
00000000
,
00000000
00000000
00000000
00000000
,
00000000
00000000
00000000
00000000
,
00000000
00000000
00000000
00000000
,
00000000
00000000
00000000
00000000
,
00000000
00000000
00000000
00000000
00000000
00000000
00000000
00000000
01000000
00000000
00010000
00000000
00001000
00000010
00000001
00000000
,
00000001
00000001
00000001
00000001
00000002
00000000
00000000
00000000
,
00000000
00000203
00000000
00000000
00000000
00000000
00000000
00000000
,
00020300
00000000
00000000
00230000
00000000
00000000
00000000
00000000
,
00000000
00000000
00000000
02300000
00000000
00000000
00000000
00000000
,
03020000
00000000
00000000
00032000
00000000
00000000
00003020
00000000
,
00000230
00000000
00020000
00000000
,
00030300
00000000
00022000
00000000
,
00033000
02200000
00000000
03300000
,
20020000
00000000
00030000
32000000
,
00000000
00000000
03020000
00000000
,
00000000
00032000
00000000
00000000
,
00003010
00000100
00001000
00000010
00000100
00001000
00010000
01000000
,
00100000
00010000
01000000
00100000
00010000
00001000
00000100
00000010
,
00001000
00000100
00000010
00001000
00010000
00100000
01000000
00010000
,
00100000
01000000
00010000
00001000
00000010
00000100
00001000
00000010
,
00000100
00000000
00002000
00000000
00000000
00003000
00000000
00000000
00000100
00000000
00000001
00000000
00000010
00000000
00000100
00000000
,
00001000
00010000
00100000
01000000
00000000
01000000
10000000
00100000
,
00010000
00000000
00010000
00001000
00000010
00000100
00010000
00001000
,
00000100
00000010
00000000
00000010
00001000
00000001
00000010
00000000
,
00000010
00001000
00010000
01000000
00010000
00001000
00010000
00100000
,
00000000
00100000
10000000
01000000
00100000
00000000
00100000
00010000
,
00001000
00000100
00000010
00000001
00001000
00000010
00000000
00000200
,
00000000
00000000
00020300
00000000
00000000
00000000
02030000
03000000
01100000
00000000
00000000
00000000
00100000
00000000
10000000
00000000
,
00000000
01000000
00001000
00000000
00000100
00010000
00001000
00000100
,
00000000
00000001
00000001
00000010
00001000
00010000
01000000
00000000
,
01100000
00000000
00000000
10000000
01000000
00010000
00000100
00000000
,
00000010
00001000
00010000
00000010
00000100
00000000
00000110
00000000
,
00000000
00000001
00000100
00001000
01000000
00000000
00100000
00010000
,
00001000
00100000
01000000
00000000
01100000
00000000
00000000
12000000
,
00000000
00000000
00000000
03000000
01020000
00000000
00000000
00000000
00000000
00000000
00000000
00030000
00012000
00000000
00000000
00000000
00000000
00000000
00000000
00003000
00001200
00000000
00000000
00000000
00000000
00000000
00000000
00000300
00000102
00000000
00000000
00000000
,
00000000
00000000
00000000
00000003
00002001
00000000
00000000
00000000
00000000
00000000
00000000
00000000
00003001
00000000
00000010
00000000
00000100
00000000
00001000
00000000
00000100
00000000
00010000
00000000
00001000
00000000
00100000
00000000
00010000
00000000
00100000
00000000
,
02000000
00000000
03100000
00001000
00000000
00010000
00100000
00000000
,
10000000
01000000
00000000
00010000
00000010
00000000
00000100
00001000
,
00000100
00000001
00000000
00000010
00001000
00000000
00010000
00100000
,
00000000
01000000
00010000
00100000
00000100
00001000
00000010
00000100
,
00000000
00001000
01000000
00000000
00010000
00100000
00000000
00001000
,
00000010
00000000
00000100
00010000
01000000
00010000
00000000
00001000
,
00000100
00000000
00010000
01000000
00000000
10000000
10000000
01000000
,
00010000
00000000
00000000
00100000
00000000
00000000
00001000
00000000
00000000
00000000
00000000
00000000
00000010
00000000
00000100
00000000
00000010
00000000
00000100
00000000
00000000
00000000
00000000
00000000
,
00001000
00000001
00000000
00000100
00010000
00000000
01000000
00001000
,
00000010
00001000
00010000
00010000
00100000
00000000
10000000
01000000
,
00010000
00001000
00010000
00000000
00000100
00000000
00000100
00000000
00001000
00000000
00001000
00000000
00000001
00000000
00000100
00000000
,
00000000
00001000
00100000
00001000
00001000
00000000
00010000
00100000
,
01000000
00000000
00001000
00000010
00000100
00000000
00010000
00010000
,
00000000
00000000
00000001
00000100
00000001
00000000
00000010
00000000
00000100
00001000
00000100
00000000
00010000
00000000
00001000
00000000
,
01000000
00000000
00000000
00001000
00000000
00000000
00100000
00000000
00010000
00000000
00100000
00000000
01000000
00000000
10000000
00000000
01000000
00000000
00010000
00000000
00000000
00001000
00000000
00000000
,
00010000
00000100
00001000
00000100
00010000
00001000
00010000
00000010
00001000
00000100
00000010
00000001
,
00000010
00000000
00000100
00000000
00001000
00000000
00000001
00000000
00000000
00000100
00000000
00000000
00000001
00000000
00000010
00000000
00000001
00000000
00000100
00000000
00000001
00000000
00001000
00000000
,
00000010
00000000
00000000
00010000
00000000
00000000
00001000
00000000
00100000
00000000
00010000
00000000
00100000
00000000
01000000
00000000
10000000
00000000
00010000
00000000
10000000
00000000
00100000
00000000
,
01000000
00000000
00010000
00000000
01000000
00000000
00001000
00000000
00010000
00000000
00000100
00000000
00001000
00000000
00000100
00000000
00000010
00000000
00000002
00000000
00000000
00000203
00000000
00000000
,
00000000
00000000
00020300
00000000
00230000
00000000
00000000
00000000
01300000
10000000
01000000
00000000
00100000
00000000
00001000
00000000
,
00010000
00000000
00000010
00000000
00000100
00000001
00000100
00000000
00000010
00000000
00010000
00000000
00001000
00000000
00100000
00000000
,
01000000
10000000
01000000
00000000
00100000
00000000
00001000
00000000
00010000
00000000
00000010
00000000
00000100
00000001
00000100
00000000
,
00000010
00000000
00010000
00000000
00001000
00000000
01000000
00000000
00100000
10000000
00100000
00000000
01000000
00000000
00001000
00000000
,
00010000
00000000
00000100
00000000
00000010
00000001
00000010
00000000
00000100
00000000
00010000
00000000
00001000
00000000
01000000
00000000
,
00100000
10000000
00100000
00000000
01000000
00000000
00001000
00000000
00010000
00000000
00000100
00000000
00000010
00000001
00000010
00000000
,
00000100
00010000
00001000
00100000
01000000
01000000
01000000
01000000
,
01000000
00000000
00000000
00000000
01000000
00000000
00000000
00000000
01000000
00000000
00000000
00000000
01000000
00000000
00000000
00000000
00200000
00300000
00000000
00000000
00020000
00030000
00000000
00000000
00002000
00003000
00000000
00000000
00000200
00000300
00000000
00000000
,
00000020
00000000
00000000
00000000
00000000
00000000
00000000
00000000
00000032
00000003
00000000
00000000
00000200
00000300
00000000
00000000
00002000
00003000
00000000
00000000
00020000
00030000
00200000
00300000
02000000
03000000
00200000
00300000
20000000
30000000
00000000
00000000
,
02000000
03000000
00000000
00000000
00020000
00000000
00000000
00000000
00000000
00000000
00000000
00000000
00000000
00000000
00000000
00000000
00032000
00003000
00000000
00000000
00000020
00000030
00000000
00000000
00000200
00000300
00000000
00000000
00002000
00003000
00000000
00000000
,
00000002
00000000
00000000
00000000
00000000
00000000
00000000
00000000
00000203
00000300
00000000
00000000
00002000
00003000
00000000
00000000
00020000
00030000
00000000
00000000
00200000
00300000
00000000
00000000
02000000
00000000
00000000
00000000
00000000
00000000
00000000
00000000
,
03200000
00300000
00000000
00000000
20000000
30000000
00000000
00000000
02000000
03000000
00000000
00000000
00020000
00030000
00000000
00000000
00002000
00000000
00000000
00000000
00003000
00000000
00000000
00000000
00021000
00000000
00000000
00000000
00000000
00000000
00000000
00000000
,
00230000
20300000
30020000
00032000
,
00003002
00000000
00000023
00000000
00020030
00000000
00030020
00000230
,
00000000
00000000
00020300
00000000
00000000
00000000
00230000
00000000
00000000
02300000
00000000
00000000
03020000
00000000
00000000
00000000
,
20030000
30020000
00032000
00003002
,
00002003
00000000
00003010
00000000
00000000
00000000
00001001
00000000
00000000
00010100
00000000
00000000
,
00101000
11000000
00101000
01000100
,
00010010
00001100
00110000
01001000
,
00010100
00000000
00000110
00000000
00000001
00000100
00001000
00010000
,
01000000
10000000
10100000
00000000
11000000
00000000
01010000
00000000
,
00012000
00000000
00000000
00000000
00000000
00000000
00000000
00003000
00001020
00000000
00000000
00000000
00000000
00000000
00000000
00000030
00000012
00000000
00000000
00000000
00000003
00000000
00000000
00000000
00000000
00000000
00000000
00000000
00000000
00000000
00000000
00000000
,
00000200
00000000
00000000
00001300
00001000
00010000
01000000
00100000
,
00001000
00000000
00010000
00000000
00100000
00000000
10000000
00000000
01000000
00000000
00000000
00001000
00000000
00000000
00000010
00000000
,
00000000
00000100
00000000
00000000
00010000
00000000
00000000
00100000
00000000
00000000
01000000
00000000
00000000
00010000
00001000
00010000
,
00001000
00010000
00001000
00010000
00001000
00000000
00000000
00000000
00000010
00000000
00000001
00000000
00000100
00000000
00000000
00000000
,
00010000
00000000
00000000
00000000
00000000
00000000
00000000
00000000
00000000
00000000
00000000
00000000
00100000
00000000
00000000
01000000
00000000
00000000
00000000
00000000
00000000
10000000
00000000
00000000
02000000
00000000
00000000
00000000
00000000
00000000
00000000
00000000
00000000
00000000
00000000
00000000
03020000
00000000
00000000
00000000
00000000
00000000
00000000
00000000
00031000
00000000
00000000
00000000
,
00000000
00000000
00000000
00000000
,
00000000
00000000
00022000
00000000
,
00000000
00000000
00000000
00000000
00033000
00000000
00010000
00001000
,
00000010
00001000
00010000
00000100
00000001
00000100
00001000
00000010
,
00010000
00000010
00000100
00001000
00010000
00100000
10000000
00010000
,
01000000
10000000
01000000
00001000
00100000
01000000
00010000
00010000
,
00001000
00001000
00000010
00000010
00000100
00010000
00001000
00000000
,
00000100
00000000
00000001
00000000
00000010
00000100
00000010
00000100
00010000
00000000
00001000
00000000
01000000
00100000
01000000
00000000
,
00010000
00100000
01000000
10000000
01000000
00100000
00010000
00100000
00001000
00010000
00000100
00001000
00000100
00000000
00000010
00000000
,
00000001
00000000
00000010
00000000
00001000
00000000
00010000
00000000
00100000
00000000
00010000
00000000
00001000
00000000
00000000
01000000
,
00000000
00000000
00000100
00000000
00000000
00100000
00000000
00000000
00000010
00000000
00000000
01000000
00000000
00000000
00000100
00000000
,
00000000
00010000
00001000
00010000
00001000
00010000
00001000
00010000
00000100
00000000
00000010
00000000
00000100
00000000
00010000
00000000
,
00001000
00000000
01000000
00000000
00100000
00000000
01000000
00000000
00001000
00010000
00000000
00000100
00001000
00000100
00000000
00000010
,
00000001
00001000
00000001
00000200
00000000
00000000
00000000
00000000
00000000
00000000
00000000
00000000
00000000
00000000
00000000
00000000
,
00000000
00000000
00000000
00000000
,
00000301
00000100
00000010
00000100
00001000
00010000
00001000
00100000
,
01000000
00100000
00001000
00010000
00100000
10000000
01000000
00010000
,
00001000
00010000
00000100
00100000
00001000
00010000
00000010
00001000
,
00000200
00000000
00000000
00000000
00000000
00000000
00000000
00000000
00000310
00000000
00000000
00000000
00001002
00000000
00000000
00000203
,
00000000
00000000
00020300
00000000
00000000
00230000
00000000
00000000
00000000
00000000
00000000
00000000
02300000
00000000
00000000
00000000
,
00000000
03000000
00000000
20002000
00000000
00000000
00000000
00000000
,
00000000
00000000
00000000
00000000
,
00000000
00000000
00000000
00000000
00000000
00000000
00000000
00000000
00000000
00000000
00000000
30003000
00000000
00000000
00000000
00000000
00000000
00000000
00000000
00000000
00000000
00000000
00000000
00000000
00000000
00000000
00000000
00000000
00000000
00000000
00000000
00000000
;

//---------------dance-double - t7r-CSP----------------
#NOTEDATA:;
#CHARTNAME:t7r-CDP;
#STEPSTYPE:dance-double;
#DESCRIPTION:t7r-CDP;
#DIFFICULTY:Challenge;
#METER:19;
#CREDIT:t7r;
#OFFSET:-0.101;
#BPMS:0=255,22.5=127.5,51=255,105=510,110=255,209=510,213=255,229=53.570,230=255,247.5=285,248=300,248.5=315,249=330,249.5=345,250=375,250.5=410,251=460,251.5=510,257=255,361=260,362=310,363=360,364=410,365=460,366=510,371=460,371.5=410,372=360,372.5=310,373=210,373.5=160,374=110,374.5=80,375=50,375.25=25,375.313=12,375.375=255;
#STOPS:0=7.529,4.5=5.412,11.5=5.412,15.5=4.706,51=2.706,55.5=0.118,57.5=0.118,61.5=0.118,63.5=0.118,67.5=0.118,69.5=0.118,73.5=0.118,84.5=0.118,86.5=0.118,90.5=0.118,92.5=0.118,96.5=0.118,98.5=0.118,113=0.118,118=0.118,126=0.118,131=0.118,139=0.118,145.5=0.118,209=0.059,209.5=0.059,210=0.059,210.5=0.059,211=0.059,211.5=0.059,212=0.059,212.5=0.059,213=0.118,213.5=0.118,214=0.118,214.5=0.118,215=0.471,216=0.118,216.5=0.118,217=0.118,217.5=0.118,217.75=0.118,218=0.118,218.25=0.118,218.5=0.118,219=0.118,219.5=1.059,221=0.118,221.5=0.118,222=0.118,222.5=0.118,223=0.706,224=0.118,224.5=0.118,225=0.118,225.5=0.118,226=0.235,227=0.118,227.5=0.118,228=0.118,228.5=0.118,229=0.343,238.5=0.118,277=0.588,296.5=2.471,375.375=5;
#TIMESIGNATURES:0=4=4;
#NOTES:
00000000
00000000
00000000
00000000
20020000
00000000
30030000
00000000
22000000
00000000
33000000
00000000
10010000
00000000
10000000
00010000
,
01000000
00001000
00000220
00000330
00002002
00003003
00000101
00000100
,
00000010
00000000
00000000
00001010
00000000
00000000
00001100
00000000
00000000
00010100
00000000
00000000
00022000
00000000
00033000
00000000
,
00101000
00000000
00001000
00000000
00010000
00000000
00100000
00000000
01100000
00000000
00100000
10000000
00010000
00000000
10000000
00000000
,
20020000
00000000
30030000
00000000
10000000
01000000
00100000
00000000
00100000
00000000
00100000
00000000
00100000
00000000
00100000
00000000
,
00200000
00000000
00000000
00000000
00000000
00000000
00000000
00000000
00300000
00000000
00000000
00002000
00000000
00000000
00000000
00000000
,
00023000
00032000
00000000
00003200
,
00000000
00000320
00000000
00000000
00002030
00000000
00000000
00003002
00000000
00000023
00000000
00000000
00000000
00002030
00000000
00000000
,
00000000
00000000
00003000
00000000
00000000
00022000
00000000
00000000
00000000
00033000
00000000
02002000
00000000
00000000
03003000
00000000
,
20020000
00000000
30030000
20000000
00000000
00000000
30200000
00000000
,
00000000
00000000
00000000
00320000
00000000
00000000
00000000
00000000
00000000
00032000
00000000
00000000
00000000
00000000
00003010
00000001
,
00001000
00000010
00000100
00000001
00000100
00000010
00010000
00001000
00100000
00010000
01000000
00100000
10000000
01000000
00100000
00010000
,
00001000
00000000
00000100
00000000
00000010
00000000
00000001
00000000
00000100
00000000
00000010
00000000
00001000
00000000
00010000
00000000
01000000
00000000
00100000
00000000
10000000
00000000
00020000
00000000
00000000
00030000
00000000
00000000
00000000
00000000
00000000
00000000
,
00010000
00000000
00000000
00000000
00000000
00000000
00000000
00000000
10000000
00000000
00000000
00000000
00000000
00000000
00000000
00000000
01000000
00000000
00000000
00000000
00000000
00000000
00000000
00000000
00100000
00000000
00000000
00000000
00000000
00000000
00000000
00000000
01000000
00000000
00000000
00000000
00000000
00000000
00000000
00000000
10000000
00000000
00000000
00000000
00000000
00000000
00000000
00000000
00010000
00000000
00000000
00000000
00000000
00000000
00000000
00000000
02000000
00000000
00000000
00000000
00000000
00000000
00000000
03000000
,
01000000
00000000
00000000
00000000
00000000
00000000
00000000
00000000
10000000
00000000
00000000
00000000
00000000
00000000
00000000
00000000
00010000
00000000
00000000
00000000
00000000
00000000
00000000
00000000
00200000
00000000
00000000
00000000
00000000
00000000
00000000
00300000
00100000
00000000
00000000
00000000
00000000
00000000
00000000
00000000
10000000
00000000
00000000
00000000
00000000
00000000
00000000
00000000
01000000
00000000
00000000
00000000
00000000
00000000
00000000
00000000
00010000
00000000
00000000
00000000
00000000
00000000
00000000
00000000
,
00001000
00000000
00000000
00000000
00000000
00000000
00000000
00000000
00010000
00000000
00000000
00000000
00000000
00000000
00000000
00000000
00000100
00000000
00000000
00000000
00000000
00000000
00000000
00000000
00002000
00000000
00000000
00000000
00000000
00000000
00000000
00003000
00001000
00000000
00000000
00000000
00000000
00000000
00000000
00000000
00010000
00000000
00000000
00000000
00000000
00000000
00000000
00000000
00000100
00000000
00000000
00000000
00000000
00000000
00000000
00000000
00002000
00000000
00000000
00000000
00000000
00000000
00000000
00003000
,
00001000
00000000
00000000
00000000
00000000
00000000
00000000
00000000
00010000
00000000
00000000
00000000
00000000
00000000
00000000
00000000
00000010
00000000
00000000
00000000
00000000
00000000
00000000
00000000
00001000
00000000
00000000
00000000
00000000
00000000
00000000
00000000
00000001
00000000
00000000
00000000
00000000
00000000
00000000
00000000
00000100
00000000
00000000
00000000
00000000
00000000
00000000
00000000
00000001
00000000
00000000
00000000
00000000
00000000
00000000
00000000
00000020
00000000
00000000
00000000
00000000
00000000
00000000
00000030
,
00000010
00000000
00000000
00000000
00000000
00000000
00000000
00000000
00001000
00000000
00000000
00000000
00000000
00000000
00000000
00000000
00000001
00000000
00000000
00000000
00000000
00000000
00000000
00000000
00000200
00000000
00000000
00000000
00000000
00000000
00000000
00000300
00000100
00000000
00000000
00000000
00000000
00000000
00000000
00000000
00001000
00000000
00000000
00000000
00000000
00000000
00000000
00000000
00000001
00000000
00000000
00000000
00000000
00000000
00000000
00000000
00000100
00000000
00000000
00000000
00000000
00000000
00000000
00000000
,
00001000
00000000
00000000
00000000
00000000
00000000
00000000
00000000
00010000
00000000
00000000
00000000
00000000
00000000
00000000
00000000
01000000
00000000
00000000
00000000
00000000
00000000
00000000
00000000
00200000
00000000
00000000
00000000
00000000
00000000
00000000
00300000
00100000
00000000
00000000
00000000
00000000
00000000
00000000
00000000
00000000
00000000
00000000
00000000
00000000
00000000
00000000
00000000
01000000
00000000
00000000
00000000
00000000
00000000
00000000
00000000
00000000
00000000
00000000
00000000
00000000
00000000
00000000
00000000
,
00010000
10010000
00000000
10000000
01010000
00000000
10000000
00110000
,
00000000
10010000
00010000
01000000
01100000
00000000
10100000
10100000
,
10000000
01000000
02020000
03030000
00022000
00033000
00001000
00000100
,
00000010
00000100
00000001
00000010
00000100
00001000
00002002
00003003
,
00000202
00000303
00000001
00000010
00000100
00000010
00000001
00000100
,
00001000
00010000
00022000
00033000
00020200
00030300
00022000
00033000
,
00202000
00303000
00022000
00033000
00020020
00030030
00022000
00033000
,
00200020
00000000
00000000
00300030
00000000
00000000
00001000
00000000
00000000
00000000
00100000
00000000
00000000
00000000
00001000
00000000
00000000
00000000
00010000
00000000
00000000
00000000
00001000
00000000
,
00000000
00000000
00010000
00000000
00000000
00000000
00002000
00000000
00000000
00000000
00000000
00000000
00000000
00000000
00000000
00000000
00000000
00000000
00013000
00000000
00000000
00001000
00000000
00000000
,
00000000
00000110
00001000
00001010
00000100
00000000
00001001
00000010
,
00000000
00002020
00003030
00000220
00000330
00000001
00000100
00001000
,
00010000
00100000
10000000
01000000
00010000
01000000
00100000
00001000
,
00011000
00000100
00000000
00011000
01000000
10010000
00100000
00000000
,
10010000
01000000
00000000
22000000
33000000
02200000
03300000
10000000
,
01000000
00010000
00001000
00000010
00000001
00000100
00000010
00000010
,
00010000
00010000
00011000
00000010
00000000
00011000
00100000
00011000
,
01000000
00000000
00011000
00000100
00000000
00022000
00033000
02200000
,
03300000
00000000
11000000
00000000
11000000
00000000
00000000
00000000
10000000
00000000
00010000
00000000
01000000
00010000
01000000
00000000
,
00010000
00100000
00001000
00010000
00011000
00000010
00000000
00000110
,
00000000
00000001
00000101
00000000
00001000
00001100
00000000
00000100
,
00010100
00000000
00010000
00000000
00022000
00000000
00033000
00000000
00001000
00000000
00010000
00000000
01000000
00000000
10000000
00010000
,
10000000
00000000
00100000
00000000
01000000
00010000
10000000
00000000
01000000
00000000
00010000
00000000
00001000
00000000
00001000
00000000
,
00010000
00000100
00010000
00000000
00001000
00010000
00001000
00000000
02000000
00000000
03020000
00000000
10030000
00100000
10000000
00000000
,
00010000
00100000
00010000
00000000
10000000
01000000
10000000
00000000
00100000
00000000
00020000
00000000
00032000
00000000
00003020
00000000
,
00000230
00000000
00010300
00001000
00010000
00000000
00000100
00010000
00000100
00000000
00010000
00001000
00020000
00000000
00032000
00000000
,
00103000
00010000
00100000
00000000
00010000
00000000
01000000
00000000
10000000
00000000
00010000
00000000
00100000
00000000
10000000
00000000
,
01000000
00000000
00100000
00000000
10000000
00000000
00100000
00000000
00002000
00000000
00013000
00000100
00002000
00000000
00003020
00000000
,
00000130
00000001
00001000
00000000
00000002
00000000
00000000
00000000
00000000
00000000
00000000
00000000
00001003
00000100
00010000
00001000
,
00020000
00000000
00000000
00000000
00000000
00000000
00000000
00000000
00031000
01000000
00010000
10000000
00020000
00000000
00000000
00000000
,
00000000
00000000
00000000
00000000
10030000
01000000
10000000
00010000
20000000
00000000
00000000
00000000
00000000
00000000
00000000
00000000
,
30100000
01000000
00001000
00010000
00002000
00000000
00000000
00000000
00000000
00000000
00000000
00000000
00013000
00000010
00001000
00000001
,
00002000
00000000
00000000
00000000
00000000
00000000
00000000
00000000
00003100
00000010
00000001
00001000
00000002
00000000
00000000
00000000
,
00000000
00000000
00000000
00000000
00000103
00000010
00010000
00001000
02000000
00000000
00000000
00000000
00000000
00000000
00000000
00000000
,
00000000
00000000
03001000
00001000
00001000
00001000
00001000
00001000
,
00001000
00001000
00010000
00001000
00000100
00000001
00000020
00000000
,
00000031
00000000
00000100
00000000
00001000
00000000
00010000
01000000
10000000
00010000
10000000
00000000
00100000
00000000
00020000
00000000
,
00000000
00000000
10030000
01000000
00001000
00010000
00002000
00000000
,
00003010
00000100
00010000
00001000
02000000
00000000
03100000
10000000
,
00010000
00001000
00000002
00000000
00001003
00000001
00000100
00000010
,
00010000
00000000
00001000
01000000
00010000
10000000
01000000
00000000
,
10000000
00100000
01000000
00000000
00010000
01010000
01001000
00000000
,
00001000
00000000
00000000
00000010
00000000
00000000
00000012
00000000
00000000
00000000
00001000
00000000
00000000
00000000
00000013
00000000
,
00000000
00000001
00000100
00000010
00020000
00002000
00000000
00000000
,
00000000
00000000
00000000
00000000
,
00000000
00000000
00033000
00000000
,
00000000
00000000
00010000
00001000
00000010
00000001
00001000
00000001
,
00000010
00001000
00010000
00100000
10000000
00010000
10000000
00100000
,
01000000
10000000
00010000
00100000
10000000
01000000
00010000
00001000
,
00000010
00000100
00010000
00010000
00001000
00001000
00010000
00001000
,
00011000
00000000
00010000
00100000
10000000
01000000
20000000
00000000
,
30020000
00000000
00032000
00003000
00000001
00000001
00000100
00000010
,
00000010
00000000
00001000
00000000
00000100
00000000
00010000
00000000
00001000
00000000
00011000
00000000
00000000
01001000
00000000
00000000
,
00011000
00000000
00000000
00010100
00000000
00000000
00011000
00000000
00000000
00101000
00000000
00000000
00001000
00000000
00010000
00000000
,
00100000
00000000
10000000
00000000
01000000
00000000
00010000
00000000
00000000
01000000
00000000
00000000
00100000
00000000
00000000
00001000
00000000
00000000
00001000
00000000
00000000
00001000
00000000
00000000
,
00010000
00000000
00001000
00000000
00000100
00000000
00000001
00000010
00000000
00000100
00001000
00000000
00000001
00000000
00000010
00000000
,
00001000
00000000
00000000
00000000
00000000
00000000
00020000
00000000
00000000
00000000
00000000
00030000
00012000
00000000
00000000
00000000
00000000
00000000
00000000
00000000
00000000
00000000
00000000
00000000
00103000
00000000
00000000
00000000
00000000
00000000
00000000
00000000
00000000
00000000
00000000
00000000
11000000
00000000
00000000
00000000
00000000
00000000
01000000
00000000
00000000
00000000
00000000
00000000
,
10000000
00100000
01000000
10000000
00010000
00100000
10000000
01000000
,
00010000
00001000
00000010
00000100
00001000
00000010
00000100
00001000
,
00000100
00000000
00000000
00000000
00000000
00000000
00000000
00000000
00000001
00000000
00000000
00000000
00000000
00000000
00000000
00000000
00000200
00000000
00000000
00000000
00000000
00000000
00000000
00000300
00000100
00000000
00000000
00000000
00000000
00000000
00000000
00000000
00001000
00000000
00000000
00000000
00000000
00000000
00000000
00000000
00000100
00000000
00000000
00000000
00000000
00000000
00000000
00000000
00001100
00000000
00000000
00000000
00000000
00000000
00000000
00000000
00000100
00000000
00000000
00000000
00000000
00000000
00000000
00000000
,
00010100
00000000
00000000
00000000
00011000
00000000
00000000
00000000
00010000
00000000
00100000
00000000
10000000
01000000
00100000
00000000
,
00001000
00000000
00000000
00000000
00000000
00000000
00100000
00000000
00000000
00000000
00000000
00000000
00010000
00000000
00000000
00100000
00000000
00000000
00001000
00000000
00000000
00000000
00000000
00000000
00010000
00000000
00000000
00000000
00000100
00000000
00000000
00000000
00010000
00000000
00000000
00000000
00001000
00000000
00000000
00000000
00010000
00000000
00000000
00000000
00001000
00000000
00000000
00000000
,
01000000
00000000
00000000
00000000
00000000
00000000
00000000
00000000
00000000
00000000
00000000
00000000
00000000
00000000
00000000
00000000
00010000
00000000
00000000
00000000
00000000
00000000
00000000
00000000
00000000
00000000
00000000
00000000
00000000
00000000
00000000
00000000
01000000
00000000
00000000
00000000
00000000
00000000
00000000
00000000
00000000
00000000
00000000
00000000
00000000
00000000
00000000
00000000
00010000
00000000
00000000
00000000
00000000
00000000
00000000
00000000
00000000
00000000
00000000
00000000
00000000
00000000
00000000
00000000
00000000
00000000
00000000
00000000
00000000
00000000
00000000
00000000
02000000
00000000
00000000
00000000
00000000
00000000
00000000
00000000
00000000
00000000
00000000
00000000
00000000
00000000
00000000
00000000
00000000
00000000
00000000
00000000
00000000
03000000
00000000
00000000
01000000
00000000
00000000
00000000
00000000
00000000
00000000
00000000
00000000
00000000
00000000
00000000
00000000
00000000
00000000
00000000
00000000
00000000
00000000
00000000
00000000
00000000
00000000
00000000
10000000
00000000
00000000
00000000
00000000
00000000
00000000
00000000
00000000
00000000
00000000
00000000
00000000
00000000
00000000
00000000
00000000
00000000
00000000
00000000
00000000
00000000
00000000
00000000
00100000
00000000
00000000
00000000
00000000
00000000
00000000
00000000
00000000
00000000
00000000
00000000
00000000
00000000
00000000
00000000
00000000
00000000
00000000
00000000
00000000
00000000
00000000
00000000
00010000
00000000
00000000
00000000
00000000
00000000
00000000
00000000
00000000
00000000
00000000
00000000
00000000
00000000
00000000
00000000
00000000
00000000
00000000
00000000
00000000
00000000
00000000
00000000
,
00001000
00000000
00000010
00000000
00000011
00000000
00000000
00001001
00000000
00000000
00001010
00000000
00000000
00010010
00000000
00000000
,
00011000
00000000
00000000
00101000
00000000
00000000
00110000
00000000
00010000
01000000
00010000
00000000
10000000
01000000
10000000
00000000
,
01000000
00010000
00001000
00001000
00010000
00001000
00011000
00001000
,
00000010
00000000
00000000
00000100
00000000
00000000
00000000
00000000
00000000
00000010
00000000
00000000
00000100
00000000
00000000
00001000
00000000
00000000
00000000
00000000
00000000
00000000
00000000
00000000
00000100
00000000
00000000
00000000
00000000
00000000
00010000
00000000
00000000
00000000
00000000
00000000
00001000
00000000
00000000
00000000
00010000
00000000
00000000
00000000
00001000
00000000
00000000
00000000
,
00010000
00001000
01000000
00001000
01000000
00001000
00010000
00001000
00010000
00000100
00010000
00000100
,
00010000
00000000
00001000
00000000
00010000
00000000
00001000
00000000
00100000
00000000
00001000
00000000
00010000
00000000
00000000
00000010
00000000
00000000
00001010
00000000
00000000
00001000
00000000
00000000
,
00000001
00000001
00000100
00000100
00001000
00010000
00011000
00001000
,
00010000
00010000
01000000
01000000
10000000
00010000
00001000
00000000
,
00000001
00001000
00010000
00000000
10000000
00000000
00010000
00000000
,
00001000
00000022
00000000
00000000
,
00000000
00000000
00000000
00000000
,
00000000
00000000
00000033
00000000
00000000
00000000
00000000
22000000
,
00000000
00000000
00000000
00000000
00000000
00000000
00000000
00000000
00000000
00000000
33000000
00000000
;
