#TITLE:route 80s;
#ARTIST:samplingmasters MEGA;
#MUSIC:route 80s.ogg;
#BANNER:route 80s.png;
#BACKGROUND:route 80s-bg.png;
#SAMPLESTART:52.32;
#SAMPLELENGTH:15;
#BPMS:0=153.409,8=121.988,44=243.792,68=121.931,100=243.792,124=121.982,188=243.243;
#STOPS:68=1.973,124=1.973;
#DISPLAYBPM:122:244;
#BGCHANGES:2.25=route 80s.avi=1=0=0=0=StretchNoLoop====,99999=-nosongbg-=1=0=0=0=StretchNoLoop====;

//--------------- dance-single - KONAMI-bSP----------------
#NOTES:
     dance-single:
     KONAMI:
     Beginner:
     3:
     0.1452,0.25517,0.171183,0,0,95,79,16,0,0,0,0.1452,0.25517,0.171183,0,0,95,79,16,0,0,0:
0000
0000
0000
0000
,
0000
0000
0000
0000
,
0000
0000
0000
0000
,
1001
0000
1001
0000
,
0001
0000
1000
0000
,
0001
0000
0001
0000
,
0001
0000
0100
0000
,
0001
0000
0001
0000
,
1000
0000
1000
0000
,
0010
0000
0000
0000
,
0100
0000
0000
0000
,
0010
0000
0000
0001
,
0000
0000
0100
0000
,
0000
1000
0000
0000
,
0100
0000
0000
0001
,
0000
0000
0110
0000
,
0000
0000
0110
0000
,
0000
0010
0000
0100
,
0000
0001
0000
0000
,
0010
0000
0100
0000
,
1000
0000
0000
0000
,
0001
0000
0001
0000
,
0110
0000
0000
0000
,
0001
0000
1000
0000
,
0001
0000
1000
0000
,
0010
0000
0000
1000
,
0000
0000
0100
0000
,
0000
0010
0000
0000
,
0100
0000
0000
1000
,
0000
0000
0100
0000
,
0000
0000
0000
0000
,
1001
0000
0100
0000
,
0001
0000
0000
1000
,
0000
1000
0000
0001
,
0000
0000
0000
0000
,
0010
0000
0010
0000
,
0001
0000
0000
0000
,
1000
0000
0001
0000
,
0110
0000
0100
0000
,
0110
0000
0110
0000
,
0110
0000
1000
0000
,
1000
0000
0001
0000
,
1001
0000
1001
0000
,
0010
0000
0100
0000
,
0010
0000
1001
0000
,
0010
0000
0001
0000
,
0110
0000
0110
0000
,
0010
0000
0000
1000
,
0000
0000
0100
0000
,
0000
0001
0000
0000
,
0100
0000
0000
0100
,
0000
0000
0001
0000
,
0000
0000
0000
0000
,
1001
0000
0000
0000
;

//--------------- dance-single - KONAMI-BSP----------------
#NOTES:
     dance-single:
     KONAMI:
     Easy:
     7:
     0.273588,0.368579,0.256775,0.267474,0.010699,179,155,24,25,0,0,0.273588,0.368579,0.256775,0.267474,0.010699,179,155,24,25,0,0:
0000
0000
0000
0000
,
0000
0000
0000
0000
,
0000
0000
0000
0000
,
1001
0100
1001
0100
,
0001
0001
2000
3000
,
0001
1100
0001
1100
,
0001
0010
0200
0300
,
0001
0000
0001
0000
,
1000
0000
1000
0000
,
0020
0000
0000
0030
,
0200
0000
0000
0300
,
0010
1000
0100
0001
,
0010
1000
0100
0001
,
0100
1000
0010
0001
,
0100
1000
0010
0001
,
1001
0000
0110
0000
,
1001
0000
0110
0000
,
1001
0010
1000
0100
,
0010
0001
0200
0300
,
0010
0001
0100
1000
,
2000
0000
0000
3000
,
0002
0103
0002
0103
,
2200
0000
0000
3300
,
0002
0000
2003
3000
,
0001
0100
1000
0100
,
0010
0001
0100
1000
,
0100
0001
0100
1000
,
0100
0010
0100
0001
,
0100
0010
0100
1000
,
0100
0010
0100
0001
,
0100
0000
0000
0000
0000
0000
0000
0000
0100
0000
0000
0000
0000
0000
0000
0100
0000
0000
0000
0000
0000
0000
0000
0000
,
1001
0000
0100
0000
,
0002
0000
0000
1003
,
0000
1000
0000
0001
,
0200
0000
0000
0300
,
0010
0100
0010
0100
,
0002
0000
0000
0003
,
1000
0100
0001
0010
,
2100
0001
0100
3001
,
0110
0001
0110
1000
,
0110
0001
2000
3001
,
1000
0100
0001
0100
,
1001
1001
2002
3003
,
0010
0010
0100
0100
,
0010
0100
2002
3003
,
0010
1000
0001
1000
,
0101
1100
0202
0303
,
0010
0001
0100
1000
,
0010
0001
0100
1000
,
0100
0001
0010
1000
,
0100
0001
1000
0100
,
1000
0000
0001
0000
,
2002
0000
0000
3003
,
1001
0000
0000
0000
;

//--------------- dance-single - KONAMI-DSP----------------
#NOTES:
     dance-single:
     KONAMI:
     Medium:
     10:
     0.415731,0.517562,0.267474,0.213979,0.074893,272,247,25,20,0,0,0.415731,0.517562,0.267474,0.213979,0.074893,272,247,25,20,0,0:
0000
0000
0000
0000
,
0000
0000
0000
0000
,
0000
0000
0000
0000
,
0010
1000
0010
0000
0001
0000
0001
0000
,
0100
0010
0100
0000
1001
0000
1001
0000
,
1000
0000
0010
0000
1000
0010
0000
0000
,
0100
0001
1000
0001
,
0100
0000
1000
0001
1000
0001
0000
0000
,
0010
0000
0100
0001
0100
0001
0000
0000
,
1010
0100
0101
1000
,
2002
3003
0220
0330
,
0001
0100
0010
0100
,
0001
1000
0010
0100
,
0010
1000
0001
1000
,
0020
0030
0200
0300
,
0001
1000
0001
1000
,
0100
0000
0100
0000
0100
0000
0100
0000
0100
0000
0100
0000
,
0100
0000
1000
0100
0010
0001
0100
0001
,
0010
0100
1000
0100
1000
0100
0010
0001
,
1000
0001
1000
0001
0010
0001
0100
0001
,
2000
0000
0000
3001
,
0110
1000
0001
0000
1001
0100
0010
0000
,
0010
0010
0100
0100
0001
0001
1000
1000
,
1100
0001
0100
0000
0101
1000
0010
0000
,
0110
1001
0101
1100
,
0010
1000
0001
1000
,
0010
1000
0100
1000
,
0001
0100
0001
0100
,
0002
0003
2000
3000
,
0010
1000
0001
0100
,
0010
0000
0000
0000
0000
0000
0000
0000
0010
0000
0000
0000
0000
0000
0000
0010
0000
0000
0000
0000
0000
0000
0000
0000
,
1001
0100
0010
1000
0002
0000
0003
0000
,
0100
0100
0000
0101
0000
0010
1000
0000
,
0000
0010
0100
0010
2000
0000
3000
0001
,
0001
0000
0000
1001
0000
0010
0100
0000
,
0000
0001
1000
0010
0200
0000
0300
0010
,
0010
0000
0000
1010
0000
0001
0100
0000
,
0000
0010
0100
0010
0200
0000
0300
0000
,
0001
0100
0000
0000
0001
0100
0000
0000
0001
0100
0000
0000
0001
0100
0000
0000
,
0010
0100
0010
0000
0010
1000
0100
0000
,
0001
1000
0100
0000
0202
0000
0303
0000
,
1000
0001
1000
0000
1000
0001
0100
0000
,
0010
1000
0100
1000
0100
0000
0110
0000
,
0001
0100
0001
0000
0001
0100
1000
0000
,
0001
0100
0010
0000
0220
0000
0330
0000
,
1000
0001
1000
0000
1000
0010
0100
0000
,
1000
0010
0100
0001
0010
0100
1000
0000
,
0010
0100
0010
0100
0001
1000
0001
1000
,
0010
0100
0010
0100
0001
1000
0001
1000
,
0002
0000
0000
0003
,
1100
0000
0000
0101
0000
0000
1100
0000
,
0001
0100
0001
0100
0001
0100
0001
0000
,
0100
0000
0001
0000
0100
0000
0001
0000
0100
0000
0001
0000
,
2002
0000
0000
3003
;

//--------------- dance-single - KONAMI-ESP----------------
#NOTES:
     dance-single:
     KONAMI:
     Hard:
     12:
     0.489095,0.488809,0.010699,0.021398,0.213979,320,319,1,2,0,0,0.489095,0.488809,0.010699,0.021398,0.213979,320,319,1,2,0,0:
0000
0000
0000
0000
,
0000
0000
0000
0000
,
0000
0000
0000
0000
,
1000
0000
0001
0000
0100
0000
0000
0001
0100
0000
0100
0000
0000
0000
0000
0000
,
1000
0000
0100
0000
0010
0000
0001
0000
0100
0001
0100
0000
0000
0000
0000
0000
,
0001
0000
1000
0000
0100
0000
0000
1000
0100
0000
0100
0000
0000
0000
0000
0000
,
0010
0000
0001
0000
0100
0000
0000
0001
0100
0000
0000
0000
0000
0100
0001
0000
,
0100
0000
0000
0000
1000
0000
0000
0100
1000
0000
0100
0000
0000
0000
0000
0000
,
1000
0000
0000
0000
0001
0000
0000
0100
0010
0000
0010
0000
0000
0000
0000
0000
,
0000
0001
0000
0100
0000
0001
0000
0010
,
0100
1000
0000
0000
0000
0000
0000
0000
1000
0001
0000
0001
1000
0000
0100
0000
,
0010
0001
0010
0000
0001
1000
0001
0000
,
0010
0100
0010
0000
0100
1000
0100
0000
,
1000
0001
1000
0000
0001
0100
0001
0000
,
0010
0100
0000
0100
0010
0000
1000
0000
,
0001
0100
0001
0000
0010
0100
0010
0100
,
1000
0000
0001
0000
0100
0000
0100
0000
0001
0000
1000
0000
,
0010
1000
0100
0100
1000
0100
0100
0001
,
0000
0000
0100
0000
1000
0000
0001
0000
0010
0100
0010
0000
0100
0000
1000
0000
,
0000
0010
0001
0010
1000
0100
0001
0100
,
0000
0000
0010
0000
0001
0000
1000
0000
0100
0010
0100
0000
0010
0000
0001
0000
,
0000
0010
1000
0010
0001
0100
1000
0100
,
0000
0000
0010
0000
0100
0000
0010
0000
1000
0001
1000
0000
0100
0000
0001
0000
,
0000
0001
0100
0000
0000
0010
0100
0000
,
1000
0001
0100
0000
,
0100
1000
0100
0000
0010
0001
0010
0001
,
0010
0000
0001
1000
0000
1000
0001
0000
,
1000
0100
1000
0000
0001
1000
0001
0000
,
0001
0100
0000
0100
0001
0000
1000
0100
,
1000
0100
1000
0000
0100
0010
0100
0010
,
1000
0000
0000
0000
0000
0000
0000
0000
1000
0000
0000
0000
0000
0000
0000
0001
0000
0000
0000
0000
0000
0000
0000
0000
,
0010
0000
0010
0000
0001
0000
0100
0000
1000
0000
0000
0000
0000
0000
0100
0001
,
0100
0000
0001
0000
0000
0000
1000
0000
0000
0000
0010
0100
0010
0000
0000
0000
,
0000
0000
0100
1000
0100
0000
1000
0000
0100
0000
0000
0000
0000
0000
1000
0001
,
1000
0000
0100
0000
0000
0000
1000
0000
0000
0000
0100
0010
0100
0000
0010
0000
,
0000
0000
0001
0100
0001
0000
0100
0000
0010
0000
0000
0000
0000
0000
1000
0001
,
1000
0000
0100
0000
0000
0000
0100
0000
0000
0000
1000
0100
1000
0000
0000
0000
,
0000
0000
0100
0010
0100
0000
1000
0000
0100
0000
0000
0000
1000
0000
0100
0000
,
0001
0100
0000
0000
0100
1000
0000
0000
1000
0010
0000
0000
0010
0001
0000
0000
,
0010
0100
1000
0100
1000
0100
0001
0100
,
0001
0000
1000
0000
0001
0000
1000
0000
0001
0100
0000
0000
0000
0000
0000
0000
,
0010
0001
0010
0001
1000
0100
1000
0100
,
0001
0000
0100
0000
0001
0000
0100
0000
1000
0001
0000
0000
0000
0000
0000
0000
,
0100
0010
0100
0010
0001
0100
0001
0100
,
0010
0000
1000
0000
0010
0000
1000
0000
0100
0010
0000
0000
0000
0000
0000
0000
,
1000
0001
1000
0001
0010
1000
0010
1000
,
0010
0000
0001
0000
0010
0000
0001
0000
1000
0001
0000
0000
0000
0000
0000
0000
,
0100
1000
0100
0000
0010
0001
0010
0000
,
0010
0100
0010
0000
0100
0001
0100
0000
,
0100
1000
0100
0000
1000
0001
1000
0000
,
0001
0100
0000
0100
0001
0000
0001
0000
,
1000
0100
1000
0100
0010
0100
0010
0100
,
1000
0000
0001
0000
0100
0000
0100
0000
0001
0000
1000
0000
,
0220
0000
0000
0330
;

//--------------- dance-single - Kekkle-CSP----------------
#NOTES:
     dance-single:
     Kekkle:
     Challenge:
     13:
     0.675563,0.699712,0.492152,0.235377,0.278173,442,396,46,22,0,0,0.675563,0.699712,0.492152,0.235377,0.278173,442,396,46,22,0,0:
0000
0000
0000
0000
,
0000
0000
0000
0000
,
0000
0000
0000
0000
,
1000
0000
0001
0000
0101
0000
0100
0010
1000
0000
0001
0000
0011
0000
0000
0000
,
0010
0000
0100
0000
1100
0000
1000
0001
0100
0010
0100
0000
0101
0000
0000
0000
,
0001
0000
0100
0000
0110
0000
0000
0010
1000
0000
0001
0000
0101
0000
0000
0000
,
0100
0000
0001
0000
1001
0000
1000
0010
0200
0000
0000
0000
0301
0010
0100
0000
,
1100
0000
1000
0000
1001
0000
0000
0001
0100
0000
0010
0000
1010
0000
1000
0000
,
0001
0000
0010
0000
0110
0000
0000
0100
1000
0000
0001
0000
1001
0000
0000
0000
,
1020
0100
0000
0001
0000
0130
0001
1000
,
1200
0000
0001
0000
0000
0000
0310
0000
0001
1000
0000
1000
0001
0000
0100
0000
,
0010
1000
0010
0100
0001
1000
0001
0010
,
0100
1000
0100
1000
0001
0100
0010
1000
,
0100
0010
0100
0010
0001
1000
0001
1000
,
0010
0100
0000
0100
0001
0000
1001
0000
,
1000
0100
1000
0001
0100
0010
0100
0001
,
1000
0000
0100
0000
0001
0000
0100
0000
1000
0000
0010
0000
,
0200
0000
0301
0000
1000
0000
1000
0000
0100
0010
0001
0000
0100
0000
0100
0000
,
0110
0000
0010
1000
0001
0000
0010
0000
0100
1000
0001
0100
0010
0000
0000
0000
,
1010
0000
1000
0000
0001
0000
0001
0000
0010
0001
1000
0000
0010
0000
0010
0000
,
2010
0000
0000
0000
0000
0000
0000
0000
3001
0100
0010
0000
0110
0000
0110
0000
,
0100
0001
1001
1000
0010
0100
0110
0000
,
1001
0000
0002
0000
0010
0000
2003
0000
0010
0000
3001
0000
0100
0000
0001
0010
,
0100
1000
0000
0001
0101
0100
0000
0010
,
1010
0000
1000
0000
1001
0000
0001
0000
0011
0000
0010
0000
0100
1000
0100
1000
,
0001
0100
0010
1000
0010
0100
0001
1000
,
0100
0000
0100
0010
0000
0010
0001
0100
,
0010
1000
0010
0100
0001
1000
0001
1000
,
0100
0010
0000
0010
0001
0000
0001
1000
,
0010
0100
0001
1000
0100
0010
0001
0100
,
0010
0000
0000
0000
0000
0000
0000
0000
0001
0000
0000
0000
0000
0000
0000
1000
0000
0000
0000
0000
0000
0000
0000
0000
,
0200
0000
0301
1000
0100
0000
0010
0000
0002
0000
0100
0000
0103
0000
0010
0000
,
1000
0000
0002
0000
0010
0000
0010
0000
0013
0000
0100
1000
0001
0000
0100
0000
,
0020
0000
1000
0000
1030
0000
0100
0010
0002
0000
0100
0000
0103
0000
0010
1000
,
0002
0000
1000
0000
0000
0000
1003
0010
0100
0000
0010
1000
0001
0000
0100
0000
,
0120
0000
1000
0000
1030
0000
0001
0010
0200
0000
1000
0000
1300
0000
0001
0100
,
0010
0000
2000
0000
0100
0000
0100
0000
3100
0000
0010
0001
0100
0000
0010
0000
,
2010
0001
3001
0000
0012
1000
1003
0000
,
0010
1000
0001
0000
0010
0001
1000
0000
0010
0100
0001
0000
0010
0100
1000
0000
,
0001
0000
0010
0000
0110
0000
0100
1000
0100
1000
0001
0000
0101
0000
0000
0000
,
0100
0000
0010
0000
1010
0000
1000
0001
0020
0000
0100
0000
0130
0000
0000
0000
,
1000
0000
0001
0000
0011
0000
0010
0100
0010
0100
1000
0000
1001
0000
0000
0000
,
0101
0000
1100
0000
0210
0010
0310
0000
,
0001
0000
1000
0000
1100
0000
0100
0010
0100
0010
0001
0000
0101
0000
0000
0000
,
0100
0000
0001
0000
0011
0000
0010
0100
2000
0000
0001
0000
3001
0000
0000
0000
,
0010
0000
0100
0000
1100
0000
1000
0001
1000
0001
0100
0000
0110
0000
0010
0000
,
1010
1000
1100
0100
0110
0010
0001
1000
,
0010
0100
0001
0000
1000
0100
0010
0000
,
0001
0100
0010
1000
0100
0010
0100
1000
,
0001
0100
0010
0100
0001
0100
0010
0100
,
0001
1000
0000
1000
0010
0000
0010
0100
,
0001
1000
0100
0010
0100
1000
0001
0100
,
0010
0000
0001
0000
0010
0000
1000
0000
0100
0000
0001
0000
,
0200
0000
0000
0000
,
0000
0000
0310
0001
1000
0000
0000
0000
;

//--------------- dance-double - KONAMI-BDP----------------
#NOTES:
     dance-double:
     KONAMI:
     Easy:
     6:
     0.23232,0.368579,0.363765,0.331668,0,152,118,34,31,0,0,0.23232,0.368579,0.363765,0.331668,0,152,118,34,31,0,0:
00000000
00000000
00000000
00000000
,
00000000
00000000
00000000
00000000
,
00000000
00000000
00000000
00000000
,
10100000
00000000
00110000
00000000
,
00011000
00000000
00000220
00000330
,
00000011
00000000
00001010
00000000
,
00011000
00000000
02200000
03300000
,
01010000
00000000
00011000
00000000
,
00001100
00000000
00002002
00003003
,
00022000
00000000
00000000
00000000
,
00000000
00000000
00000000
00033000
,
00010000
00000000
00100000
00000000
,
10000000
00000000
01000000
00000000
,
00010000
00000000
00001000
00000000
,
00022000
00000000
00000000
00033000
,
00001000
00000000
00000010
00000000
,
00000001
00000000
00000100
00000000
,
00000110
00000001
00000100
00001000
,
00010000
01000000
20020000
30030000
,
00100000
10000000
01000000
00010000
,
00001000
00000100
00002002
00003003
,
00000020
00000030
00002002
00003003
,
00000100
00001000
00010000
01000000
,
02200000
03300000
20020000
30030000
,
01010000
00011000
00001100
00011000
,
00010000
00000000
00100000
00000000
,
10000000
00000000
00010000
00000000
,
00001000
00000000
00000001
00000000
,
00000010
00000000
00001000
00000000
,
00010000
00000000
00001000
00000000
,
00100000
00000000
00000010
00000000
,
00100000
00001000
00010000
00000000
,
00000010
00010000
00001000
00000000
,
00001000
00000010
00001000
00000000
,
00010000
00100000
00010000
00000000
,
00100000
00001000
00000010
00000000
,
00000100
00010000
01000000
00000000
,
00001000
00010000
00001000
00010000
,
00001010
00011000
00110000
00011000
,
00100000
00000000
01000000
00000000
,
00100000
00000000
20020000
30030000
,
00010000
00000000
00001000
00000000
,
00010000
00001000
00022000
00033000
,
00000010
00000000
00000100
00000000
,
00000010
00000000
00002002
00003003
,
00001000
00000000
00010000
00000000
,
00001000
00010000
00022000
00033000
,
00010000
00000000
10000000
00000000
,
00010000
00000000
00001000
00000000
,
00000001
00000000
00001000
00000000
,
00022000
00000000
00033000
00000000
,
00001000
00000000
00010000
00000000
,
00000100
00000000
01000000
00000000
,
00011000
00000000
00000000
00000000
;

//--------------- dance-double - KONAMI-DDP----------------
#NOTES:
     dance-double:
     KONAMI:
     Medium:
     8:
     0.385163,0.431302,0.256775,0.171183,0.053495,252,228,24,16,0,0,0.385163,0.431302,0.256775,0.171183,0.053495,252,228,24,16,0,0:
00000000
00000000
00000000
00000000
,
00000000
00000000
00000000
00000000
,
00000000
00000000
00000000
00000000
,
00100000
10000000
00100000
00000000
00010000
00100000
00010000
00000000
,
00001000
00010000
00001000
00000000
00011000
00011000
00000000
00000000
,
00010000
00001000
00010000
00000000
00001000
00000010
00001000
00000000
,
00000010
00000001
00000010
00000000
00000011
00000011
00000000
00000000
,
00000001
00000100
00000001
00000000
00000100
00001000
00000100
00000000
,
00001000
00010000
00001000
00000000
00011000
00011000
00000000
00000000
,
00020000
00001000
00000010
00031000
,
00002000
00010000
00100000
00013000
,
00010000
00100000
00010000
00100000
,
10000000
00100000
10000000
00100000
,
10000000
01000000
10000000
01000000
,
00010000
00000000
01000000
00000000
,
00010000
00001000
00010000
00001000
,
00010000
00000000
00001000
00000000
00010000
00000000
00001000
00000000
00010000
00000000
00001000
00000000
,
00011000
00001000
00000010
00000000
00001000
00000010
00000001
00000000
,
00000010
00000001
00000001
00000000
00000001
00000001
00000100
00000000
,
00000100
00001000
00010000
00000000
00001000
00010000
01000000
00000000
,
01000000
10000000
10000000
00000000
10000000
10000000
00100000
00000000
,
20020000
30030000
02200000
03300000
,
01000000
00010000
00001000
00000100
,
00002002
00003003
00000220
00000330
,
00000011
00001100
00001100
00000011
,
00000010
00000001
00000010
00000001
,
00000100
00000001
00000100
00000001
,
00000100
00001000
00000100
00001000
,
00010000
00000000
00001000
00000000
,
00010000
00001000
00010000
00001000
,
00010000
00000000
00000000
00000000
00000000
00000000
00000000
00000000
00001000
00000000
00000000
00000000
00000000
00000000
00000000
00010000
00000000
00000000
00000000
00000000
00000000
00000000
00000000
00000000
,
00011000
00010000
00100000
00010000
00100000
00000000
00000000
10000000
,
01000000
10000000
00000000
01000000
00000000
00010000
01000000
00000000
,
01010000
00010000
00001000
00010000
00001000
00000000
00000000
00001000
,
00000100
00001000
00000000
00000100
00000000
00000001
00000100
00000001
,
00000101
00000100
00000010
00000100
00000010
00000000
00000000
00001000
,
00000001
00001000
00000000
00000001
00000000
00000100
00001000
00000000
,
00011000
00010000
00001000
00010000
00001000
00000000
00010000
00100000
,
20000000
30020000
20030000
30020000
,
10030000
01000000
00000000
00000000
00100000
00010000
00000000
00000000
,
01000000
00010000
00000000
00000000
00001000
00010000
00001000
00000000
,
00000100
00001000
00000000
00000000
00000001
00000010
00000000
00000000
,
00001010
00000000
00000101
00000000
00000010
00001000
00000010
00000000
,
00000001
00000100
00000000
00000000
00000010
00001000
00000000
00000000
,
00000100
00001000
00000000
00000000
00010000
00001000
00010000
00000000
,
01000000
00010000
00000000
00000000
10000000
00100000
00000000
00000000
,
00110000
00000000
11000000
00000000
00100000
00010000
00100000
00000000
,
10000000
00100000
10000000
00100000
,
10000000
00010000
10000000
00010000
,
10000000
01000000
10000000
01000000
,
10000000
00000000
00010000
00000000
,
00010000
00001000
00010000
00001000
,
00010000
00000000
00001000
00000000
00010000
00000000
00001000
00000000
00010000
00000000
00001000
00000000
,
00022000
00000000
00000000
00033000
;

//--------------- dance-double - KONAMI-EDP----------------
#NOTES:
     dance-double:
     KONAMI:
     Hard:
     13:
     0.576216,0.632576,0.502851,0.160484,0.133737,377,330,47,15,0,0,0.576216,0.632576,0.502851,0.160484,0.133737,377,330,47,15,0,0:
00000000
00000000
00000000
00000000
,
00000000
00000000
00000000
00000000
,
00000000
00000000
00000000
00000000
,
00010000
00100000
01010000
00000000
10000000
01000000
10100000
00000000
,
00010000
00001000
00011000
00000000
00001000
00010000
00011000
00000000
,
00001000
00000010
00001100
00000000
00000001
00000100
00000011
00000000
,
00001000
00010000
00011000
00000000
00010000
00001000
00011000
00000000
,
00010000
00100000
00011000
00000000
00001000
00000010
00011000
00000000
,
00010000
01000000
00011000
00000000
00001000
00000100
00011000
00000000
,
00002000
00020000
00003000
00032000
00000000
00023000
00000000
00031000
,
00010000
00002000
00000000
00000000
00000000
00003000
00000000
00000000
00001000
00010000
00000000
00010000
00001000
00000000
00011000
00000000
,
00001000
00010000
00001000
00010000
00001000
00010000
00001000
00010000
,
00100000
00010000
00100000
00010000
00100000
00010000
00100000
00010000
,
00100000
10000000
00100000
10000000
00100000
10000000
00100000
10000000
,
00010000
10000000
00000000
10000000
00010000
00000000
10000000
00000000
,
10000000
01000000
10000000
01000000
10000000
01000000
10000000
01000000
,
00010000
00000000
00001000
00000000
00010000
00000000
00001000
00000000
00000010
00000000
00001000
00000000
,
00000110
00000001
00001000
00000010
00001001
00000001
00000100
00001000
,
00001100
00000000
00000100
00000000
00001000
00000000
00010000
00000000
00001000
00010000
00001000
00000000
00010000
00000000
01000000
00000000
,
01100000
10000000
00010000
01000000
10010000
10000000
00100000
00010000
,
00110000
00000000
00100000
00000000
00010000
00000000
00001000
00000000
00010000
00001000
00010000
00000000
00001000
00000000
00000100
00000000
,
00001001
00000010
00000100
00000000
00000110
00000001
00001000
00000000
,
00000100
00001000
00010000
00001000
00010000
01000000
10000000
01000000
,
20020000
30030000
02200000
03300000
,
10010000
00100000
01100000
10000000
10010000
10000000
01000000
00000000
,
01000000
10000000
01000000
10000000
01000000
10000000
01000000
10000000
,
01000000
00100000
01000000
00100000
01000000
00100000
01000000
00100000
,
01000000
00010000
01000000
00010000
01000000
00010000
01000000
00010000
,
00001000
00010000
00000000
00010000
00001000
00000000
00000100
00000000
,
00000100
00000010
00000100
00000010
00000100
00000010
00000100
00000010
,
00001000
00000000
00000000
00000000
00000000
00000000
00000000
00000000
00000110
00000000
00000000
00000000
00000000
00000000
00000000
00001000
00000000
00000000
00000000
00000000
00000000
00000000
00000000
00000000
,
00011000
00000000
00010000
00000000
00100000
00000000
10000000
00000000
01000000
00000000
00000000
00000000
00000000
00000000
00010000
00001000
,
00010000
00000000
00001000
00000000
00000000
00000000
00000100
00000000
00000000
00000000
00001000
00010000
00001000
00000000
00000000
00000000
,
00000000
00000000
00010000
00000000
00100000
00000000
10000000
00000000
01000000
00000000
00000000
00000000
00000000
00000000
10000000
01000000
,
00010000
00000000
00001000
00000000
00000000
00000000
00000100
00000000
00000000
00000000
00000001
00000010
00001000
00000000
00000010
00000000
,
00000000
00000000
00001000
00000000
00000010
00000000
00000001
00000000
00000100
00000000
00000000
00000000
00000000
00000000
00001000
00010000
,
00001000
00000000
00010000
00000000
00000000
00000000
01000000
00000000
00000000
00000000
00010000
00001000
00010000
00000000
00000000
00000000
,
00000000
00001000
00000010
00000001
00000100
00000000
00001000
00010000
,
00010000
00100000
00000000
00000000
00100000
10000000
00000000
00000000
10000000
01000000
00000000
00000000
01000000
00010000
00000000
00000000
,
00010000
00001000
00011000
00000000
00001000
00000100
00001100
00000000
,
00000100
00000001
00000101
00000000
00000012
00000010
00001003
00000000
,
00000010
00001000
00001010
00000000
00001000
00010000
00011000
00000000
,
01010000
00000000
11000000
00000000
20100000
00100000
30010000
00000000
,
00100000
00010000
00110000
00000000
00010000
00001000
00011000
00000000
,
00001000
00000100
00001100
00000000
00002010
00000010
00003001
00000000
,
00001000
00000100
00001100
00000000
00001000
00010000
00011000
00000000
,
00011000
00000000
01010000
00000000
00120000
00100000
10030000
00000000
,
00100000
10000000
00100000
10000000
01000000
10000000
01000000
10000000
,
01000000
00010000
01000000
00010000
00001000
00010000
00001000
00010000
,
00001000
00000010
00001000
00000010
00000001
00000010
00000001
00000010
,
00000001
00000100
00000000
00000100
00000001
00000000
00000100
00000000
,
00001000
00010000
00001000
00010000
00001000
00010000
00001000
00010000
,
00001000
00000000
00000010
00000000
00001000
00000000
00010000
00000000
01000000
00000000
00010000
00000000
,
00022000
00000000
00000000
00033000
;

//--------------- dance-double - Kekkle-CDP----------------
#NOTES:
     dance-double:
     Kekkle:
     Challenge:
     14:
     0.674035,0.728867,0.320969,0.160484,0.30492,441,411,30,15,0,0,0.674035,0.728867,0.320969,0.160484,0.30492,441,411,30,15,0,0:
00000000
00000000
00000000
00000000
,
00000000
00000000
00000000
00000000
,
00000000
00000000
00000000
00000000
,
00000001
00000000
00000100
00000000
00000010
00001000
00000000
00001000
00000100
00000000
00010000
00000000
00011000
00000000
00000000
00000000
,
00001000
00000000
01000000
00000000
00010000
00000000
00100000
01000000
00100000
01000000
10000000
00000000
00100000
00000000
01000000
00000000
,
00001000
00000000
00010000
00000000
01000000
00000000
00100000
00001000
00000000
00001000
00010000
00000000
00011000
00000000
00000000
00000000
,
00001000
00000000
00000100
00000000
00000001
00000000
00000010
00000100
00002000
00000000
00000000
00000000
00000010
00000000
00000000
00000000
,
00013000
00000000
01000000
00000000
00100000
00000000
10000000
00010000
00100000
00000000
01000000
00000000
11000000
00000000
00000000
00000000
,
10000000
00000000
00100000
00000000
01000000
00000000
00010000
10000000
00010000
01000000
00001000
00000000
00011000
00000000
00000000
00000000
,
00010000
00000020
00000000
00000001
00000000
00000100
00000000
00001030
,
00000100
00000000
00010000
00000000
00001000
00000000
01000000
00000000
00010000
00100000
01000000
10000000
00010000
00000000
10010000
00000000
,
10000000
00100000
10000000
00010000
01000000
00001000
01000000
00001000
,
00010000
00001000
00010000
00000010
00001000
00000001
00001000
00000001
,
00000010
00000100
00000010
00000100
00000010
00000100
00000010
00000100
,
00010000
00001000
00000000
00001000
01000000
00000000
00100000
10000000
,
01000000
00100000
01000000
00100000
00001000
00010000
00000010
00001000
,
00000010
00000000
00000100
00000000
00000001
00000000
00000100
00000000
00001000
00000000
00010000
00000000
,
00200000
00000000
00000000
00000000
00300000
00000000
01000000
00000000
00000000
00000000
00000000
00000000
00010000
00000000
00000000
00000000
00000000
00000000
10000000
00000000
00000000
01000000
00000000
00000000
00100000
00000000
00000000
00000000
00000000
00000000
00010000
00000000
00000000
00000000
00000000
00000000
10000000
00000000
00000000
00000000
00000000
00000000
00100000
00000000
00000000
00000000
00000000
00000000
,
00010000
00000000
00001000
00000000
00000100
00000000
00000001
00000000
00000010
00000100
00001000
00000001
00000100
00000000
00000000
00000000
,
00000001
00000000
00000100
00000000
00001000
00000000
00010000
00001000
00010000
00000000
00100000
00000000
10000000
00000000
00010000
00000000
,
00100000
00000000
01000000
00000000
10000000
00000000
00100000
00000000
01000000
00001000
00010000
00000000
00001000
00000000
00001000
00000000
,
00010000
00000000
00000010
00000100
00000001
00000000
00001000
00000000
00000100
00000000
00010000
00000000
00001000
00000000
00001000
00000000
,
00000100
00000000
00000010
00001000
00000002
00000000
00000100
00000000
00002003
00000000
00000100
00000000
00003001
00000000
00000001
00000000
,
00000100
00001000
00011000
00000000
00010000
00100000
10100000
00000000
,
10010000
00000000
00010000
00000000
01010000
00000000
01000000
00000000
01001000
00000000
00001000
00000000
00010000
00000010
00001000
00000010
,
00000100
00000001
00000100
00000010
00010000
00001000
00010000
00001000
,
01000000
00000000
00010000
10000000
00000000
10000000
01000000
00100000
,
00001000
00010000
00001000
00010000
00000010
00001000
00000001
00001000
,
00000100
00010000
00000000
00010000
00001000
00000000
00001000
01000000
,
00010000
10000000
01000000
00100000
01000000
10000000
00100000
01000000
,
00001000
00000000
00000000
00000000
00000000
00000000
00000000
00000000
00100000
00000000
00000000
00000000
00000000
00000000
00000000
10000000
00000000
00000000
00000000
00000000
00000000
00000000
00000000
00000000
,
00200000
00000000
00301000
00010000
00000010
00000000
00000100
00000000
00000001
00000000
00001000
00000000
00001001
00000000
00000001
00000000
,
00000010
00000000
00000010
00000000
00001000
00000000
00010000
00001000
00010000
00001000
01000000
00010000
10000000
00000000
00100000
00000000
,
01100000
00000000
01000000
00000000
00010000
00000000
10000000
01000000
00100000
00000000
00001000
00000000
00001000
00000000
00010000
00000010
,
00000100
00000000
00000002
00000000
00000000
00000000
00002003
00000000
00000000
00000000
00013000
01000000
00100000
00000000
00100000
00000000
,
10000000
00000000
00010000
00100000
01000000
00000000
10000000
00000000
00010000
00000000
01000000
00000000
01000000
00000000
00100000
10000000
,
00010000
00000000
00100000
00000000
01000000
00000000
00100000
00000000
00101000
00000000
00001000
00010000
00000010
00000000
00000100
00000000
,
00000101
00000000
00000001
00001000
00000100
00000000
00010000
00000000
00011000
00000000
00001000
01000000
00010000
00000000
10000000
00000000
,
01000000
00100000
01000000
00000000
00100000
00001000
00100000
00000000
00001000
00010000
00001000
00000000
00010000
00000010
00010000
00000000
,
00000010
00000000
00001000
00000000
00001001
00000000
00000001
00000010
00000001
00001000
00000100
00000000
00010100
00000000
00000000
00000000
,
00010000
00000000
00001000
00000000
01001000
00000000
01000000
00100000
10000000
00000000
00010000
00000000
00020000
00000000
00000000
00000000
,
00130000
00000000
01000000
00000000
10000000
00000000
00010000
01000000
00001000
00010000
00001000
00000000
00011000
00000000
00000000
00000000
,
00010010
00000010
00000110
00000100
00000101
00000002
00002003
00000000
,
00003100
00000000
00010000
00000000
00011000
00000000
00001000
01000000
00010000
01000000
00100000
00000000
10100000
00000000
00000000
00000000
,
10000000
00000000
01000000
00000000
01100000
00000000
00100000
00001000
00010000
00000000
00001000
00000000
00002000
00000000
00000000
00000000
,
00013000
00000000
00000010
00000000
00001010
00000000
00001000
00000001
00001000
00000100
00010000
00000000
00011000
00000000
00001000
00000000
,
01001000
01000000
01010000
00010000
10010000
20000000
30200000
00000000
,
01300000
00001000
00010000
00001000
00010000
00000010
00000100
00000001
,
00001000
00000100
00010000
00000100
00010000
00001000
01000000
00010000
,
10000000
01000000
10000000
00100000
01000000
00001000
00010000
00000010
,
00001000
00000001
00000000
00000001
00000010
00000000
00000100
00010000
,
00001000
01000000
00010000
01000000
00100000
10000000
00010000
00100000
,
01000000
00000000
10000000
00000000
00100000
00000000
00010000
00000000
00001000
00000000
00000010
00000000
,
00000002
00000000
00000000
00000000
,
00000000
00000000
00001003
00000001
00001000
00000000
00000000
00000000
;
