#VERSION:0.83;
#TITLE:rainbow flyer -gratitude remix-;
#ARTIST:PHQUASE;
#BANNER:rainbow flyer -gratitude remix-.png;
#BACKGROUND:rainbow flyer -gratitude remix--bg.png;
#JACKET:rainbow flyer -gratitude remix--jacket.png;
#MUSIC:rainbow flyer -gratitude remix-.ogg;
#OFFSET:-0.002;
#SAMPLESTART:39.07;
#SAMPLELENGTH:15;
#BPMS:0=172,80=86,96=172,283=86,284=172;
#STOPS:274.5=0.349,277.5=0.349,280.5=0.349;
#TIMESIGNATURES:0=4=4,272=3=4,284=4=4;

//---------------dance-single - NewbStepper-ESP----------------
#NOTEDATA:;
#CHARTNAME:NewbStepper-ESP;
#STEPSTYPE:dance-single;
#DESCRIPTION:NewbStepper-ESP;
#DIFFICULTY:Hard;
#METER:12;
#RADARVALUES:0.541158,0.811208,0.473513,0.448146,0.067645,448,392,56,53,0,0,0,0,0,0.541158,0.811208,0.473513,0.448146,0.067645,448,392,56,53,0,0,0,0,0;
#CREDIT:NewbStepper;
#NOTES:
0000
0000
0000
0000
,
0000
0000
0000
0000
,
0000
0000
0000
0000
,
0000
0000
0000
0000
,
0000
0000
0000
0000
,
0000
0000
0000
0000
,
0000
0000
0000
0000
,
0000
0000
0000
0000
,
0110
0000
1000
0000
0001
0100
0010
1000
,
0001
0000
1000
0000
0010
0000
0100
0100
,
0000
0000
1001
0000
1000
0000
0001
0100
,
0000
0010
0000
1000
0001
1000
0100
0000
,
0010
0000
0001
0000
1000
0000
0001
0000
0100
0000
0010
0000
1000
0000
0001
1000
,
0001
0100
0010
1000
0001
0100
1000
0100
,
0001
0000
1001
1000
0100
0010
0001
0100
,
0010
1000
0001
0100
0010
0010
0110
0000
,
2002
0000
0000
0000
,
0000
0000
0000
0000
,
0000
0000
3003
0000
,
1000
0000
0001
0100
0000
0001
0100
0000
0001
0100
0000
0000
0110
0000
0000
0000
,
0002
1003
1010
0010
0200
0001
0302
1000
,
2003
0000
0000
0000
3001
0000
0000
0000
0101
0000
0000
0000
0100
0000
0010
0000
1000
0000
0000
1000
0000
0000
0000
0000
0101
0000
0000
0000
0000
0000
0000
0000
,
2000
0000
3001
0000
0011
0000
0010
0001
0100
0000
0110
0000
0010
1000
1001
0000
,
0220
0000
0330
0000
1000
0100
0010
0001
2002
0000
0000
0000
3003
0000
0000
0000
,
0001
0100
0010
0001
0010
0100
0001
0010
,
0100
0010
0001
0100
0010
1000
0100
0001
,
0100
1000
0010
0100
1000
0100
0010
1000
,
0100
0010
0100
1000
0010
0100
0001
0000
,
1000
0100
0010
1000
0010
0100
1000
0010
,
0100
0010
1000
0100
0010
0001
0100
1000
,
0100
0000
0001
0000
0010
0000
0100
0000
0001
0000
0100
0000
0010
0000
0001
1000
,
0001
0000
0000
0101
0000
0000
1100
0000
0000
1010
0000
0000
0011
0000
0000
0000
,
0001
0000
0101
0000
0000
0010
0110
0000
,
1000
0000
1100
0000
0000
0010
0110
0000
,
1001
0000
0001
0101
0000
1000
1100
0000
,
1001
0000
1000
1100
0000
0001
0101
0000
,
0100
0010
1000
0100
0001
0100
1000
0001
,
0100
1000
0100
0001
1000
0010
0001
0010
,
1000
0001
0010
1000
0010
0001
0100
0010
,
1000
0000
0001
0000
1001
0000
0000
1000
0000
1000
0100
0000
0110
0000
0000
0000
,
2002
0000
0000
0000
,
0000
0000
3000
0000
,
0020
0000
0000
0000
,
0000
0000
0000
0033
,
2002
0000
0000
3003
0000
0101
0000
0120
,
0000
0000
2000
3030
,
2002
0000
0000
3003
0000
2020
0000
3030
,
0000
0220
0330
0000
0202
0000
0303
0000
,
2002
0000
0000
3003
0000
1100
0000
0120
,
0000
0000
0002
0033
,
2002
0000
0000
3003
0000
0022
0000
0033
,
0000
0220
0330
0000
2200
0000
3300
0000
,
0001
0010
0011
0000
1000
0100
0001
0100
,
1000
0001
1001
0000
0100
0010
0110
0000
,
1000
0010
1010
0000
0001
0100
1000
0100
,
0001
1000
1001
0000
0100
0010
0110
0000
,
1000
0100
0001
0000
0100
0010
0000
0001
,
0100
0010
1000
0000
0001
1000
0001
0000
,
0001
0100
1000
0000
0100
0010
0000
1000
,
0100
0010
0001
0000
1000
0001
2002
3003
,
1000
0100
0010
0001
1000
0100
0010
0001
,
0100
0010
0100
0001
0010
0100
1000
0010
,
0100
1000
0100
0010
1000
0100
0010
0100
,
1000
0010
0001
1000
0100
0001
0010
0000
,
0001
0100
0010
1000
0001
0100
0010
1000
,
0100
0010
0100
1000
0010
0100
0001
0010
,
0100
0010
0001
0100
0010
0001
0010
0100
,
0001
0010
1000
0001
0100
1000
0010
0000
,
1000
0000
0000
0000
0000
0000
0000
0000
0100
0000
0000
0000
0000
0000
0000
0000
0001
0000
0000
0000
0000
0000
0000
0000
0100
0000
0000
0000
0000
0000
0000
0000
0010
0000
0000
0000
0000
0000
0000
0000
0220
0330
0000
0000
0000
0000
0000
0000
0001
0000
0000
0000
0000
0000
0000
0000
0100
0000
0000
0000
0000
0000
0000
0000
,
1000
0000
0000
0000
0000
0000
0000
0000
0100
0000
0000
0000
0000
0000
0000
0000
0010
0000
0000
0000
0000
0000
0000
0000
0220
0330
0000
0000
0000
0000
0000
0000
1000
0000
0000
0000
0000
0000
0000
0000
0001
0000
0000
0000
0000
0000
0000
0000
0010
0000
0000
0000
0000
0000
0000
0000
0100
0000
0000
0000
0000
0000
0000
0000
,
1000
0000
0000
0000
0000
0000
0000
0000
2002
3003
0000
0000
0000
0000
0000
0000
0001
0000
0000
0000
0000
0000
0000
0000
1000
0000
0000
0000
0000
0000
0000
0000
0010
0000
0000
0000
0000
0000
0000
0000
0100
0000
0000
0000
0000
0000
0000
0000
0002
0000
0000
0000
2003
0000
0000
0000
3020
0000
0000
0000
0000
0000
0000
0000
,
1030
0100
0001
0100
1000
0010
0001
0010
,
1000
0100
0010
0001
0100
0010
1000
0001
,
0100
1000
0100
0001
0010
1000
0010
0001
,
0100
0010
1000
0001
0010
0100
1000
0001
,
2002
0000
0000
0003
0000
3020
0000
0200
,
0000
0000
0000
0330
;

//---------------dance-single - NewbStepper-DSP----------------
#NOTEDATA:;
#CHARTNAME:NewbStepper-DSP;
#STEPSTYPE:dance-single;
#DESCRIPTION:NewbStepper-DSP;
#DIFFICULTY:Medium;
#METER:8;
#RADARVALUES:0.330976,0.486725,0.109923,0.279034,0.004228,274,261,13,33,0,0,0,0,0,0.330976,0.486725,0.109923,0.279034,0.004228,274,261,13,33,0,0,0,0,0;
#CREDIT:NewbStepper;
#NOTES:
0000
0000
0000
0000
,
0000
0000
0000
0000
,
0000
0000
0000
0000
,
0000
0000
0000
0000
,
0000
0000
0000
0000
,
0000
0000
0000
0000
,
0000
0000
0000
0000
,
0000
0000
0000
0000
,
1001
1000
1000
1000
,
1001
0000
0001
0000
0001
0000
0001
0001
,
0000
1001
0001
0001
,
0010
0000
0100
0000
0010
0010
0000
0000
,
0001
0100
0010
1000
,
0001
0000
0100
0000
0010
0000
1000
0010
,
1000
0100
0010
0001
,
1000
0100
0010
0001
,
2002
0000
0000
0000
,
0000
0000
0000
0000
,
0000
0000
3003
0000
,
0001
0000
1000
0000
0000
1000
0000
0000
1000
0000
0000
0000
0001
0000
0000
0000
,
2000
0000
3100
0000
0001
0100
0010
1000
,
0002
1003
0220
0330
,
0002
0000
0103
0000
1000
0100
0010
0001
,
2000
3002
0203
0300
,
0001
0000
1000
0000
0000
1000
0010
0000
,
1000
0000
0001
0000
0000
0001
0010
0000
,
0001
0000
0100
0000
0000
0100
0010
0000
,
1000
0000
0100
0000
0000
0100
0010
0000
,
0001
0000
1000
0000
0010
1000
0010
0000
,
1000
0000
0001
0000
0010
0001
0010
0000
,
0001
0000
0100
0000
0010
1000
0010
0000
,
1000
0000
0100
0000
0010
0001
0010
0000
,
0001
0100
1000
0000
,
0100
0001
1000
0000
,
1000
0100
0001
0000
,
0100
1000
0001
0000
,
1000
0010
1000
0010
,
0100
0001
0100
0001
,
0010
0000
0100
0000
0010
0100
0010
0100
,
0020
0000
0100
0130
,
2002
0000
0000
0000
,
0000
0000
3003
0000
,
0220
0000
0000
0000
,
0000
0000
0330
0000
,
2000
0000
0000
0000
0000
3001
0000
2000
,
0000
0000
3010
0000
,
0200
0000
0000
0000
0000
0310
0000
0000
,
0000
0000
2002
3003
,
0002
0000
0000
0000
0000
1003
0000
0002
,
0000
0000
0013
0000
,
0200
0000
0000
0000
0000
0310
0000
0000
,
0000
0000
2002
3003
,
1000
0000
0100
0000
0010
0001
0010
0001
,
0010
0000
0001
0000
0100
0010
1000
0000
,
0001
0000
0100
0000
0010
1000
0010
1000
,
0010
0000
1000
0000
0100
0010
0001
0000
,
1000
0000
0010
0000
1000
0100
0010
0100
,
1000
0000
0001
0000
0100
0010
0100
0000
,
0001
0000
0010
0000
0001
0100
0010
0100
,
0001
1000
0100
1001
,
0001
0100
1000
0100
,
0001
0000
1000
0100
0010
0001
1000
0000
,
0010
1000
0100
0001
,
0010
0000
1000
0000
0001
1000
0001
0000
,
1000
0100
0001
0100
,
1000
0000
0001
0100
0010
1000
0001
0000
,
0010
0010
0100
0100
,
1000
0001
1000
0001
1000
0001
1000
0000
,
0001
0100
0001
0000
2002
3003
1000
0100
,
1000
0000
2002
3003
0001
0010
0001
0000
,
2002
3003
1000
0010
1000
0010
0200
0000
,
0301
0001
0100
0100
,
0010
0010
1000
1000
,
0001
0100
0001
0000
1000
0100
1000
0000
,
0001
1000
0001
1000
0001
1000
0001
1000
,
0020
0000
0000
0000
,
0000
0000
0000
0030
;

//---------------dance-single - NewbStepper-BSP----------------
#NOTEDATA:;
#CHARTNAME:NewbStepper-BSP;
#STEPSTYPE:dance-single;
#DESCRIPTION:NewbStepper-BSP;
#DIFFICULTY:Easy;
#METER:6;
#RADARVALUES:0.229509,0.389380,0.084556,0.135289,0,190,180,10,16,0,0,0,0,0,0.229509,0.389380,0.084556,0.135289,0,190,180,10,16,0,0,0,0,0;
#CREDIT:NewbStepper;
#NOTES:
0000
0000
0000
0000
,
0000
0000
0000
0000
,
0000
0000
0000
0000
,
0000
0000
0000
0000
,
0000
0000
0000
0000
,
0000
0000
0000
0000
,
0000
0000
0000
0000
,
0000
0000
0000
0000
,
0002
0000
0000
0000
0000
0003
0000
2000
,
0000
0000
3000
0000
,
0000
0000
0020
0000
0000
0030
0000
2000
,
0000
3000
0000
0002
0000
0000
0003
0000
,
1000
0100
0010
0000
,
1000
0100
0010
0000
,
0001
0100
0010
0000
,
0001
0100
0010
0000
,
2002
0000
0000
0000
,
0000
0000
0000
3003
,
0000
0000
0000
0000
,
0000
0000
0000
0000
,
0002
0103
2000
3100
,
0020
0130
0110
0000
,
2000
3100
0002
0103
,
0020
0130
0110
0000
,
1000
1000
0100
0000
,
0100
0100
0001
0000
,
0001
0001
0010
0000
,
0010
0010
1000
0000
,
1000
0100
1000
0000
,
0001
0100
0001
0000
,
1000
0010
1000
0000
,
0001
0010
0001
0000
,
1000
0100
0000
0100
,
0010
0100
0000
0100
,
0001
0100
0000
0100
,
1000
0001
0100
0001
,
1000
0010
0000
0010
,
0100
0010
0000
0010
,
0001
0010
0000
0010
,
1000
0001
0010
0001
,
2002
0000
0000
0000
,
0000
0000
0000
0000
,
0000
0000
0000
0000
,
0000
0000
3003
0000
,
1000
0000
0000
0000
0000
0001
0000
1000
,
0000
0000
0100
0000
,
1000
0000
0000
0000
0000
0001
0000
0000
,
0000
0000
1001
0000
,
0001
0000
0000
0000
0000
1000
0000
0001
,
0000
0000
0100
0000
,
0001
0000
0000
0000
0000
1000
0000
0000
,
0000
0000
1001
0000
,
0001
0100
0010
0000
,
1000
0100
0010
0000
,
0001
0100
0001
0000
,
1000
0100
1000
0000
,
0001
0001
1000
0000
,
1000
1000
0010
0000
,
0010
0010
0100
0000
,
0100
0100
0001
0000
,
1000
0100
0010
0001
,
1000
0100
0010
0001
,
1000
0010
0100
0001
,
1000
0010
0100
0000
,
0001
0100
0010
1000
,
0001
0100
0010
1000
,
0001
0010
0100
1000
,
0001
0010
0100
0000
,
1000
0001
1001
0100
,
0010
0110
0001
1000
,
1001
0100
0010
0110
,
1000
0001
1000
0001
,
0100
0010
0100
0010
,
1000
0100
0010
0001
,
0100
1000
0100
0001
,
0020
0000
0000
0000
,
0000
0000
0000
0030
;

//---------------dance-single - NewbStepper-bSP----------------
#NOTEDATA:;
#CHARTNAME:NewbStepper-bSP;
#STEPSTYPE:dance-single;
#DESCRIPTION:NewbStepper-bSP;
#DIFFICULTY:Beginner;
#METER:3;
#RADARVALUES:0.107507,0.190251,0.025367,0.033822,0,89,86,3,4,0,0,0,0,0,0.107507,0.190251,0.025367,0.033822,0,89,86,3,4,0,0,0,0,0;
#CREDIT:NewbStepper;
#NOTES:
0000
0000
0000
0000
,
0000
0000
0000
0000
,
0000
0000
0000
0000
,
0000
0000
0000
0000
,
0000
0000
0000
0000
,
0000
0000
0000
0000
,
0000
0000
0000
0000
,
0000
0000
0000
0000
,
1000
0000
0000
0000
0000
0000
0000
1000
,
0000
0000
0000
0000
,
0000
0000
0001
0000
0000
0000
0000
0100
,
0000
0000
0000
0010
0000
0000
0000
0000
,
1000
0000
0000
0000
0000
0000
0000
1000
,
0000
0000
0000
0000
,
0000
0000
0001
0000
0000
0000
0000
0100
,
0000
0000
0000
0010
0000
0000
0000
0000
,
2002
0000
0000
0000
,
0000
0000
0000
3003
,
0000
0000
0000
0000
,
0000
0000
0000
0000
,
1000
0000
0001
0000
,
0100
0100
0100
0000
,
0001
0000
1000
0000
,
0100
0100
0100
0000
,
1000
0000
0000
0000
,
1000
0000
0000
0000
,
1000
0000
0000
0000
,
0000
0000
0000
0000
,
0001
0000
0000
0000
,
0001
0000
0000
0000
,
0001
0000
0000
0000
,
0000
0000
0000
0000
,
1000
0000
1000
0000
,
1000
0000
0000
0000
,
0001
0000
0001
0000
,
0001
0000
0000
0000
,
0100
0000
0100
0000
,
0100
0000
0000
0000
,
0010
0000
0010
0000
,
0010
0000
0000
0000
,
2002
0000
0000
0000
,
0000
0000
0000
0000
,
0000
0000
0000
0000
,
0000
0000
3003
0000
,
0010
0000
0000
0000
,
0000
0000
0000
0000
,
0010
0000
0000
0000
,
0000
0000
0000
0000
,
0010
0000
0000
0000
,
0000
0000
0000
0000
,
0010
0000
0000
0000
,
0000
0000
0000
0000
,
1000
1000
0000
0000
,
0001
0001
0000
0000
,
0100
0100
0000
0000
,
0010
0010
0000
0000
,
1000
1000
0000
0000
,
0001
0001
0000
0000
,
0100
0100
0000
0000
,
0010
0010
0000
0000
,
1000
0000
1000
0000
,
0001
0000
0001
0000
,
0100
0000
0100
0000
,
0010
0000
0010
0000
,
1000
0000
1000
0000
,
0001
0000
0001
0000
,
0010
0000
0010
0000
,
0100
0000
0100
0000
,
1000
0000
0000
0000
,
0000
0000
0000
0000
,
0000
0000
0000
0000
,
0001
0000
0001
0000
,
1000
0000
1000
0000
,
0100
0000
0100
0000
,
0010
0000
0010
0000
,
1001
0000
0000
0000
;

//---------------dance-single - NewbStepper-CSP----------------
#NOTEDATA:;
#CHARTNAME:NewbStepper-CSP;
#STEPSTYPE:dance-single;
#DESCRIPTION:NewbStepper-CSP;
#DIFFICULTY:Challenge;
#METER:16;
#RADARVALUES:0.735636,1.233036,0.253668,0.397413,0.883609,609,579,30,47,0,0,0,0,0,0.735636,1.233036,0.253668,0.397413,0.883609,609,579,30,47,0,0,0,0,0;
#CREDIT:NewbStepper;
#NOTES:
0000
0000
0000
0000
,
0000
0000
0000
0000
,
0000
0000
0000
0000
,
0000
0000
0000
0000
,
0000
0000
0000
0000
,
0000
0000
0000
0000
,
0000
0000
0000
0000
,
0000
0000
0000
0000
,
1001
0000
0000
1000
0010
0000
0000
0010
0100
0000
0000
0100
0001
0000
0000
0001
,
0010
0000
0000
0010
0001
0000
0000
0001
0100
0000
0000
0100
0010
0000
0010
0000
,
0000
0000
0000
0000
1001
0000
0000
0001
0010
0000
0000
0010
0001
0000
0000
0001
,
0100
0000
0000
0100
0010
0000
0000
0010
1000
0000
1000
0000
1001
0000
0000
0000
,
0001
0000
1000
0000
0100
0000
0001
0000
0100
0000
1000
0000
0010
0000
0100
0010
,
1000
0001
0100
1000
0100
0001
1000
0001
,
1001
0000
0000
0000
1000
0000
0100
0000
0001
0000
0100
0000
1000
0000
0010
1000
,
0001
1000
0010
1000
0001
0100
0010
1000
0100
0010
0001
1000
0010
0000
0000
0000
,
2002
0000
0000
0000
,
0000
0000
0000
0000
,
0000
0000
3003
0000
,
0001
0000
1000
0010
0000
1000
0100
0000
0010
0001
0000
0100
0010
0000
0000
0000
,
2000
0000
0000
0000
0000
0000
0000
0000
0000
0000
0000
0000
0000
0000
0000
0000
0000
0000
0000
0000
0000
0000
0000
0000
3100
0000
0000
0000
0000
0000
0000
0000
0000
0000
0000
0000
0010
0000
0000
0000
0000
0000
0000
0000
0000
0000
0000
0000
0110
0000
0000
0000
0000
0000
0000
0000
0000
0000
0000
0000
0000
0000
0000
0000
0000
0000
0001
0000
0000
0000
0000
0000
0000
0000
0000
0000
0000
0000
0000
0000
0000
0000
0000
0000
1000
0000
0000
0000
0000
0000
0000
0000
0000
0000
0000
0000
0001
0000
0000
0000
0000
0000
0000
0000
0100
0000
0000
0000
0000
0000
0000
0000
0001
0000
0000
0000
0000
0000
0000
0000
1000
0000
0000
0000
0000
0000
0001
0000
0000
0000
0000
0000
0100
0000
0000
0000
0000
0000
0010
0000
0000
0000
0000
0000
1000
0000
0000
0000
0000
0000
0000
0000
0100
0000
0000
0000
0000
0000
0000
0000
0010
0000
0000
0000
0000
0000
0000
0000
0001
0000
0000
0000
0000
0000
1000
0000
0000
0000
0000
0000
0100
0000
0000
0000
0000
0000
0010
0000
0000
0000
0000
0000
,
0002
0000
0000
0000
0000
0000
0000
0000
0000
0000
0000
0000
0000
0000
0000
0000
0000
0000
0000
0000
0000
0000
0000
0000
1003
0000
0000
0000
0000
0000
0000
0000
0000
0000
0000
0000
0010
0000
0000
0000
0000
0000
0000
0000
0000
0000
0000
0000
1010
0000
0000
0000
0000
0000
0000
0000
0000
0000
0000
0000
0000
0000
0000
0000
0000
0000
1000
0000
0000
0000
0000
0000
0000
0000
0000
0000
0000
0000
0000
0000
0000
0000
0000
0000
0100
0000
0000
0000
0000
0000
0000
0000
0000
0000
0000
0000
0001
0000
0000
0000
0000
0000
0000
0000
0100
0000
0000
0000
0000
0000
0000
0000
1000
0000
0000
0000
0000
0000
0000
0000
0100
0000
0000
0000
0000
0000
0000
0000
0001
0000
0000
0000
0000
0000
0000
0000
0100
0000
0000
0000
0000
0000
0000
0000
0000
0000
0000
0000
0000
0000
0000
0000
0000
0000
0000
0000
2002
0000
0000
0000
0000
0000
0000
0000
0000
0000
0000
0000
0000
0000
0000
0000
0000
0000
0000
0000
0000
0000
0000
0000
3003
0000
0000
0000
0000
0000
0000
0000
0000
0000
0000
0000
,
0002
0000
0000
0000
0000
0000
0000
0000
0000
0000
0000
0000
0000
0000
0000
0000
0000
0000
0000
0000
0000
0000
0000
0000
0103
0000
0000
0000
0000
0000
0000
0000
0000
0000
0000
0000
0010
0000
0000
0000
0000
0000
0000
0000
0000
0000
0000
0000
0110
0000
0000
0000
0000
0000
0000
0000
0000
0000
0000
0000
0000
0000
0000
0000
0000
0000
1000
0000
0000
0000
0000
0000
0000
0000
0000
0000
0000
0000
0000
0000
0000
0000
0000
0000
0001
0000
0000
0000
0000
0000
0000
0000
0000
0000
0000
0000
1000
0000
0000
0000
0000
0000
0000
0000
0100
0000
0000
0000
0000
0000
0000
0000
1000
0000
0000
0000
0000
0000
0000
0000
0001
0000
0000
0000
0000
0000
1000
0000
0000
0000
0000
0000
0100
0000
0000
0000
0000
0000
0010
0000
0000
0000
0000
0000
0001
0000
0000
0000
0000
0000
0000
0000
0100
0000
0000
0000
0000
0000
0000
0000
0010
0000
0000
0000
0000
0000
0000
0000
1000
0000
0000
0000
0000
0000
0001
0000
0000
0000
0000
0000
0100
0000
0000
0000
0000
0000
0010
0000
0000
0000
0000
0000
,
2000
0000
0000
0000
0000
0000
0000
0000
3001
0000
0100
0000
0010
0000
1000
0000
2002
0000
0000
0000
0000
0000
0000
0000
3003
0000
0000
0000
1000
0100
0010
0001
,
1000
0001
0000
0100
0010
0100
0000
0001
0000
1000
0010
0000
0100
0000
0001
0000
,
1000
0100
0000
0010
0100
0010
0000
0001
0000
1000
0100
0000
0010
0100
0000
1000
,
0000
0001
0100
0001
1000
0001
0000
0100
0001
0000
1000
0100
0000
0010
0001
1000
,
0001
1000
0100
0000
1000
0001
0000
0100
0000
0001
1000
0000
0100
0000
0010
0000
,
0001
1000
0000
0100
0010
0100
0000
1000
0000
0001
0010
0000
0100
0000
1000
0000
,
0001
0100
0000
0010
0100
0010
0000
1000
0000
0001
0100
0000
0010
0100
0000
0001
,
0000
1000
0100
1000
0001
1000
0000
0100
1000
0000
0001
0100
0000
0010
1000
0001
,
1000
0000
0000
1010
0000
0000
1001
0000
0000
0011
0000
0000
1001
0000
0000
0000
,
0001
0100
1000
0100
0001
0100
0010
0000
,
1000
0100
0001
0100
1000
0100
0010
0000
,
0001
0010
1000
0010
0001
0010
0100
0000
,
1000
0010
0001
0010
1000
0010
0100
0000
,
0001
0000
1000
0000
0100
0010
0100
0000
1000
0000
0001
0000
0010
0100
0010
0100
,
0000
1000
0001
0000
0010
0100
0010
0000
0001
0000
1000
0000
0100
0010
0001
0000
,
0000
1000
0001
0000
0100
0010
0100
0000
0001
0000
1000
0000
0010
0100
0010
0100
,
0000
0001
1000
0000
0010
0100
0010
0000
1000
0000
0001
0000
0100
0010
1000
0000
,
2002
0000
0000
0000
,
0000
0000
0003
0000
,
0020
0000
0000
0000
,
0000
0000
0000
3030
,
2002
0000
0000
3003
0000
1100
0000
0120
,
0000
0000
0002
0033
,
2002
0000
0000
3003
0000
0022
0000
0033
,
0000
0220
0330
0000
2200
0000
3300
0000
,
2002
0000
0000
3003
0000
0101
0000
0120
,
0000
0000
2000
3030
,
2002
0000
0000
3003
0000
2020
0000
3030
,
0000
0220
0330
0000
0202
0000
0303
0000
,
1000
0010
0001
0010
1000
0100
0010
1000
,
0001
0000
0100
0000
0010
0000
1000
0000
0010
0000
0001
0000
0100
0010
0100
0000
,
0001
0010
1000
0010
0001
0100
0010
0001
,
1000
0100
0010
0001
0010
1000
0100
0000
,
1000
0010
0001
1000
0100
0010
1000
0001
,
0010
0000
0100
0000
0001
0000
1000
0000
0010
0000
0001
0000
1000
0100
0010
0000
,
0001
0010
1000
0001
0100
0010
0001
1000
,
0010
0100
1000
0001
0010
1000
1001
0000
,
0001
1000
0001
0000
0100
0001
0000
0001
0010
0001
0010
0000
0100
1000
0100
0010
,
0001
0000
1000
0010
0100
0010
1000
0100
0010
0100
1000
0100
0010
0001
1000
0000
,
0001
0000
0100
0010
0100
0000
0001
0100
0010
1000
0001
0100
0010
1000
0001
0100
,
0010
0100
0001
0100
0010
1000
0001
1000
0010
1000
0010
0100
0002
0000
0000
0000
,
1003
0001
1000
0000
0100
1000
0000
1000
0010
1000
0010
0000
0100
0001
0100
0010
,
1000
0000
0001
0010
0100
0010
0001
0100
0010
0100
0001
0100
0010
1000
0001
0000
,
1000
0000
0100
0010
0100
0000
1000
0100
0010
0001
1000
0100
0010
0001
1000
0100
,
0010
0100
1000
0100
0010
0001
1000
0001
0010
0001
0010
0100
2000
0000
0000
0000
,
3001
0000
0000
0000
0000
0000
0000
0000
1000
0000
0000
0000
0100
0000
0000
0000
1000
0000
0000
0000
0000
0000
0000
0000
0001
0000
0000
0000
0100
0000
0000
0000
0010
0000
0000
0000
1000
0000
0000
0000
0002
0003
0000
0000
0000
0000
0000
0000
1000
0000
0000
0000
0000
0000
0000
0000
0010
0000
0000
0000
0100
0000
0000
0000
,
0010
0000
0000
0000
1000
0000
0000
0000
0100
0000
0000
0000
0010
0000
0000
0000
0001
0000
0000
0000
0100
0000
0000
0000
0020
0030
0000
0000
0000
0000
0000
0000
1000
0000
0000
0000
0000
0000
0000
0000
0001
0000
0000
0000
0100
0000
0000
0000
0001
0000
0000
0000
0000
0000
0000
0000
1000
0000
0000
0000
0100
0000
0000
0000
,
0010
0000
0000
0000
0001
0000
0000
0000
2000
3000
0000
0000
0000
0000
0000
0000
0001
0000
0000
0000
0100
0000
0000
0000
0010
0000
0000
0000
1000
0000
0000
0000
0001
0000
0000
0000
0100
0000
0000
0000
0010
0000
0000
0000
1000
0000
0000
0000
0002
0000
0000
0000
0000
0000
0000
0000
2003
0000
0000
0000
0000
0000
0000
0000
,
3010
1000
0010
0000
0100
0001
0100
0000
0001
0010
0001
0000
1000
0010
1000
0000
,
0001
0000
1000
0100
0010
0100
1000
0100
0010
0100
1000
0100
0010
0001
1000
0010
,
0100
0000
0001
0100
0001
0000
1000
0100
1000
0100
0010
0001
0010
0001
1000
0010
,
1000
0100
0010
0001
0100
0010
1000
0100
0010
0001
0100
0010
1000
0100
0010
0001
,
2000
0000
0000
0000
0000
3200
0000
0020
,
0000
0000
0000
0330
;

//---------------dance-double - NewbStepper-EDP----------------
#NOTEDATA:;
#CHARTNAME:NewbStepper-EDP;
#STEPSTYPE:dance-double;
#DESCRIPTION:NewbStepper-EDP;
#DIFFICULTY:Hard;
#METER:12;
#RADARVALUES:0.521830,0.746311,0.380501,0.422779,0.050734,432,387,45,50,0,0,0,0,0,0.521830,0.746311,0.380501,0.422779,0.050734,432,387,45,50,0,0,0,0,0;
#CREDIT:NewbStepper;
#NOTES:
00000000
00000000
00000000
00000000
,
00000000
00000000
00000000
00000000
,
00000000
00000000
00000000
00000000
,
00000000
00000000
00000000
00000000
,
00000000
00000000
00000000
00000000
,
00000000
00000000
00000000
00000000
,
00000000
00000000
00000000
00000000
,
00000000
00000000
00000000
00000000
,
00110000
00000000
01000000
00000000
10000000
01000000
00100000
00010000
,
10000000
00000000
00010000
00000000
00100000
00000000
00001000
00001000
,
00000000
00000000
00011000
00000000
00010000
00000000
00001000
00000010
,
00000000
00000001
00000000
00000100
00000001
00000100
00000010
00000000
,
00001000
00000000
00000100
00000000
00000010
00000000
00001000
00000000
00010000
00000000
00001000
00000000
00100000
00000000
00010000
10000000
,
00010000
01000000
00100000
00010000
00001000
00010000
00000010
00000000
,
00000100
00000001
00000010
00000100
00001000
00000001
00000100
00001000
,
00010000
00100000
10000000
01000000
00100000
00001000
00101000
00000000
,
00022000
00000000
00000000
00000000
,
00000000
00000000
00000000
00000000
,
00000000
00000000
00033000
00000000
,
00001000
00000000
00010000
00001000
00000000
00010000
00001000
00000000
00010000
00001000
00000000
00000000
00011000
00000000
00000000
00000000
,
00020000
00031000
00011000
00010000
00000200
00000010
00000320
00000001
,
00000032
00000000
00000000
00000000
00001003
00000000
00000000
00000000
00001100
00000000
00000000
00000000
00000100
00000000
00000010
00000000
00001000
00000000
00000000
00010000
00000000
00000000
00000000
00000000
00011000
00000000
00000000
00000000
00000000
00000000
00000000
00000000
,
00001000
00000000
00010000
00000000
00011000
00000000
00001000
00100000
01000000
00000000
01100000
00000000
00100000
00000000
00010000
00000000
,
20020000
00000000
30030000
00000000
10000000
01000000
00010000
00001000
00000200
00000000
00000000
00000000
00000300
00000000
00000000
00000000
,
00000001
00001000
00000010
00000000
00010000
00001000
00000010
00000000
,
00000100
00001000
00000100
00000010
00001000
00010000
00100000
00000000
,
10000000
00010000
00100000
00000000
00001000
00010000
00100000
00000000
,
01000000
00010000
01000000
00100000
00010000
00001000
00000010
00000000
,
00000001
00000100
00000010
00001000
00000001
00000100
00001000
00010000
,
01000000
10000000
00100000
01000000
00010000
10000000
01000000
00010000
,
00001000
00000000
00000100
00000000
00000001
00000000
00000010
00000000
00000100
00000000
00010000
00000000
00000010
00000000
00001000
00000100
,
00001000
00000000
00000000
00001010
00000000
00000000
00010010
00000000
00000000
00011000
00000000
00000000
00101000
00000000
00000000
00000000
,
00010000
00000000
01010000
00000000
00000000
00100000
01100000
00000000
,
10010000
00000000
10000000
11000000
00000000
00010000
01010000
00000000
,
00001000
00000000
00001100
00000000
00000000
00000010
00000110
00000000
,
00001001
00000000
00000001
00000101
00000000
00001000
00001100
00000000
,
00000100
00000010
00000001
00000100
00001000
00000100
00000001
00001000
,
00000100
00000001
00000100
00001000
00000010
00010000
00001000
00100000
,
00010000
01000000
10000000
01000000
00010000
10000000
01000000
00010000
,
01000000
10000000
00100000
00000000
00010000
00001000
00000010
00000001
,
00002002
00000000
00000000
00000000
,
00000000
00000000
00000003
00000000
,
00000020
00000000
00000000
00000000
,
00000000
00000000
00000000
00003030
,
00020200
00000000
00000000
00030300
00000000
00011000
00000000
02001000
,
00000000
00000000
00020000
03030000
,
20020000
00000000
00000000
30030000
00000000
20200000
00000000
30300000
,
00000000
02200000
03300000
00000000
02020000
00000000
03030000
00000000
,
02002000
00000000
00000000
03003000
00000000
00011000
00000000
00010200
,
00000000
00000000
00002000
00003300
,
00002002
00000000
00000000
00003003
00000000
00000022
00000000
00000033
,
00000000
00000220
00000330
00000000
00002200
00000000
00003300
00000000
,
00000001
00000100
00001000
00000000
00010000
01000000
10000000
00000000
,
00100000
10000000
01000000
00100000
00010000
01000000
00100000
00000000
,
10000000
01000000
00010000
00000000
00001000
00000100
00000001
00000000
,
00000010
00000001
00000100
00000010
00001000
00000100
00000010
00000000
,
00000001
00000100
00001000
00000000
00010000
00001000
00010000
00100000
,
10000000
01000000
00100000
00000000
00010000
01000000
00100000
00000000
,
10000000
01000000
00010000
00000000
00001000
00010000
00001000
00000010
,
00000001
00000100
00000010
00000000
00001000
00000001
00002002
00003003
,
00000001
00000100
00000010
00001000
00000001
00000100
00001000
00010000
,
00000100
00010000
00001000
01000000
00001000
00010000
01000000
10000000
,
00100000
01000000
00010000
01000000
00100000
00010000
00100000
10000000
,
01000000
00100000
00001000
00010000
00100000
10000000
00010000
00000000
,
10000000
01000000
00100000
00010000
10000000
01000000
00010000
00001000
,
01000000
00001000
00010000
00000100
00010000
00001000
00000100
00000001
,
00000010
00000100
00001000
00000100
00000010
00001000
00000010
00000001
,
00000100
00000010
00010000
00001000
00000010
00000001
00001000
00000000
,
00000001
00000000
00000000
00000000
00000000
00000000
00000000
00000000
00000100
00000000
00000000
00000000
00000000
00000000
00000000
00000000
00001000
00000000
00000000
00000000
00000000
00000000
00000000
00000000
00000100
00000000
00000000
00000000
00000000
00000000
00000000
00000000
00000010
00000000
00000000
00000000
00000000
00000000
00000000
00000000
00000220
00000330
00000000
00000000
00000000
00000000
00000000
00000000
00001000
00000000
00000000
00000000
00000000
00000000
00000000
00000000
00010000
00000000
00000000
00000000
00000000
00000000
00000000
00000000
,
00100000
00000000
00000000
00000000
00000000
00000000
00000000
00000000
00010000
00000000
00000000
00000000
00000000
00000000
00000000
00000000
00001000
00000000
00000000
00000000
00000000
00000000
00000000
00000000
00022000
00033000
00000000
00000000
00000000
00000000
00000000
00000000
00100000
00000000
00000000
00000000
00000000
00000000
00000000
00000000
10000000
00000000
00000000
00000000
00000000
00000000
00000000
00000000
01000000
00000000
00000000
00000000
00000000
00000000
00000000
00000000
00100000
00000000
00000000
00000000
00000000
00000000
00000000
00000000
,
00010000
00000000
00000000
00000000
00000000
00000000
00000000
00000000
20020000
30030000
00000000
00000000
00000000
00000000
00000000
00000000
10000000
00000000
00000000
00000000
00000000
00000000
00000000
00000000
01000000
00000000
00000000
00000000
00000000
00000000
00000000
00000000
00100000
00000000
00000000
00000000
00000000
00000000
00000000
00000000
00001000
00000000
00000000
00000000
00000000
00000000
00000000
00000000
00020000
00000000
00000000
00000000
00000000
00000000
00000000
00000000
00032000
00000000
00000000
00000000
00000000
00000000
00000000
00000000
,
01003000
00001000
00010000
01000000
00010000
00001000
00100000
00010000
,
10000000
00100000
00010000
00001000
00000010
00000100
00010000
00001000
,
00000100
00001000
00010000
00000010
00001000
00000001
00000010
00001000
,
00010000
00100000
01000000
00010000
10000000
01000000
00010000
00001000
,
00022000
00000000
00000000
00003000
00000000
00030020
00000000
00002000
,
00000000
00000000
00000000
00003030
;

//---------------dance-double - NewbStepper-DDP----------------
#NOTEDATA:;
#CHARTNAME:NewbStepper-DDP;
#STEPSTYPE:dance-double;
#DESCRIPTION:NewbStepper-DDP;
#DIFFICULTY:Medium;
#METER:8;
#RADARVALUES:0.326144,0.486725,0.101467,0.279034,0.004228,270,258,12,33,0,0,0,0,0,0.326144,0.486725,0.101467,0.279034,0.004228,270,258,12,33,0,0,0,0,0;
#CREDIT:NewbStepper;
#NOTES:
00000000
00000000
00000000
00000000
,
00000000
00000000
00000000
00000000
,
00000000
00000000
00000000
00000000
,
00000000
00000000
00000000
00000000
,
00000000
00000000
00000000
00000000
,
00000000
00000000
00000000
00000000
,
00000000
00000000
00000000
00000000
,
00000000
00000000
00000000
00000000
,
00011000
00010000
00010000
00010000
,
00011000
00000000
00001000
00000000
00001000
00000000
00001000
00001000
,
00000000
00011000
00010000
00010000
,
00100000
00000000
01000000
00000000
00100000
00100000
00000000
00000000
,
10000000
01000000
00100000
00010000
,
01000000
00000000
00100000
00000000
00010000
00000000
00001000
00010000
,
00001000
00000100
00000010
00001000
,
00000100
00000010
00000001
00001000
,
00002002
00000000
00000000
00000000
,
00000000
00000000
00000000
00000000
,
00000000
00000000
00003003
00000000
,
00000001
00000000
00001000
00000000
00000000
00001000
00000000
00000000
00001000
00000000
00000000
00000000
00000100
00000000
00000000
00000000
,
00020000
00000000
00031000
00000000
00100000
01000000
10000000
01000000
,
00200000
00301000
00022000
00033000
,
00002000
00000000
00013000
00000000
00000010
00000100
00000001
00000100
,
00000020
00020030
00032000
00003000
,
00100000
00000000
00010000
00000000
00000000
00010000
10000000
00000000
,
01000000
00000000
00010000
00000000
00000000
00010000
00001000
00000000
,
00000100
00000000
00000001
00000000
00000000
00000001
00001000
00000000
,
00000010
00000000
00010000
00000000
00001000
00010000
00001000
00000000
,
01000000
00000000
00010000
00000000
10000000
00010000
10000000
00000000
,
01000000
00000000
00010000
00000000
00001000
00010000
00001000
00000000
,
00000100
00000000
00000001
00000000
00001000
00000001
00001000
00000000
,
00000001
00000000
00000100
00000000
00000010
00001000
00000010
00000000
,
00010000
00001000
00000100
00000000
,
00000010
00001000
00000001
00000000
,
00000100
00001000
00010000
00000000
,
00100000
01000000
00010000
00000000
,
10000000
00100000
10000000
00100000
,
01000000
00010000
01000000
00010000
,
00100000
00000000
00001000
00000000
00010000
00001000
00010000
00001000
,
00020000
00000000
00000100
00030100
,
00000220
00000000
00000000
00000000
,
00000000
00000000
00000330
00000000
,
00002002
00000000
00000000
00000000
,
00000000
00000000
00003003
00000000
,
00000002
00000000
00000000
00000000
00000000
00001003
00000000
00000002
,
00000000
00000000
00000013
00000000
,
00000200
00000000
00000000
00000000
00000000
00010300
00000000
00000000
,
00000000
00000000
00022000
00033000
,
20000000
00000000
00000000
00000000
00000000
30010000
00000000
20000000
,
00000000
00000000
30100000
00000000
,
02000000
00000000
00000000
00000000
00000000
03001000
00000000
00000000
,
00000000
00000000
00022000
00033000
,
00010000
00000000
00000100
00000000
00001000
00000010
00001000
00000000
,
00000100
00000001
00000100
00001000
,
00000010
00000000
00010000
00000000
00001000
00010000
00001000
00000000
,
00010000
00100000
10000000
01000000
,
00100000
00000000
00001000
00000000
00010000
00001000
00100000
00001000
,
00010000
00000000
00001000
00000000
00000100
00000010
00000100
00000000
,
00000010
00000000
00001000
00000000
00000001
00000100
00000001
00000100
,
00000010
00000000
00001000
00000000
00000100
00010000
00001000
00000000
,
00010000
01000000
10000000
01000000
,
00010000
00000000
00001000
00000000
00100000
00001000
00010000
00000000
,
00001000
00000100
00000001
00000100
,
00001000
00000000
00010000
00000000
00000010
00010000
00001000
00000000
,
00010000
00100000
10000000
00100000
,
00010000
00000000
00001000
00010000
00000100
00010000
00001000
00000000
,
00000010
00000010
00000001
00000001
,
00001000
00000001
00001000
00000001
00001000
00000001
00001000
00000000
,
00000100
00010000
00000100
00000000
00020200
00030300
00010000
00001000
,
00010000
00000000
00022000
00033000
00001000
01000000
00001000
00000000
,
02002000
03003000
01000000
00010000
01000000
00010000
20000000
00000000
,
30010000
00010000
01000000
01000000
,
00001000
00001000
00010000
00010000
,
00000010
00001000
00000010
00000000
00000100
00000001
00000100
00000000
,
00000010
00010000
00000010
00010000
00000010
00010000
00000010
00010000
,
00002000
00000000
00000000
00000000
,
00000000
00000000
00000000
00003000
;

//---------------dance-double - NewbStepper-BDP----------------
#NOTEDATA:;
#CHARTNAME:NewbStepper-BDP;
#STEPSTYPE:dance-double;
#DESCRIPTION:NewbStepper-BDP;
#DIFFICULTY:Easy;
#METER:6;
#RADARVALUES:0.229509,0.389380,0.084556,0.135289,0,190,180,10,16,0,0,0,0,0,0.229509,0.389380,0.084556,0.135289,0,190,180,10,16,0,0,0,0,0;
#CREDIT:NewbStepper;
#NOTES:
00000000
00000000
00000000
00000000
,
00000000
00000000
00000000
00000000
,
00000000
00000000
00000000
00000000
,
00000000
00000000
00000000
00000000
,
00000000
00000000
00000000
00000000
,
00000000
00000000
00000000
00000000
,
00000000
00000000
00000000
00000000
,
00000000
00000000
00000000
00000000
,
20000000
00000000
00000000
00000000
00000000
30000000
00000000
00020000
,
00000000
00000000
00030000
00000000
,
00000000
00000000
00200000
00000000
00000000
00300000
00000000
00002000
,
00000000
00003000
00000000
00020000
00000000
00000000
00030000
00000000
,
00001000
00000100
00000010
00000000
,
00001000
00000100
00000010
00000000
,
00001000
00010000
00100000
00000000
,
00010000
00100000
01000000
00000000
,
20020000
00000000
00000000
00000000
,
00000000
00000000
00000000
30030000
,
00000000
00000000
00000000
00000000
,
00000000
00000000
00000000
00000000
,
00020000
01030000
20000000
31000000
,
00200000
01300000
01100000
00000000
,
00002000
00003100
00000002
00000103
,
00000020
00000130
00000110
00000000
,
00000001
00000001
00000100
00000000
,
00000100
00000100
00001000
00000000
,
00001000
00001000
00010000
00000000
,
00010000
00010000
00100000
00000000
,
00100000
10000000
00100000
00000000
,
01000000
00010000
01000000
00000000
,
00100000
00001000
00100000
00000000
,
00001000
00010000
00001000
00000000
,
00001000
00000100
00000000
00000100
,
00000010
00000100
00000000
00000100
,
00000001
00000100
00000000
00000100
,
00001000
00010000
00001000
00100000
,
00001000
00010000
00000000
00010000
,
01000000
00010000
00000000
01000000
,
10000000
01000000
00000000
10000000
,
01000000
00100000
00001000
00010000
,
00022000
00000000
00000000
00000000
,
00000000
00000000
00000000
00000000
,
00000000
00000000
00000000
00000000
,
00000000
00000000
00033000
00000000
,
00001000
00000000
00000000
00000000
00000000
00000100
00000000
00000010
,
00000000
00000000
00001000
00000000
,
00000010
00000000
00000000
00000000
00000000
00010000
00000000
00000000
,
00000000
00000000
00011000
00000000
,
00010000
00000000
00000000
00000000
00000000
01000000
00000000
00100000
,
00000000
00000000
00010000
00000000
,
00100000
00000000
00000000
00000000
00000000
00001000
00000000
00000000
,
00000000
00000000
00011000
00000000
,
00010000
00001000
01000000
00000000
,
00001000
00010000
00000100
00000000
,
00001000
00000010
00001000
00000000
,
00000001
00000010
00000001
00000000
,
00000100
00000100
00001000
00000000
,
00001000
00001000
00010000
00000000
,
00010000
00010000
01000000
00000000
,
01000000
01000000
10000000
00000000
,
00010000
01000000
00100000
10000000
,
00010000
01000000
00001000
00010000
,
00000100
00001000
00000001
00000100
,
00000010
00001000
00000001
00000000
,
00001000
00000100
00000010
00000001
,
00001000
00000100
00010000
00001000
,
01000000
00010000
10000000
01000000
,
00100000
00010000
10000000
00000000
,
00010000
10000000
10010000
01000000
,
00100000
01100000
00010000
00001000
,
00011000
00000100
00000010
00000110
,
00000001
00001000
00000001
00001000
,
00000100
00010000
00000100
00010000
,
00001000
00100000
00010000
01000000
,
10000000
01000000
00010000
00100000
,
00002000
00000000
00000000
00000000
,
00000000
00000000
00000000
00003000
;

//---------------dance-double - NewbStepper-CDP----------------
#NOTEDATA:;
#CHARTNAME:NewbStepper-CDP;
#STEPSTYPE:dance-double;
#DESCRIPTION:NewbStepper-CDP;
#DIFFICULTY:Challenge;
#METER:16;
#RADARVALUES:0.716309,1.135691,0.253668,0.388957,0.794825,593,563,30,46,0,0,0,0,0,0.716309,1.135691,0.253668,0.388957,0.794825,593,563,30,46,0,0,0,0,0;
#CREDIT:NewbStepper;
#NOTES:
// measure 0
00000000
00000000
00000000
00000000
,  // measure 1
00000000
00000000
00000000
00000000
,  // measure 2
00000000
00000000
00000000
00000000
,  // measure 3
00000000
00000000
00000000
00000000
,  // measure 4
00000000
00000000
00000000
00000000
,  // measure 5
00000000
00000000
00000000
00000000
,  // measure 6
00000000
00000000
00000000
00000000
,  // measure 7
00000000
00000000
00000000
00000000
,  // measure 8
00011000
00000000
00000000
00001000
00100000
00000000
00000000
00100000
00010000
00000000
00000000
00010000
10000000
00000000
00000000
10000000
,  // measure 9
01000000
00000000
00000000
01000000
00010000
00000000
00000000
00010000
00001000
00000000
00000000
00001000
00010000
00000000
00010000
00000000
,  // measure 10
00000000
00000000
00000000
00000000
00011000
00000000
00000000
00010000
00000010
00000000
00000000
00000010
00001000
00000000
00000000
00001000
,  // measure 11
00000100
00000000
00000000
00000100
00000010
00000000
00000000
00000010
00000001
00000000
00001000
00000000
00001001
00000000
00000000
00000000
,  // measure 12
00000001
00000000
00000100
00000000
00000010
00000000
00000001
00000000
00000010
00000000
00001000
00000000
00000100
00000000
00010000
00001000
,  // measure 13
00010000
01000000
10000000
00100000
00010000
00100000
10000000
00010000
,  // measure 14
10010000
00000000
10000000
01000000
00100000
00010000
01000000
00100000
,  // measure 15
00010000
00001000
00010000
00001000
00010000
00000010
00010000
00000010
00001000
00000010
00001000
00000010
00000100
00000000
00000000
00000000
,  // measure 16
00002002
00000000
00000000
00000000
,  // measure 17
00000000
00000000
00000000
00000000
,  // measure 18
00000000
00000000
00003003
00000000
,  // measure 19
00000010
00000000
00010000
00000100
00000000
00010000
00001000
00000000
01000000
00001000
00000000
00010000
00001000
00000000
00000000
00000000
,  // measure 20
00020000
00000000
00000000
00000000
00000000
00000000
00000000
00000000
00000000
00000000
00000000
00000000
00000000
00000000
00000000
00000000
00000000
00000000
00000000
00000000
00000000
00000000
00000000
00000000
00130000
00000000
00000000
00000000
00000000
00000000
00000000
00000000
00000000
00000000
00000000
00000000
01000000
00000000
00000000
00000000
00000000
00000000
00000000
00000000
00000000
00000000
00000000
00000000
01100000
00000000
00000000
00000000
00000000
00000000
00000000
00000000
00000000
00000000
00000000
00000000
00000000
00000000
00000000
00000000
00000000
00000000
10000000
00000000
00000000
00000000
00000000
00000000
00000000
00000000
00000000
00000000
00000000
00000000
00000000
00000000
00000000
00000000
00000000
00000000
00010000
00000000
00000000
00000000
00000000
00000000
00000000
00000000
00000000
00000000
00000000
00000000
10000000
00000000
00000000
00000000
00000000
00000000
00000000
00000000
01000000
00000000
00000000
00000000
00000000
00000000
00000000
00000000
00100000
00000000
00000000
00000000
00000000
00000000
00000000
00000000
00010000
00000000
00000000
00000000
00000000
00000000
00000000
00000000
01000000
00000000
00000000
00000000
00000000
00000000
00000000
00000000
00100000
00000000
00000000
00000000
00000000
00000000
00000000
00000000
00010000
00000000
00000000
00000000
00000000
00000000
00000000
00000000
00001000
00000000
00000000
00000000
00000000
00000000
00000000
00000000
00000100
00000000
00000000
00000000
00000000
00000000
00000000
00000000
00000010
00000000
00000000
00000000
00000000
00000000
00000000
00000000
00001000
00000000
00000000
00000000
00000000
00000000
00000000
00000000
00000100
00000000
00000000
00000000
00000000
00000000
00000000
00000000
,  // measure 21
00000020
00000000
00000000
00000000
00000000
00000000
00000000
00000000
00000000
00000000
00000000
00000000
00000000
00000000
00000000
00000000
00000000
00000000
00000000
00000000
00000000
00000000
00000000
00000000
00000031
00000000
00000000
00000000
00000000
00000000
00000000
00000000
00000000
00000000
00000000
00000000
00000000
00000000
00000000
00000000
00000000
00000000
00000000
00000000
00000000
00000000
00000000
00000000
00000101
00000000
00000000
00000000
00000000
00000000
00000000
00000000
00000000
00000000
00000000
00000000
00000000
00000000
00000000
00000000
00000000
00000000
00001000
00000000
00000000
00000000
00000000
00000000
00000000
00000000
00000000
00000000
00000000
00000000
00000000
00000000
00000000
00000000
00000000
00000000
00000001
00000000
00000000
00000000
00000000
00000000
00000000
00000000
00000000
00000000
00000000
00000000
00000100
00000000
00000000
00000000
00000000
00000000
00000000
00000000
00000010
00000000
00000000
00000000
00000000
00000000
00000000
00000000
00001000
00000000
00000000
00000000
00000000
00000000
00000000
00000000
00000100
00000000
00000000
00000000
00000000
00000000
00000000
00000000
00000010
00000000
00000000
00000000
00000000
00000000
00000000
00000000
00000001
00000000
00000000
00000000
00000000
00000000
00000000
00000000
00000000
00000000
00000000
00000000
00000000
00000000
00000000
00000000
00000000
00000000
00000000
00000000
00002002
00000000
00000000
00000000
00000000
00000000
00000000
00000000
00000000
00000000
00000000
00000000
00000000
00000000
00000000
00000000
00000000
00000000
00000000
00000000
00000000
00000000
00000000
00000000
00003003
00000000
00000000
00000000
00000000
00000000
00000000
00000000
00000000
00000000
00000000
00000000
,  // measure 22
00001000
00000000
00000000
00000000
00000000
00000000
00000000
00000000
00000000
00000000
00000000
00000000
00000000
00000000
00000000
00000000
00000000
00000000
00000000
00000000
00000000
00000000
00000000
00000000
00000010
00000000
00000000
00000000
00000000
00000000
00000000
00000000
00000000
00000000
00000000
00000000
00000100
00000000
00000000
00000000
00000000
00000000
00000000
00000000
00000000
00000000
00000000
00000000
00000110
00000000
00000000
00000000
00000000
00000000
00000000
00000000
00000000
00000000
00000000
00000000
00000000
00000000
00000000
00000000
00000000
00000000
00000001
00000000
00000000
00000000
00000000
00000000
00000000
00000000
00000000
00000000
00000000
00000000
00000000
00000000
00000000
00000000
00000000
00000000
00001000
00000000
00000000
00000000
00000000
00000000
00000000
00000000
00000000
00000000
00000000
00000000
00000001
00000000
00000000
00000000
00000000
00000000
00000000
00000000
00000100
00000000
00000000
00000000
00000000
00000000
00000000
00000000
00000010
00000000
00000000
00000000
00000000
00000000
00000000
00000000
00001000
00000000
00000000
00000000
00000000
00000000
00000000
00000000
00000100
00000000
00000000
00000000
00000000
00000000
00000000
00000000
00000010
00000000
00000000
00000000
00000000
00000000
00000000
00000000
00001000
00000000
00000000
00000000
00000000
00000000
00000000
00000000
00010000
00000000
00000000
00000000
00000000
00000000
00000000
00000000
01000000
00000000
00000000
00000000
00000000
00000000
00000000
00000000
00100000
00000000
00000000
00000000
00000000
00000000
00000000
00000000
00010000
00000000
00000000
00000000
00000000
00000000
00000000
00000000
01000000
00000000
00000000
00000000
00000000
00000000
00000000
00000000
,  // measure 23
00200000
00000000
00000000
00000000
00000000
00000000
00000000
00000000
10300000
00000000
01000000
00000000
00100000
00000000
00010000
00000000
20020000
00000000
00000000
00000000
00000000
00000000
00000000
00000000
30030000
00000000
00000000
00000000
10000000
01000000
00100000
00010000
,  // measure 24
10000000
01000000
00000000
10000000
00100000
00000000
01000000
00001000
00000000
00010000
00001000
00000000
00000010
00000000
00000001
00000000
,  // measure 25
00001000
00000100
00001000
00000100
00000000
00000010
00000000
00000100
00000000
00001000
00000001
00000000
00001000
00000100
00000000
00000010
,  // measure 26
00000001
00000000
00000100
00000010
00000000
00001000
00000010
00000000
00010000
00001000
00010000
00100000
00000000
10000000
00100000
10000000
,  // measure 27
00010000
10000000
01000000
00000000
00100000
00010000
00000000
01000000
00000000
00010000
00100000
00001000
00010000
00000010
00001000
00000000
,  // measure 28
00000001
00000100
00000000
00000001
00000010
00000000
00000100
00010000
00000000
00001000
00010000
00000000
00100000
00000000
10000000
00000000
,  // measure 29
00010000
01000000
00010000
01000000
00000000
00100000
00000000
01000000
00000000
00010000
10000000
00000000
00010000
01000000
00000000
00100000
,  // measure 30
10000000
00000000
01000000
00100000
00000000
00010000
00100000
00000000
00001000
00010000
00001000
00000010
00000000
00000001
00000010
00000001
,  // measure 31
00001000
00000000
00000000
00001100
00000000
00000000
00010100
00000000
00000000
00011000
00000000
00000000
01001000
00000000
00000000
00000000
,  // measure 32
01000000
10000000
01000000
00010000
00100000
00001000
00000010
00000000
,  // measure 33
00000100
00000001
00000100
00001000
00000010
00010000
00100000
00000000
,  // measure 34
10000000
01000000
00010000
00000100
00000001
00000100
00001000
00000000
,  // measure 35
00000001
00000100
00001000
01000000
10000000
01000000
00010000
00000000
,  // measure 36
00100000
00000000
00001000
00000000
00010000
00001000
00010000
00000000
00000010
00000000
00001000
00000000
00000100
00000010
00000100
00000010
,  // measure 37
00000000
00000001
00001000
00000000
00000100
00010000
00000100
00000000
00010000
00000000
00001000
00000000
00000100
00000010
00000100
00000000
,  // measure 38
00000010
00000000
00010000
00000000
00001000
00010000
00001000
00000000
00100000
00000000
00010000
00000000
01000000
00100000
01000000
00100000
,  // measure 39
00000000
10000000
00010000
00000000
01000000
00001000
01000000
00000000
00001000
00000000
00010000
00000000
01000000
00100000
01000000
00000000
,  // measure 40
20020000
00000000
00000000
00000000
,  // measure 41
00000000
00000000
30000000
00000000
,  // measure 42
00200000
00000000
00000000
00000000
,  // measure 43
00000000
00000000
00000000
00330000
,  // measure 44
02002000
00000000
00000000
03003000
00000000
00011000
00000000
00010200
,  // measure 45
00000000
00000000
00002000
00003300
,  // measure 46
00002002
00000000
00000000
00003003
00000000
00000022
00000000
00000033
,  // measure 47
00000000
00000220
00000330
00000000
00002200
00000000
00003300
00000000
,  // measure 48
00020200
00000000
00000000
00030300
00000000
00011000
00000000
02001000
,  // measure 49
00000000
00000000
00020000
03030000
,  // measure 50
20020000
00000000
00000000
30030000
00000000
20200000
00000000
30300000
,  // measure 51
00000000
02200000
03300000
00000000
02020000
00000000
03030000
00000000
,  // measure 52
00010000
10000000
00100000
00010000
00001000
00100000
01000000
00100000
,  // measure 53
00001000
00010000
00000100
00010000
00001000
00000010
00000001
00000100
,  // measure 54
00000001
00000010
00001000
00010000
00001000
00000100
00000010
00000001
,  // measure 55
00000010
00001000
00010000
01000000
00100000
10000000
00010000
00000000
,  // measure 56
00100000
01000000
00010000
00001000
01000000
00100000
00010000
00001000
,  // measure 57
00010000
01000000
00010000
00001000
00000010
00000100
00001000
00000001
,  // measure 58
00000100
00001000
00010000
01000000
10000000
00100000
01000000
00010000
,  // measure 59
10000000
01000000
00010000
00001000
00000100
00000001
00001001
00000000
,  // measure 60
00001000
00000001
00001000
00000000
00000100
00001000
00000000
00001000
00000010
00001000
00000010
00000000
00010000
00001000
00010000
00001000
,  // measure 61
00100000
00000000
00010000
01000000
00100000
01000000
00010000
01000000
00100000
00000000
10000000
00000000
01000000
00010000
00001000
00000000
,  // measure 62
00100000
00000000
00010000
01000000
00010000
00000000
00100000
00001000
00100000
00001000
00010000
00000000
00000010
00001000
00000010
00001000
,  // measure 63
00000100
00000000
00000010
00000001
00001000
00000001
00000010
00000100
00001000
00000100
00010000
00001000
02000000
00000000
00000000
00000000
,  // measure 64
03010000
10000000
00010000
00000000
01000000
00010000
00000000
00010000
00100000
00010000
00100000
00000000
00001000
00010000
00001000
00010000
,  // measure 65
00000010
00000000
00001000
00000100
00000010
00000100
00001000
00000100
00000010
00000000
00000001
00000000
00000100
00001000
00010000
00000000
,  // measure 66
00000010
00000000
00001000
00000100
00001000
00000000
00000010
00010000
00000010
00010000
00001000
00000000
00100000
00010000
00100000
00010000
,  // measure 67
01000000
00000000
00100000
10000000
00010000
10000000
00100000
01000000
00010000
01000000
00001000
00010000
00000200
00000000
00000000
00000000
,  // measure 68
00001300
00000000
00000000
00000000
00000100
00000000
00000000
00000000
00001000
00000000
00000000
00000000
00000000
00000000
00000000
00000000
00000001
00000000
00000000
00000000
00000100
00000000
00000000
00000000
00000001
00000000
00000000
00000000
00000000
00000000
00000000
00000000
00000100
00000000
00000000
00000000
00000000
00000000
00000000
00000000
00000020
00000030
00000000
00000000
00000000
00000000
00000000
00000000
00010000
00000000
00000000
00000000
00000000
00000000
00000000
00000000
00001000
00000000
00000000
00000000
00100000
00000000
00000000
00000000
,  // measure 69
00010000
00000000
00000000
00000000
00100000
00000000
00000000
00000000
00001000
00000000
00000000
00000000
00100000
00000000
00000000
00000000
00010000
00000000
00000000
00000000
01000000
00000000
00000000
00000000
00200000
00300000
00000000
00000000
00000000
00000000
00000000
00000000
10000000
00000000
00000000
00000000
00000000
00000000
00000000
00000000
00010000
00000000
00000000
00000000
01000000
00000000
00000000
00000000
00010000
00000000
00000000
00000000
00000000
00000000
00000000
00000000
10000000
00000000
00000000
00000000
01000000
00000000
00000000
00000000
,  // measure 70
00100000
00000000
00000000
00000000
00010000
00000000
00000000
00000000
00200000
00300000
00000000
00000000
00000000
00000000
00000000
00000000
00001000
00000000
00000000
00000000
00010000
00000000
00000000
00000000
00000100
00000000
00000000
00000000
00010000
00000000
00000000
00000000
00001000
00000000
00000000
00000000
00010000
00000000
00000000
00000000
00000100
00000000
00000000
00000000
00010000
00000000
00000000
00000000
00002000
00000000
00000000
00000000
00000000
00000000
00000000
00000000
00023000
00000000
00000000
00000000
00000000
00000000
00000000
00000000
,  // measure 71
00030010
00001000
00000010
00000000
00000100
00000001
00000100
00000000
00000001
00000010
00000001
00000000
00001000
00000010
00001000
00000000
,  // measure 72
00000100
00000000
00010000
00001000
00100000
00001000
00010000
00001000
00100000
00001000
00010000
00001000
00100000
00010000
10000000
00100000
,  // measure 73
01000000
00000000
00010000
01000000
00010000
00000000
10000000
01000000
10000000
01000000
00100000
00000000
00010000
00100000
00010000
00100000
,  // measure 74
00001000
00010000
00001000
00010000
00000010
00001000
00000010
00001000
00000001
00000010
00000001
00000010
00000100
00001000
00000010
00000100
,  // measure 75
00000002
00000000
00000000
00000000
00000000
00002003
00000000
00000020
,  // measure 76
00000000
00000000
00000000
00003030
;
