#TITLE:polygon;
#ARTIST:Sota Fujimori;
#BANNER:polygon.png;
#BACKGROUND:polygon-bg.png;
#MUSIC:polygon.ogg;
#OFFSET:2.718;
#SAMPLESTART:2.790379;
#SAMPLELENGTH:15;
#BPMS:0=87,8=174,200=87,216=174;

//---------------dance-single - NewbStepper-ESP----------------
#NOTES:
     dance-single:
     NewbStepper:
     Hard:
     16:
     0.869326,1.121129,0.688735,0.305136,0.819508,698,619,79,35,0,0,0.869326,1.121129,0.688735,0.305136,0.819508,698,619,79,35,0,0:
// measure 0
0000
0000
0000
0000
,  // measure 1
0000
0000
0000
0000
,  // measure 2
1000
0000
0000
1000
0000
0000
0001
0000
0000
0001
0000
0000
1000
0000
0010
0000
,  // measure 3
1010
0000
0000
0101
0000
0000
1001
0000
0100
0010
0000
0100
0010
0000
0000
0000
,  // measure 4
0001
0000
0000
0001
0000
0000
1000
0000
0000
1000
0000
0000
0001
0000
0010
0000
,  // measure 5
0011
0000
0000
0101
0000
0000
1001
0000
0000
0000
0110
0000
0100
0001
0100
0000
,  // measure 6
0001
0000
0000
0010
0000
0000
0100
0000
0000
1000
0000
0000
0001
0000
0010
0000
,  // measure 7
0011
0000
0000
1100
0000
0000
1001
0000
0100
0010
0000
0100
0010
0000
0000
0000
,  // measure 8
1000
0000
0000
0010
0000
0000
0100
0000
0000
0001
0000
0000
0010
0000
0001
0100
,  // measure 9
0010
0000
0000
1010
0000
0000
0101
0000
0000
0000
1000
0100
0010
0100
1000
0000
,  // measure 10
0020
0000
0230
0000
1300
0100
0001
0100
,  // measure 11
1000
0100
0001
0010
0110
0000
1001
0000
,  // measure 12
0002
0000
0203
0000
0310
1000
0010
0001
,  // measure 13
0010
1000
0100
0001
0101
0000
0110
0001
,  // measure 14
0020
0000
0230
0000
0301
0100
1000
0100
,  // measure 15
0001
0100
1000
0010
0110
0000
1001
0000
,  // measure 16
2000
0000
3200
0000
0310
0001
0100
0101
,  // measure 17
0000
0110
0000
1010
1001
1001
1001
0000
,  // measure 18
0010
1000
0000
0001
0000
0010
0100
0010
0001
0000
0100
0000
0100
0000
0010
0000
,  // measure 19
1000
0100
0000
0010
0001
0010
0000
0001
0100
0000
0010
0000
1000
0000
1000
0000
,  // measure 20
0001
0100
0000
0100
0000
0010
0000
1000
0010
0000
0000
0000
0101
0000
0110
0000
,  // measure 21
0001
0100
0000
0100
0010
0100
0000
0001
1000
0000
0010
0000
0001
0000
0010
0000
,  // measure 22
1000
0010
0000
0100
0010
0100
0000
0001
0010
0000
0100
0000
1000
0000
0010
0000
,  // measure 23
0100
0001
0000
0001
0000
0010
0001
1000
0010
1000
0010
0100
0001
0000
0000
0000
,  // measure 24
1000
0100
1000
0100
0010
0001
0010
0001
,  // measure 25
0101
0000
0000
0110
0000
0000
1010
0000
0000
0000
1000
0001
0010
0000
0000
0000
,  // measure 26
0102
0000
0003
0100
0001
0000
0010
0000
2020
3030
0000
0022
0033
0000
0202
0303
,  // measure 27
0000
2200
3300
0000
0220
0330
0000
2002
3003
0000
0010
0100
1000
0000
0000
0000
,  // measure 28
2010
0000
3000
0010
0100
0000
1000
0000
0100
0000
0001
0000
0010
0000
0010
0000
,  // measure 29
0100
1000
0000
1000
0010
0000
0100
0000
0110
0000
0101
0000
1001
0000
0000
0000
,  // measure 30
2100
0000
3000
0100
1000
0000
0010
0000
0100
0000
0001
0000
0100
0000
0200
0000
,  // measure 31
0300
0010
0100
0000
1100
0000
0000
0101
0000
0000
0011
0000
1001
0000
0000
0000
,  // measure 32
0012
0000
0003
0010
0100
0000
0001
0000
0100
0000
1000
0000
0010
0000
0010
0000
,  // measure 33
0100
0001
0000
0001
0010
0000
0100
1000
0010
0000
0110
0000
1001
0000
0000
0000
,  // measure 34
1000
1000
0100
0100
,  // measure 35
0001
0001
0010
0010
,  // measure 36
1000
1000
0001
0001
,  // measure 37
0010
0010
1100
0101
,  // measure 38
1000
0100
1000
0000
0100
0001
0100
0000
,  // measure 39
0001
0010
0001
0000
0010
1000
0010
0000
,  // measure 40
1000
0000
0100
0000
0001
0000
0100
0000
1000
0000
0100
0000
0010
0000
0001
0100
,  // measure 41
0010
0000
0000
0110
0000
0000
0110
0000
0000
0000
0001
1000
0010
0000
0000
0000
,  // measure 42
1000
0100
0000
1000
0100
0000
0010
0000
0001
0100
0000
0010
0000
0100
0010
0100
,  // measure 43
0010
1000
0000
0010
0100
0000
0001
1000
0010
0100
0000
0100
0001
0000
0000
0000
,  // measure 44
0010
0000
0000
0001
1000
0000
0010
0000
0100
0001
1000
0001
0100
0000
0000
0010
,  // measure 45
1000
0000
0000
0100
0010
0000
0001
0000
0100
0010
0100
0000
0101
0000
0000
0000
,  // measure 46
0010
1000
0010
1000
0010
0000
0100
0000
0001
0010
0000
1000
0010
0000
0001
0100
,  // measure 47
0001
0100
0000
0010
1000
0000
0100
0010
0100
1000
0000
1000
0001
0000
0000
0000
,  // measure 48
0010
0000
0000
1100
0000
0000
0100
0000
0010
0000
0000
0101
0000
0000
0001
0000
,  // measure 49
0011
0000
0000
1100
0000
0000
0110
0000
0010
0000
0010
0000
1001
0000
0000
0000
,  // measure 50
0010
1000
1200
0000
0310
0001
0201
0000
,  // measure 51
0310
0000
1000
0100
0010
0001
0100
0000
0001
0000
1000
0000
2002
0000
3003
0000
,  // measure 52
0010
0000
1000
0000
0100
0010
0100
0000
1000
0000
0000
1000
0000
0000
0001
0000
0010
0000
0001
0000
0100
0010
0100
0000
0001
0000
0000
0000
1001
0000
0000
0000
,  // measure 53
0100
0000
0001
0000
0100
0000
0001
0000
0010
0000
0000
0100
1000
0000
0000
0001
0100
0000
1000
0000
0100
0000
0001
0000
0010
0000
0010
0000
0110
0000
0000
0000
,  // measure 54
1000
0001
1000
0001
1000
0010
1000
0001
0010
0000
0000
0100
1000
0000
0010
0100
,  // measure 55
0001
0000
0000
0011
0000
0000
0100
0010
0001
0000
0100
0000
0110
0000
1000
0000
,  // measure 56
0001
0010
0001
0000
1000
0010
1000
0000
0100
0010
0100
0010
0001
0000
0000
0000
,  // measure 57
1000
0000
0000
0010
0100
0000
1000
0000
0001
0000
0010
0000
1000
0000
0000
0000
,  // measure 58
0001
1000
0001
1000
0001
0010
0001
1000
0010
0000
0000
0100
0001
0000
0010
0100
,  // measure 59
1000
0000
0000
1010
0000
0000
0100
0010
1000
0000
0100
0000
0110
0000
0001
0000
,  // measure 60
1000
0100
0001
0100
1000
0100
0110
0000
,  // measure 61
0001
0000
0000
0100
0000
0000
1000
0000
0100
0010
0100
0010
1000
0000
0000
0000
,  // measure 62
0001
0010
0001
0010
0001
0010
0100
0010
0001
0000
1000
0001
0100
0000
0000
0000
,  // measure 63
0110
0000
0000
1000
0001
0000
0010
0000
0001
1000
0100
0010
0001
0000
0000
0000
,  // measure 64
1000
0100
1000
0000
0001
0100
0001
0000
0010
0100
0010
0100
1000
0000
0000
0000
,  // measure 65
0001
0000
0000
0010
0100
0000
0001
0000
1000
0000
0010
0000
0001
0000
0000
0000
,  // measure 66
1000
0010
1000
0010
1000
0010
0100
0010
1000
0000
0001
1000
0100
0000
0000
0000
,  // measure 67
0110
0000
0000
0001
1000
0000
0010
0000
1000
0100
0010
0001
1000
0000
0000
0000
,  // measure 68
0001
0100
1000
0100
0001
0100
0110
0000
,  // measure 69
1001
0000
0000
1010
0000
0000
0000
0000
0010
0000
0100
0000
0001
1000
0001
0000
,  // measure 70
2000
0000
3000
0100
0001
0000
0100
0000
1000
0000
0010
0000
0110
0000
0001
1000
,  // measure 71
0010
0000
0000
0010
0100
0000
0001
0000
0100
0010
0100
0000
0001
1000
0000
1000
,  // measure 72
0010
0000
1000
0001
0000
0001
0020
0000
0030
0100
0010
0000
0001
0100
0000
1000
,  // measure 73
0100
0000
0001
0000
0020
0000
0230
0000
0300
1000
0001
0000
1000
0010
0000
0100
,  // measure 74
0000
0001
0010
1000
0010
0000
0002
0000
0003
1000
0010
0000
0010
0100
0000
0001
,  // measure 75
0000
1000
0010
0001
0010
0000
2000
0000
0000
3001
0010
0000
0001
1000
0000
1000
,  // measure 76
0010
0000
0010
0000
0100
0000
0100
0000
0001
0000
0001
0000
1000
0100
0000
0001
,  // measure 77
0100
0000
0000
0110
0000
0000
1001
0000
0010
0000
0100
0000
0110
0000
0000
1001
;

//---------------dance-single - NewbStepper-DSP----------------
#NOTES:
     dance-single:
     NewbStepper:
     Medium:
     13:
     0.610272,0.781393,0.340009,0.200518,0.340009,490,451,39,23,0,0,0.610272,0.781393,0.340009,0.200518,0.340009,490,451,39,23,0,0:
0000
0000
0000
0000
,
0000
0000
0000
0000
,
0001
0000
0000
0001
0000
0000
1000
0000
0000
1000
0000
0000
0010
0000
0000
0000
,
1000
0000
0000
0001
0000
0000
0100
0000
0000
0000
0010
0000
0010
0000
0000
0000
,
1000
0000
0000
1000
0000
0000
0001
0000
0000
0001
0000
0000
0010
0000
0000
0000
,
0001
0000
0000
1000
0000
0000
0010
0000
0000
0000
0100
0000
0100
0000
0010
0000
,
1000
0000
0000
0100
0000
0000
0010
0000
0000
0001
0000
0000
0010
0000
0010
0000
,
0001
0000
0000
0100
0000
0000
0101
0000
0000
0000
0010
0000
0100
0000
0000
0000
,
0001
0000
0000
0100
0000
0000
0010
0000
0000
1000
0000
0000
0100
0000
0100
0000
,
0110
0000
0000
1001
0000
0000
0101
0000
0000
0000
0000
0000
0000
0000
0000
0000
,
2000
0000
3200
0000
0310
0001
0010
0001
,
0100
0001
0010
0100
0000
0000
1001
0000
,
0002
0000
0203
0000
0310
1000
0010
1000
,
0100
1000
0010
0100
0000
0000
1001
0000
,
2000
0000
3020
0000
0130
0001
0100
0001
,
0010
0001
0100
0010
0000
0000
1001
0000
,
0002
0000
0023
0000
0230
0000
1300
0100
,
0000
0110
0000
0001
1000
1000
1000
0000
,
0001
0000
0000
0001
0000
0000
0100
0000
0010
0000
0000
0000
1010
0000
0000
0000
,
0100
0000
0000
0001
0000
0000
0010
0000
1000
0000
0010
0000
0001
0000
0000
0000
,
1000
0000
0000
1000
0000
0000
0100
0000
0010
0000
0000
0010
0000
0000
0001
0000
,
0100
0000
0000
0100
0000
0000
1000
0000
0100
0000
0001
0000
0010
0000
0100
0000
,
1000
0000
0000
1000
0000
0000
0100
0000
0010
0000
0000
0000
0011
0000
0000
0000
,
0100
0000
0000
1000
0000
0000
0010
0000
0001
0000
0010
0000
1000
0000
0000
0000
,
0001
0000
0000
0001
0000
0000
0100
0000
0010
0000
0000
0000
0110
0000
0000
0000
,
1000
0000
0000
0001
0000
0000
1001
0000
0000
0000
0100
0000
0110
0000
0000
0000
,
1000
0000
0000
1000
0010
0000
0100
0000
0001
0000
0000
0010
0000
0000
1000
0000
,
0000
0010
0000
0000
0001
0000
0000
0001
0000
0000
0100
0000
0100
0000
0000
0000
,
0001
0000
0000
0001
0010
0000
0100
0000
1000
0000
0100
0000
0000
0000
0010
0000
,
0000
0010
0001
0100
0010
0010
0010
0000
,
1000
0000
0000
1000
0001
0000
0100
0000
0010
0000
0100
0000
0001
0000
0010
0000
,
0000
0001
1000
0100
0001
0100
1000
0000
,
0001
0000
0000
0001
1000
0000
0100
0000
0010
0000
0100
0000
1000
0000
0100
0000
,
0010
0000
0000
0010
0000
0000
0100
0000
0010
0000
0001
0000
1001
0000
0000
0000
,
0100
0100
0100
0100
,
0010
0010
0010
0010
,
1000
1000
1000
1000
,
0001
0001
0001
0001
,
0010
0001
0101
0000
0010
1000
1100
0000
,
0001
0100
0110
0000
1000
0100
0110
0000
,
0001
0000
0101
0000
1000
0010
0100
0001
,
0011
0000
0000
0011
0000
0000
0011
0000
0000
0000
0100
0000
0110
0000
0000
0000
,
1000
0000
0000
0001
0000
0000
1000
0000
0000
0100
0000
0000
0010
0000
0001
0000
,
0010
0000
0000
1000
0000
0000
0010
0000
0000
0001
0000
0000
0100
0000
0000
0000
,
0001
0000
0000
1000
0000
0000
0001
0000
0000
0100
0000
0000
0010
0000
1000
0000
,
0010
0000
0000
0010
0000
0000
0100
0000
0001
0000
0000
0000
1001
0000
0000
0000
,
0100
0000
0000
0100
0000
0000
0010
0000
0000
0010
0000
0000
1000
0000
0001
0000
,
0100
0000
0000
0100
0000
0000
0010
0000
0000
0010
0000
0000
0100
0000
0000
0000
,
0101
0000
0000
0101
0000
0000
0000
0000
1010
0000
0000
1010
0000
0000
0000
0000
,
0100
0000
0000
0100
0000
0000
0100
0000
0010
0000
0010
0000
0010
0000
0000
0000
,
1000
0000
0100
0001
0200
0000
0000
0300
0001
0000
0100
1000
0200
0000
0000
0300
,
0010
0000
0001
0010
0001
0000
0100
0000
0010
0000
1000
0000
0100
0000
0000
0000
,
0010
0001
0100
0001
0020
0000
0000
0030
0100
1000
0010
1000
0200
0000
0000
0300
,
0010
0001
0100
0010
1010
0101
0110
1001
,
1000
0010
0001
0010
2000
0000
3001
0000
,
0010
0000
0000
0010
0000
0000
0001
0000
0100
0000
1000
0000
0100
0000
0000
0000
,
0001
0010
1000
0010
0002
0000
1003
0000
,
0010
0000
0000
0010
0000
0000
1000
0000
0100
0000
0001
0000
0100
0000
0000
0000
,
0010
0001
0010
1000
0020
0000
0130
0000
,
1000
0000
0000
1000
0000
0000
0001
0000
0100
0000
0010
0000
1000
0000
0000
0000
,
0010
1000
0010
0001
0020
0000
0130
0000
,
0001
0000
0000
0001
0000
0000
1000
0000
0100
0000
0010
0000
0001
0000
0000
0000
,
1000
0000
0000
1000
0010
0000
0000
0010
0100
0000
0000
0100
0001
0000
0000
0000
,
0010
0000
0000
0010
0100
0000
1000
0000
0010
0000
0100
0000
0001
0000
0000
0000
,
2000
3020
0230
0300
,
0001
0000
0000
1000
0010
0000
0100
0000
0010
0000
0000
0000
1001
0000
0000
0000
,
0001
0000
0000
0001
0010
0000
0000
0010
0100
0000
0000
0100
1000
0000
0000
0000
,
0010
0000
0000
0010
0100
0000
0001
0000
0010
0000
0100
0000
1000
0000
0000
0000
,
0002
0023
0230
0300
,
1000
0000
0000
0001
0000
0000
0010
0000
0110
0000
0100
0000
1001
0000
0000
0000
,
1000
0000
0000
0010
0000
0000
0010
0000
0100
0000
0001
0000
0010
0000
1000
0000
,
0010
0000
0000
0001
0100
0000
0010
0000
1000
0010
1000
0000
0001
0000
0000
0000
,
0010
0000
0000
0001
0000
0000
0100
0000
0000
1000
0000
0000
0100
0000
0010
0000
,
1000
0000
0100
0000
0001
0000
0100
0000
0000
0100
0010
0000
0110
0000
0000
0000
,
0001
0000
0000
0010
0000
0000
0010
0000
0100
0000
1000
0000
0010
0000
0001
0000
,
0010
0000
0000
1000
0100
0000
0010
0000
0001
0010
0001
0000
1000
0000
0000
0000
,
0010
0000
0010
0000
0100
0000
0100
0000
0001
0000
0010
0000
1000
0010
0000
0001
,
0010
0000
0000
0110
0000
0000
0110
0000
1000
0000
0100
0000
0001
0000
0000
0110
;

//---------------dance-single - NewbStepper-BSP----------------
#NOTES:
     dance-single:
     NewbStepper:
     Easy:
     10:
     0.450854,0.509604,0.191800,0.200518,0.034873,362,340,22,23,0,0,0.450854,0.509604,0.191800,0.200518,0.034873,362,340,22,23,0,0:
0000
0000
0000
0000
,
0000
0000
0000
0000
,
1000
0100
1100
0000
,
0010
0000
0001
0100
0000
0000
0000
0000
,
0001
0100
0101
0000
,
0010
0000
1000
0100
0000
0000
0000
0000
,
0010
0001
0100
0010
,
0010
0000
1000
0010
0000
0000
0000
0000
,
0010
1000
0100
0010
,
0001
0000
0000
0001
0000
0000
0001
0000
0000
0000
0000
0000
0000
0000
0000
0000
,
1000
0100
0002
0103
,
2000
3100
0010
0000
,
0001
0100
2000
3100
,
0002
0103
0010
0000
,
1000
0010
0002
0013
,
2000
3010
0100
0000
,
0001
0010
2000
3010
,
0002
0000
0103
0000
0010
0100
0010
0000
,
1000
0000
0100
0000
0010
0010
0010
0000
,
0001
0100
0010
1000
,
0100
0011
0100
1010
,
0100
0000
0001
0010
1000
0000
0010
0010
,
0010
0000
0100
0100
0100
0000
1000
0100
,
0010
0000
0001
0100
1000
0100
0001
0000
,
0010
0000
0010
0000
0100
0000
0100
0010
,
0110
0000
0000
1100
0000
0000
1001
0000
,
0010
0001
0010
0000
0100
0000
0100
0000
,
1000
0000
0010
0000
0001
1000
0100
0000
,
0010
1000
0010
0000
0100
0000
0100
0000
,
0001
0000
0010
0000
1000
0010
0001
0000
,
0100
0000
0110
0000
1000
0100
0010
0100
,
0000
1000
0000
0001
0000
0100
0101
0000
,
0010
0000
0110
0000
0001
0100
0010
1000
,
0100
0000
0000
0100
0000
0000
0020
0000
0000
0000
0030
0000
0000
0000
0000
0000
,
0001
0000
0001
0010
,
0100
0000
0100
1000
,
0010
0000
0010
0100
,
0001
0000
1000
0100
,
1000
1000
0100
0001
,
0001
0100
1000
1000
,
1010
0110
0101
0110
,
0001
0000
0000
1000
0000
0000
1001
0000
0000
0000
0000
0000
0000
0000
0000
0000
,
0010
1000
0100
1000
0010
0000
0100
0000
,
0001
0010
0100
0010
1000
0000
0010
0000
,
0001
0100
1000
0010
,
0001
0000
0100
0000
0010
1000
0100
0000
,
0010
0001
0100
0001
0010
0000
0100
0000
,
1000
0010
0100
0010
0001
0000
0010
0000
,
1000
0000
0000
1000
0000
0000
0000
0000
0001
0000
0000
0001
0000
0000
0000
0000
,
0100
0000
0100
0000
0010
0010
0010
0000
,
1000
0100
0001
0100
,
1000
0000
0010
0000
0100
0100
0110
0000
,
0001
0100
1000
0100
,
0001
0100
0001
0100
0001
0100
0001
0000
,
1000
0100
1000
0000
0010
0000
0010
0000
,
0100
0000
0001
0010
1000
0000
0010
0000
,
0002
0203
0320
0030
,
1000
0000
0100
0010
0001
0000
1001
0000
,
0001
0100
0001
0000
0010
0000
0010
0000
,
0100
0000
1000
0010
0001
0000
0010
0000
,
2000
3200
0320
0030
,
0001
0000
0100
0010
1000
0010
0100
0000
,
0001
0010
0100
0010
0001
0010
0001
0000
,
1000
0000
1100
0000
0010
0001
1000
0000
,
0020
0230
0302
0003
,
1000
0000
0010
0100
0010
0000
0000
0000
,
1000
0010
0100
0010
1000
0010
1000
0000
,
0001
0000
0101
0000
0010
1000
0001
0000
,
0020
0230
2300
3000
,
0001
0000
0000
1000
0000
0000
0001
0000
2002
0000
0000
0000
3003
0000
0000
0000
,
0010
0000
0010
0000
0001
0100
1000
0000
,
0100
0000
0100
0000
1000
0100
0001
0000
,
0010
0001
0101
0010
,
1000
0000
1100
0000
0010
0001
0100
0000
,
0010
0000
0010
0000
1000
0100
0001
0000
,
0100
0000
0100
0000
0001
0100
1000
0000
,
0010
1000
0100
0010
0001
0010
0100
0000
,
1000
0000
0000
1000
0000
0000
0000
0000
0010
0000
0100
0000
0010
0000
0000
0100
;

//---------------dance-single - NewbStepper-bSP----------------
#NOTES:
     dance-single:
     NewbStepper:
     Beginner:
     5:
     0.225427,0.271135,0.043591,0.043591,0,181,176,5,5,0,0,0.225427,0.271135,0.043591,0.043591,0,181,176,5,5,0,0:
0000
0000
0000
0000
,
0000
0000
0000
0000
,
1000
0000
0000
0000
,
0000
1000
1000
0000
,
0001
0000
0000
0000
,
0000
0001
0001
0000
,
0100
0000
0100
0000
,
0010
0010
0010
0000
,
0100
0000
0000
0000
,
1001
0000
0000
0000
,
1000
0000
0001
0000
,
1000
0001
1000
0000
,
0010
0000
0100
0000
,
0010
0100
0010
0000
,
0001
0000
1000
0000
,
0001
1000
0001
0000
,
0100
0000
0010
0000
,
0100
0010
0100
0000
,
2000
0000
3000
0000
,
0002
0000
0003
0000
,
2000
0000
3000
0000
,
0002
0000
0003
0000
,
0100
0010
0100
0000
,
0010
0100
0010
0000
,
1000
0000
0001
0000
,
0010
0000
0000
1001
,
1000
0000
0100
0100
,
0100
0100
0100
0000
,
0001
0000
0100
0100
,
0100
0100
0100
0000
,
1000
0000
0010
0010
,
0010
0010
0010
0000
,
0001
0000
0010
0010
,
0010
0010
0010
0000
,
0001
0000
0100
0001
,
0100
0000
0010
0000
,
1000
0000
0100
1000
,
0100
0000
0010
0000
,
0001
0100
0100
0000
,
1000
0100
0100
0000
,
0001
0000
1000
0000
,
0100
0000
0000
1001
,
0010
0000
0010
0000
,
0100
0000
0100
0000
,
0001
0000
0001
0000
,
1000
1000
1000
0000
,
0010
0000
0010
0000
,
0100
0000
0100
0000
,
1000
0000
1000
0000
,
0001
0001
0001
0000
,
1000
0000
0000
0000
,
0001
0000
0000
0000
,
0100
0100
0010
0010
,
2000
0000
3000
0000
,
0001
0001
0001
0000
,
0100
0000
1000
0000
,
1000
1000
1000
0000
,
0100
0000
0001
0000
,
0010
0010
0010
0000
,
0001
0000
0100
0000
,
0010
0010
0010
0000
,
1000
0000
0100
0000
,
0010
0001
0010
0000
,
0100
0000
0100
0000
,
0010
1000
0010
0000
,
0100
0000
0100
0000
,
0001
1000
0001
0000
,
1000
0001
1000
0000
,
0010
0000
0010
0000
,
0110
0000
1001
0000
,
1000
1000
0000
0000
,
0001
0001
0000
0000
,
0100
0100
0000
0000
,
0010
0010
0000
0000
,
1000
0000
0100
0100
,
0100
0000
1000
0001
,
1000
0000
0010
0010
,
0010
0000
0001
1000
;

//---------------dance-double - NewbStepper-EDP----------------
#NOTES:
     dance-double:
     NewbStepper:
     Hard:
     16:
     0.828226,1.053182,0.531808,0.331290,0.775917,665,604,61,38,0,0,0.828226,1.053182,0.531808,0.331290,0.775917,665,604,61,38,0,0:
00000000
00000000
00000000
00000000
,
00000000
00000000
00000000
00000000
,
10000000
00000000
00000000
10000000
00000000
00000000
01000000
00000000
00000000
01000000
00000000
00000000
00010000
00000000
00001000
00000000
,
00011000
00000000
00000000
00010100
00000000
00000000
00001100
00000000
00001000
00000010
00000000
00000010
00000100
00000000
00000000
00000000
,
00000001
00000000
00000000
00000001
00000000
00000000
00000100
00000000
00000000
00000100
00000000
00000000
00001000
00000000
00010000
00000000
,
00011000
00000000
00000000
01001000
00000000
00000000
01010000
00000000
00000000
00000000
00100000
00000000
10000000
00010000
10000000
00000000
,
01000000
00000000
00000000
00010000
00000000
00000000
00001000
00000000
00000000
00000010
00000000
00000000
00000001
00000000
00000100
00000000
,
00000101
00000000
00000000
00001001
00000000
00000000
00001010
00000000
00000010
00000000
00000100
00000000
00000110
00000000
00000000
00000000
,
00000100
00000000
00000000
00001000
00000000
00000000
00010000
00000000
00000000
00100000
00000000
00000000
10000000
00000000
00010000
01000000
,
00010000
00000000
00000000
01010000
00000000
00000000
10100000
00000000
00000000
00000000
10000000
00000000
01000000
00000000
00100000
00000000
,
00020000
00000000
00032000
00000000
00003100
00010000
00001000
00000010
,
00001000
00010000
00001000
00000100
00000110
00000000
00001001
00000000
,
00002000
00000000
00023000
00000000
01030000
00001000
00010000
00100000
,
00010000
00001000
00010000
01000000
01100000
00000000
10010000
00000000
,
20000000
00000000
30020000
00000000
00130000
00001000
00010000
00100000
,
00001000
00000010
00010000
00001000
00000010
00000000
00000110
00000000
,
00000002
00000000
00002003
00000000
00003001
00000100
00001000
00001100
,
00000000
00011000
00000000
00100000
01000000
01000000
01000000
00000000
,
00100000
10000000
00000000
00100000
00000000
01000000
00010000
00000000
00100000
01000000
00000000
00010000
00001000
00000000
00000010
00000001
,
00000010
00000001
00000000
00000010
00000000
00000100
00001000
00000000
00000010
00000100
00000000
00000000
00000001
00000000
00000001
00000000
,
00000010
00000001
00000000
00000010
00000000
00000100
00001000
00000000
00000010
00000100
00000000
00001000
00010000
00000000
00100000
10000000
,
00100000
10000000
00000000
00100000
00000000
01000000
00010000
01000000
00100000
10000000
00000000
10000000
01000000
00000000
00000000
00000000
,
00010000
00001000
00000000
00100000
00010000
00000000
00001000
00000000
00000100
00001000
00000000
00000010
00001000
00000000
00000001
00000000
,
00000010
00001000
00000000
00000010
00001000
00000000
00010000
00001000
00100000
00010000
00100000
00001000
00010000
00000000
00000000
00000000
,
00001000
01000000
10000000
01000000
00010000
00100000
00001000
00000010
,
00000001
00000000
00000000
00000101
00000000
00000000
00000110
00000000
00000000
00000000
00001000
00000001
00000010
00000000
00000000
00000000
,
00000102
00000000
00000003
00000100
00001000
00000000
00010000
00000000
00022000
00033000
00000000
00202000
00303000
00000000
00022000
00033000
,
00000000
00020020
00030030
00000000
00202000
00303000
00000000
02020000
03030000
00000000
00100000
00000000
10100000
00000000
00000000
00000000
,
21000000
00000000
30000000
01000000
00010000
00000000
00001000
00000000
00000010
00000000
00001000
00000000
00010000
00000000
00010000
00000000
,
00000000
00110000
00000000
00000000
00011000
00000000
00010100
00000000
00000010
00000000
00000001
00000000
00001001
00000000
00000000
00000000
,
00000102
00000000
00000000
00000103
00000010
00000000
00001000
00000000
00010000
00000000
01000000
00000000
00010000
00000000
00020000
00000000
,
00030000
10000000
00100000
00000000
00010000
00000000
00001000
00000000
00000010
00000000
00001000
00000000
00010000
00000000
00000000
00000000
,
21000000
00000000
30000000
01000000
00100000
00000000
00010000
00000000
00001000
00000000
00000100
00000000
00001000
00000000
00001000
00000000
,
00000100
00000010
00000000
00000010
00001000
00000000
00010000
00001000
00010000
00000000
00100000
00000000
01100000
00000000
00000000
00000000
,
10000000
10000000
01000000
01000000
,
00010000
00010000
00001000
00001000
,
00000100
00000100
00000001
00000001
,
00000010
00000010
00001100
00000101
,
00000001
00000100
00000001
00000000
00000100
00001000
00000100
00000000
,
00001000
00010000
00001000
00000000
00010000
00100000
00010000
00000000
,
00100000
00000000
10000000
00000000
01000000
00000000
00010000
00000000
00001000
00000000
00100000
00000000
00010000
00000000
00001000
00000100
,
00000010
00000000
00000000
00000110
00000000
00000000
00000110
00000000
00000000
00000000
00000001
00001000
00000010
00000000
00000000
00000000
,
00001000
00000100
00000000
00001000
00000100
00000000
00000010
00000000
00000001
00000100
00000000
00000010
00000000
00001000
00000010
00001000
,
00000010
00000100
00000000
00000100
00001000
00000000
00010000
00001000
00100000
00010000
00000000
00010000
10000000
00000000
00000000
00000000
,
00100000
00000000
00000000
10000000
01000000
00000000
00010000
00000000
00001000
00100000
00000000
00100000
00010000
00000000
00001000
00000100
,
00000000
00000100
00000010
00000000
00000001
00000100
00000000
00000010
00001000
00000000
00010000
00000000
01010000
00000000
00000000
00000000
,
00100000
10000000
00100000
10000000
00100000
00000000
01000000
00000000
00010000
00100000
00000000
10000000
00100000
00000000
00010000
00000000
,
00001000
00000100
00000000
00001000
00000100
00000000
00000010
00000001
00000000
00000100
00000000
00000001
00000010
00000000
00000000
00000000
,
00001000
00000000
00000000
00011000
00000000
00000000
00100000
00000000
01000000
00000000
00000000
00011000
00000000
00000000
00000010
00000000
,
00000100
00000000
00000000
00000101
00000000
00000000
00001010
00000000
00000010
00000000
00000010
00000000
00000110
00000000
00000000
00000000
,
00000001
00000100
00020000
00000000
00031000
00100000
20000000
00000000
,
30100000
10000000
00100000
00010000
00001000
00000010
00000001
00000000
00000100
00000000
00000010
00000000
00000220
00000000
00000330
00000000
,
00000001
00000100
00001000
00010000
00200000
00000000
00300000
00000000
10000000
01000000
00010000
00001000
00000020
00000000
00000030
00000000
,
00000001
00000000
00000100
00000000
00000001
00000010
00000001
00000000
00001000
00000000
00000000
00000001
00000100
00000000
00000000
00000100
00001000
00000000
00010000
00000000
00100000
00000000
10000000
00000000
01000000
00000000
01000000
00000000
01100000
00000000
00000000
00000000
,
00010000
10000000
00010000
10000000
00010000
00100000
00001000
00010000
00001000
00000000
00000000
00100000
00010000
00000000
00001000
00000100
,
00000010
00000000
00000000
00000011
00000000
00000000
00001000
00000000
00000001
00000100
00000001
00000000
00000010
00000000
00000000
00000000
,
00000001
00000100
00000001
00000000
00001000
00000100
00001000
00000000
00000001
00000000
00000100
00001000
00010000
00000000
00000000
00000000
,
00100000
00000000
00000000
10000000
01000000
00000000
00010000
00000000
00001000
00000000
00000010
00000000
00000001
00000000
00000000
00000000
,
00001000
00000001
00001000
00000001
00001000
00000010
00010000
00001000
00010000
00000000
00000000
00000010
00001000
00000000
00010000
01000000
,
00100000
00000000
00000000
10100000
00000000
00000000
00010000
00000000
10000000
01000000
10000000
00000000
00100000
00000000
00000000
00000000
,
10000000
01000000
00001000
01000000
00010000
00001000
00000010
00000000
,
00000001
00000000
00000000
00001000
00000000
00000000
00000010
00000000
00000110
00000000
00000100
00000000
00001001
00000000
00000000
00000000
,
00000001
00000100
00000001
00000100
00000001
00000100
00000010
00000100
00000001
00000000
00000100
00001000
00010000
00000000
00000000
00000000
,
00011000
00000000
00000000
00100000
00010000
00000000
00001000
00000000
00010000
01000000
10000000
00000000
00100000
00000000
00000000
00000000
,
10000000
01000000
10000000
00000000
00010000
01000000
00010000
00000000
00100000
00010000
00001000
00000000
00000100
00000000
00000000
00000000
,
00000010
00000000
00000000
00000001
00000100
00000000
00001000
00000000
00010000
00000000
00100000
00000000
10000000
00000000
00000000
00000000
,
10000000
01000000
10000000
01000000
10000000
01000000
00100000
01000000
10000000
00000000
01000000
00010000
00001000
00000000
00000000
00000000
,
00011000
00000000
00000000
00000010
00001000
00000000
00010000
00000000
00001000
00000100
00000001
00000000
00000010
00000000
00000000
00000000
,
00000001
00000100
00010000
00000100
00001000
00010000
00100000
00000000
,
10100000
00000000
00000000
10010000
00000000
00000000
01010000
00000000
00100000
00000000
10000000
00000000
01000000
00100000
01000000
00000000
,
00020000
00000000
00030000
00001000
00100000
00000000
00001000
00000000
00010000
00000000
00100000
00000000
00010000
00001000
00000000
00010000
,
00002000
00000000
00003000
00010000
00000010
00000000
00001000
00000000
00000100
00000010
00000100
00000000
00000001
00000100
00000000
00000010
,
00001000
00000000
00010000
00001000
00000000
00001000
00200000
00000000
00300000
00010000
01000000
00000000
00100000
10000000
00000000
00100000
,
00010000
00000000
00001000
00000000
00200000
00000000
00320000
00000000
00030000
00001000
00000100
00000000
00000010
00000001
00000000
00000100
,
00000000
00001000
00010000
00000000
00000020
00000000
00002030
00000000
00003000
00010000
01000000
00000000
00100000
00010000
00000000
00001000
,
00000000
00100000
00001000
00100000
00010000
00000000
01000000
00000000
00100000
10000000
00100000
00000000
01000000
00010000
00000000
00010000
,
00001000
00000000
00000010
00000000
00000100
00000000
00001000
00000000
00010000
00000000
00001000
00000000
00000010
00000001
00000000
00000010
,
00001000
00000000
00000000
00011000
00000000
00000000
00010000
00000000
01000000
00000000
10000000
00000000
10100000
00000000
00000000
10010000
;

//---------------dance-double - NewbStepper-DDP----------------
#NOTES:
     dance-double:
     NewbStepper:
     Medium:
     13:
     0.581626,0.713446,0.287700,0.156927,0.322572,467,434,33,18,0,0,0.581626,0.713446,0.287700,0.156927,0.322572,467,434,33,18,0,0:
00000000
00000000
00000000
00000000
,
00000000
00000000
00000000
00000000
,
10000000
00000000
00000000
10000000
00000000
00000000
00010000
00000000
00000000
00010000
00000000
00000000
00100000
00000000
00000000
00000000
,
01000000
00000000
00000000
00010000
00000000
00000000
00001000
00000000
00000000
00000000
00000010
00000000
00000010
00000000
00000000
00000000
,
00000001
00000000
00000000
00000001
00000000
00000000
00001000
00000000
00000000
00001000
00000000
00000000
00000010
00000000
00000000
00000000
,
00000100
00000000
00000000
00001000
00000000
00000000
00010000
00000000
00000000
00000000
00100000
00000000
00100000
00000000
10000000
00000000
,
00010000
00000000
00000000
01000000
00000000
00000000
00100000
00000000
00000000
10000000
00000000
00000000
01000000
00000000
01000000
00000000
,
00010000
00000000
00000000
00001000
00000000
00000000
00000010
00000000
00000000
00000000
00000001
00000000
00000101
00000000
00000000
00000000
,
00001000
00000000
00000000
00000100
00000000
00000000
00000010
00000000
00000000
00000001
00000000
00000000
00000100
00000000
00000100
00000000
,
00000110
00000000
00000000
00010010
00000000
00000000
00011000
00000000
00000000
00000000
00000000
00000000
00000000
00000000
00000000
00000000
,
00002000
00000000
00023000
00000000
00130000
00010000
00100000
00010000
,
00001000
00010000
00100000
01000000
00000000
00000000
01100000
00000000
,
00020000
00000000
00032000
00000000
00003010
00001000
00000010
00001000
,
00010000
00001000
00000010
00000100
00000000
00000000
00000110
00000000
,
00000002
00000000
00000023
00000000
00001030
00010000
00001000
00000100
,
00000001
00000100
00001000
00010000
00000000
00000000
01100000
00000000
,
20000000
00000000
30200000
00000000
00310000
00001000
00010000
00000000
,
00001000
00000100
00000001
00000010
00000100
00000100
00000100
00000000
,
00001000
00000000
00000000
00001000
00000000
00000000
00000100
00000000
00000010
00000000
00000000
00000000
00001000
00000000
00000000
00000000
,
00010000
00000000
00000000
00001000
00000000
00000000
00100000
00000000
00010000
00000000
00000000
00000000
01000000
00000000
00000000
00000000
,
00100000
00000000
00000000
00100000
00000000
00000000
10000000
00000000
01000000
00000000
00000000
01000000
00000000
00000000
00010000
00000000
,
00001000
00000000
00000000
00001000
00000000
00000000
00100000
00000000
00010000
00000000
00001000
00000000
00010000
00000000
00000000
00000000
,
00010000
00000000
00000000
00010000
00000000
00000000
01000000
00000000
00100000
00000000
00000000
00000000
00010000
00000000
00000000
00000000
,
00001000
00000000
00000000
00010000
00000000
00000000
00000010
00000000
00001000
00000000
00000000
00000000
00000100
00000000
00000000
00000000
,
00000010
00000000
00000000
00000010
00000000
00000000
00000001
00000000
00000100
00000000
00000000
00000100
00000000
00000000
00001000
00000000
,
00010000
00000000
00000000
00010000
00000000
00000000
00000010
00000000
00001000
00000000
00010000
00000000
01000000
00000000
00000000
00000000
,
00100000
00000000
00000000
00100000
10000000
00000000
01000000
00000000
00010000
00000000
00000000
00001000
00000000
00000000
00100000
00000000
,
00000000
00001000
00000000
00000000
00010000
00000000
00000000
00010000
00000000
00000000
00000100
00000000
00000100
00000000
00000000
00000000
,
00000010
00000000
00000000
00000010
00000001
00000000
00000100
00000000
00001000
00000000
00010000
00000000
00000000
00000000
00000100
00000000
,
00000000
00001000
00000000
00010000
01000000
00100000
00100000
00000000
,
10000000
00000000
00000000
10000000
01000000
00000000
00100000
00000000
00010000
00000000
00001000
00000000
00000100
00000000
00000010
00000000
,
00000000
00000001
00000000
00000000
00001000
00000000
00000000
00000010
00000000
00000000
00000100
00000000
00000100
00000000
00000000
00000000
,
00000001
00000000
00000000
00000001
00000100
00000000
00000010
00000000
00001000
00000000
00010000
00000000
01000000
00000000
00100000
00000000
,
10000000
00000000
00000000
00010000
00000000
00000000
10010000
00000000
00000000
00000000
01000000
00000000
01000000
00000000
00000000
00000000
,
10000000
10000000
10000000
10000000
,
00010000
00010000
00010000
00010000
,
00001000
00001000
00001000
00001000
,
00000001
00000001
00000001
00000001
,
00000010
00000101
00000010
00001100
,
00010000
00011000
00100000
01100000
,
10000000
11000000
00010000
00101000
,
00011000
00000000
00000000
00011000
00000000
00000000
00011000
00000000
00000000
00000000
00000100
00000000
00000110
00000000
00000000
00000000
,
00000001
00000000
00000000
00001000
00000000
00000000
00000001
00000000
00000000
00000100
00000000
00000000
00001000
00000000
00010000
00000000
,
00001000
00000000
00000000
00100000
00000000
00000000
00010000
00000000
00000000
10000000
00000000
00000000
01000000
00000000
00000000
00000000
,
10000000
00000000
00000000
00010000
00000000
00000000
10000000
00000000
00000000
01000000
00000000
00000000
00010000
00000000
00001000
00000000
,
00010000
00000000
00000000
00010000
00000000
00000000
00001000
00000000
00000100
00000000
00000000
00000000
00001001
00000000
00000000
00000000
,
00000010
00000000
00000000
00000010
00000000
00000000
00000001
00000000
00000000
00000001
00000000
00000000
00000100
00000000
00000010
00000000
,
00001000
00000000
00000000
00001000
00000000
00000000
00010000
00000000
00000000
00010000
00000000
00000000
01000000
00000000
00000000
00000000
,
01010000
00000000
00000000
01010000
00000000
00000000
00000000
00000000
10100000
00000000
00000000
10100000
00000000
00000000
00000000
00000000
,
01000000
00000000
00000000
01000000
00000000
00000000
01000000
00000000
00100000
00000000
00100000
00000000
00100000
00000000
00000000
00000000
,
10000000
01000000
00010000
00000000
00001000
00000100
00000001
00000000
,
00000001
00000010
00001000
00010000
00100000
10000000
00010000
00000000
,
10000000
01000000
10000000
00000000
00100000
00000000
00000000
00000000
00010000
00001000
00010000
00000000
00000010
00000000
00000000
00000000
,
00001000
00000100
00000010
00000001
00000101
00001100
00001010
00000011
,
00000001
00000100
00001000
00000100
00000002
00000000
00001003
00000000
,
00000100
00000000
00000000
00000100
00000000
00000000
00010000
00000000
00001000
00000000
00000010
00000000
00001000
00000000
00000000
00000000
,
00010000
00100000
10000000
00100000
00020000
00000000
00031000
00000000
,
00100000
00000000
00000000
00100000
00000000
00000000
00001000
00000000
00010000
00000000
00000000
00000000
01000000
00000000
00000000
00000000
,
10000000
01000000
00010000
01000000
20000000
00000000
30010000
00000000
,
01000000
00000000
00000000
01000000
00000000
00000000
00001000
00000000
00010000
00000000
00100000
00000000
00010000
00000000
00000000
00000000
,
00001000
00000010
00000001
00000010
00002000
00000000
00013000
00000000
,
00000010
00000000
00000000
00000010
00000000
00000000
00010000
00000000
00001000
00000000
00000000
00000000
00000100
00000000
00000000
00000000
,
00000001
00000000
00000000
00000001
00000010
00000000
00000000
00000010
00000100
00000000
00000000
00000100
00001000
00000000
00000000
00000000
,
00000010
00000000
00000000
00000010
00001000
00000000
00010000
00000000
01000000
00000000
00001000
00000000
00010000
00000000
00000000
00000000
,
00200000
20300000
32000000
03000000
,
00100000
00000000
00000000
00010000
01000000
00000000
00100000
00000000
01000000
00000000
00000000
00000000
10010000
00000000
00000000
00000000
,
10000000
00000000
00000000
10000000
00100000
00000000
00000000
00100000
01000000
00000000
00000000
01000000
00010000
00000000
00000000
00000000
,
00100000
00000000
00000000
00100000
00010000
00000000
00001000
00000000
00000100
00000000
00010000
00000000
00001000
00000000
00000000
00000000
,
00000020
00000032
00000203
00000300
,
00000010
00000000
00000000
00001000
00000100
00000000
00000010
00000000
00000100
00000000
00000000
00000000
00001001
00000000
00000000
00000000
,
00000010
00000000
00000000
00000001
00000000
00000000
00000001
00000000
00000100
00000000
00001000
00000000
00010000
00000000
00100000
00000000
,
10000000
00000000
00000000
10000000
01000000
00000000
00100000
00000000
00010000
00000000
00010000
00000000
10000000
00000000
00000000
00000000
,
00100000
00000000
00000000
10000000
00000000
00000000
01000000
00000000
00000000
00010000
00000000
00000000
00001000
00000000
00000010
00000000
,
00000001
00000000
00000100
00000000
00000010
00000000
00001000
00000000
00000000
00001000
00000100
00000000
00000110
00000000
00000000
00000000
,
00000001
00000000
00000000
00000010
00000000
00000000
00000010
00000000
00001000
00000000
00010000
00000000
00001000
00000000
00000010
00000000
,
00001000
00000000
00000000
00001000
00010000
00000000
00100000
00000000
10000000
00000000
00100000
00000000
00010000
00000000
00000000
00000000
,
00001000
00000000
00001000
00000000
00100000
00000000
00100000
00000000
00010000
00000000
01000000
00000000
00100000
00010000
00000000
00001000
,
00010000
00000000
00000000
00011000
00000000
00000000
00011000
00000000
00001000
00000000
00000100
00000000
00000001
00000000
00000000
00000110
;

//---------------dance-double - NewbStepper-BDP----------------
#NOTES:
     dance-double:
     NewbStepper:
     Easy:
     10:
     0.438399,0.475631,0.148209,0.130773,0.034873,352,335,17,15,0,0,0.438399,0.475631,0.148209,0.130773,0.034873,352,335,17,15,0,0:
00000000
00000000
00000000
00000000
,
00000000
00000000
00000000
00000000
,
00000001
00000100
00000101
00000000
,
00000010
00000000
00001000
00000100
00000000
00000000
00000000
00000000
,
00010000
00001000
00011000
00000000
,
00100000
00000000
10000000
01000000
00000000
00000000
00000000
00000000
,
00100000
00001000
00010000
01000000
,
00010000
00000000
00001000
00010000
00000000
00000000
00000000
00000000
,
00000010
00010000
00001000
00000100
,
00001000
00000000
00000000
00010000
00000000
00000000
00001000
00000000
00000000
00000000
00000000
00000000
00000000
00000000
00000000
00000000
,
00010000
01000000
10000000
01000000
,
00010000
00001000
00010000
00000000
,
00001000
00000100
00000001
00000100
,
00001000
00010000
00001000
00000000
,
00010000
00100000
10000000
00100000
,
00010000
00001000
00010000
00000000
,
00001000
00000010
00000001
00000010
,
00001000
00000000
00010000
00000000
00001000
00010000
00001000
00000000
,
00100000
00000000
00010000
00000000
01000000
01000000
01000000
00000000
,
00010000
00001000
00000100
00000010
,
00000001
00000101
00001000
00001100
,
00000001
00000000
00000010
00001000
00010000
00000000
00000010
00000010
,
00000010
00000000
00001000
00001000
00001000
00000000
00010000
01000000
,
00100000
00000000
10000000
01000000
00010000
00000000
00001000
00000000
,
00000010
00000000
00000010
00000000
00000100
00000000
00000100
00000010
,
00000110
00000000
00000000
00001100
00000000
00000000
00001001
00000000
,
00000010
00000001
00000010
00000000
00000100
00000000
00000100
00000000
,
00010000
00000000
00001000
00000000
00100000
00010000
10000000
00000000
,
00100000
10000000
00100000
00000000
01000000
00000000
01000000
00000000
,
00001000
00000000
00010000
00000000
00000010
00001000
00000001
00000000
,
00000100
00000000
00000110
00000000
00010000
00001000
00000010
00001000
,
00000000
00010000
00000000
01000000
00000000
00100000
00110000
00000000
,
01000000
00000000
01100000
00000000
00001000
00010000
00100000
10000000
,
00010000
00000000
00000000
00010000
00000000
00000000
00200000
00000000
00000000
00000000
00300000
00000000
00000000
00000000
00000000
00000000
,
01000000
00000000
10000000
01000000
,
00010000
00000000
00001000
00000100
,
00000001
00000000
00000001
00000010
,
00001000
00000000
00010000
00001000
,
00100000
00100000
00010000
01000000
,
01000000
10000000
01000000
01000000
,
01010000
00101000
00011000
00010010
,
00000010
00000000
00000000
00000100
00000000
00000000
00000110
00000000
00000000
00000000
00000000
00000000
00000000
00000000
00000000
00000000
,
00000001
00000100
00000010
00000100
00001000
00000000
00010000
00000000
,
00100000
10000000
01000000
00100000
00010000
00000000
01000000
00000000
,
00001000
00000100
00000010
00001000
,
00010000
00000000
00100000
00000000
00001000
00100000
01000000
00000000
,
10000000
01000000
00100000
01000000
00010000
00000000
00001000
00000000
,
00000010
00000001
00000100
00000010
00001000
00000000
00000100
00000000
,
00010000
00000000
00000000
00010000
00000000
00000000
00000000
00000000
00001000
00000000
00000000
00001000
00000000
00000000
00000000
00000000
,
01000000
00000000
01000000
00000000
00100000
00100000
00100000
00000000
,
10000000
01000000
00010000
00001000
,
00000100
00000000
00000001
00000000
00000010
00000010
00000110
00000000
,
00000001
00000100
00001000
00010000
,
01000000
10000000
01000000
10000000
01000000
10000000
00010000
00000000
,
10000000
01000000
10000000
00000000
00100000
00000000
00100000
00000000
,
00010000
00000000
00001000
00000010
00000001
00000000
00001000
00000000
,
00000002
00000203
00002300
00003000
,
00010000
00000000
00000100
00000010
00000001
00000000
00001000
00000000
,
00000001
00000100
00000001
00000000
00000010
00000000
00000010
00000000
,
00001000
00000000
00010000
00100000
10000000
00000000
00010000
00000000
,
20000000
32000000
03020000
00030000
,
00001000
00000000
00100000
00010000
00100000
00000000
00001000
00000000
,
00000010
00000001
00000010
00000001
00001000
00000001
00000010
00000000
,
00001000
00010000
00000010
00010000
,
00002000
00203000
00320000
00030000
,
10000000
00000000
00100000
01000000
00100000
00000000
00000000
00000000
,
00100000
10000000
00100000
10000000
00010000
10000000
00100000
00000000
,
00010000
00001000
00100000
00001000
,
00020000
00030020
00002030
00003000
,
00000001
00000000
00000000
00001000
00000000
00000000
00000100
00000000
00000220
00000000
00000000
00000000
00000330
00000000
00000000
00000000
,
00001000
00000000
00000010
00000000
00000001
00000100
00001000
00000000
,
00010000
00000000
00100000
00000000
10000000
01000000
00010000
00000000
,
00001000
00100000
00010000
00001000
,
00000100
00000000
00000010
00000000
00000001
00000100
00001000
00000000
,
00010000
00000000
00100000
00000000
10000000
01000000
00010000
00000000
,
00001000
00000000
00000010
00000000
00000001
00000100
00001000
00000000
,
00010000
00001000
00010000
00000000
00100000
01000000
00100000
00000000
,
10000000
00000000
00000000
10000000
00000000
00000000
00000000
00000000
00100000
00000000
01000000
00000000
00100000
00000000
00000000
01000000
;
